  0
SECTION
  2
HEADER
  9
$ACADVER
  1
AC1018
  9
$ACADMAINTVER
 70
     0
  9
$DWGCODEPAGE
  3
ANSI_1252
  9
$INSBASE
 10
0.0
 20
0.0
 30
0.0
  9
$EXTMIN
 10
0.0
 20
0.0
 30
0.0
  9
$EXTMAX
 10
100.0
 20
60.0
 30
0.0
  9
$LIMMIN
 10
0.0
 20
0.0
  9
$LIMMAX
 10
100.0
 20
60.0
  9
$ORTHOMODE
 70
     0
  9
$REGENMODE
 70
     1
  9
$FILLMODE
 70
     1
  9
$QTEXTMODE
 70
     0
  9
$MIRRTEXT
 70
     1
  9
$LTSCALE
 40
1.0
  9
$ATTMODE
 70
     1
  9
$TEXTSIZE
 40
0.1388888889
  9
$TRACEWID
 40
0.05
  9
$TEXTSTYLE
  7
Standard
  9
$CLAYER
  8
0
  9
$CELTYPE
  6
ByLayer
  9
$CECOLOR
 62
   256
  9
$CELTSCALE
 40
1.0
  9
$DISPSILH
 70
     0
  9
$DIMSCALE
 40
1.0
  9
$DIMASZ
 40
1.0
  9
$DIMEXO
 40
0.0393700787
  9
$DIMDLI
 40
0.38
  9
$DIMRND
 40
0.0
  9
$DIMDLE
 40
0.0
  9
$DIMEXE
 40
0.0393700787
  9
$DIMTP
 40
0.0
  9
$DIMTM
 40
0.0
  9
$DIMTXT
 40
1.25
  9
$DIMCEN
 40
0.09
  9
$DIMTSZ
 40
0.0
  9
$DIMTOL
 70
     0
  9
$DIMLIM
 70
     0
  9
$DIMTIH
 70
     1
  9
$DIMTOH
 70
     1
  9
$DIMSE1
 70
     0
  9
$DIMSE2
 70
     0
  9
$DIMTAD
 70
     0
  9
$DIMZIN
 70
     0
  9
$DIMBLK
  1

  9
$DIMASO
 70
     1
  9
$DIMSHO
 70
     1
  9
$DIMPOST
  1

  9
$DIMAPOST
  1

  9
$DIMALT
 70
     0
  9
$DIMALTD
 70
     2
  9
$DIMALTF
 40
25.4
  9
$DIMLFAC
 40
1.0
  9
$DIMTOFL
 70
     0
  9
$DIMTVP
 40
0.0
  9
$DIMTIX
 70
     0
  9
$DIMSOXD
 70
     0
  9
$DIMSAH
 70
     0
  9
$DIMBLK1
  1

  9
$DIMBLK2
  1

  9
$DIMSTYLE
  2
Standard
  9
$DIMCLRD
 70
     0
  9
$DIMCLRE
 70
     0
  9
$DIMCLRT
 70
     0
  9
$DIMTFAC
 40
1.0
  9
$DIMGAP
 40
0.06
  9
$DIMJUST
 70
     0
  9
$DIMSD1
 70
     0
  9
$DIMSD2
 70
     0
  9
$DIMTOLJ
 70
     1
  9
$DIMTZIN
 70
     0
  9
$DIMALTZ
 70
     0
  9
$DIMALTTZ
 70
     0
  9
$DIMUPT
 70
     0
  9
$DIMDEC
 70
     3
  9
$DIMTDEC
 70
     2
  9
$DIMALTU
 70
     2
  9
$DIMALTTD
 70
     2
  9
$DIMTXSTY
  7
Standard
  9
$DIMAUNIT
 70
     0
  9
$DIMADEC
 70
     2
  9
$DIMALTRND
 40
0.0
  9
$DIMAZIN
 70
     0
  9
$DIMDSEP
 70
    46
  9
$DIMATFIT
 70
     3
  9
$DIMFRAC
 70
     0
  9
$DIMLDRBLK
  1

  9
$DIMLUNIT
 70
     2
  9
$DIMLWD
 70
    -2
  9
$DIMLWE
 70
    -2
  9
$DIMTMOVE
 70
     0
  9
$LUNITS
 70
     2
  9
$LUPREC
 70
     3
  9
$SKETCHINC
 40
0.1
  9
$FILLETRAD
 40
0.5
  9
$AUNITS
 70
     0
  9
$AUPREC
 70
     2
  9
$MENU
  1
.
  9
$ELEVATION
 40
0.0
  9
$PELEVATION
 40
0.0
  9
$THICKNESS
 40
0.0
  9
$LIMCHECK
 70
     0
  9
$CHAMFERA
 40
0.5
  9
$CHAMFERB
 40
0.5
  9
$CHAMFERC
 40
1.0
  9
$CHAMFERD
 40
0.0
  9
$SKPOLY
 70
     0
  9
$TDCREATE
 40
2456591.455947766
  9
$TDUCREATE
 40
2456591.6642811
  9
$TDUPDATE
 40
2456591.455954641
  9
$TDUUPDATE
 40
2456591.664287975
  9
$TDINDWG
 40
0.0000000116
  9
$TDUSRTIMER
 40
0.0000000116
  9
$USRTIMER
 70
     1
  9
$ANGBASE
 50
0.0
  9
$ANGDIR
 70
     0
  9
$PDMODE
 70
     0
  9
$PDSIZE
 40
-1.0
  9
$PLINEWID
 40
0.0
  9
$SPLFRAME
 70
     0
  9
$SPLINETYPE
 70
     6
  9
$SPLINESEGS
 70
     8
  9
$HANDSEED
  5
4F8
  9
$SURFTAB1
 70
     6
  9
$SURFTAB2
 70
     6
  9
$SURFTYPE
 70
     6
  9
$SURFU
 70
     6
  9
$SURFV
 70
     6
  9
$UCSBASE
  2

  9
$UCSNAME
  2

  9
$UCSORG
 10
0.0
 20
0.0
 30
0.0
  9
$UCSXDIR
 10
1.0
 20
0.0
 30
0.0
  9
$UCSYDIR
 10
0.0
 20
1.0
 30
0.0
  9
$UCSORTHOREF
  2

  9
$UCSORTHOVIEW
 70
     0
  9
$UCSORGTOP
 10
0.0
 20
0.0
 30
0.0
  9
$UCSORGBOTTOM
 10
0.0
 20
0.0
 30
0.0
  9
$UCSORGLEFT
 10
0.0
 20
0.0
 30
0.0
  9
$UCSORGRIGHT
 10
0.0
 20
0.0
 30
0.0
  9
$UCSORGFRONT
 10
0.0
 20
0.0
 30
0.0
  9
$UCSORGBACK
 10
0.0
 20
0.0
 30
0.0
  9
$PUCSBASE
  2

  9
$PUCSNAME
  2

  9
$PUCSORG
 10
0.0
 20
0.0
 30
0.0
  9
$PUCSXDIR
 10
1.0
 20
0.0
 30
0.0
  9
$PUCSYDIR
 10
0.0
 20
1.0
 30
0.0
  9
$PUCSORTHOREF
  2

  9
$PUCSORTHOVIEW
 70
     0
  9
$PUCSORGTOP
 10
0.0
 20
0.0
 30
0.0
  9
$PUCSORGBOTTOM
 10
0.0
 20
0.0
 30
0.0
  9
$PUCSORGLEFT
 10
0.0
 20
0.0
 30
0.0
  9
$PUCSORGRIGHT
 10
0.0
 20
0.0
 30
0.0
  9
$PUCSORGFRONT
 10
0.0
 20
0.0
 30
0.0
  9
$PUCSORGBACK
 10
0.0
 20
0.0
 30
0.0
  9
$USERI1
 70
     0
  9
$USERI2
 70
     0
  9
$USERI3
 70
     0
  9
$USERI4
 70
     0
  9
$USERI5
 70
     0
  9
$USERR1
 40
0.0
  9
$USERR2
 40
0.0
  9
$USERR3
 40
0.0
  9
$USERR4
 40
0.0
  9
$USERR5
 40
0.0
  9
$WORLDVIEW
 70
     1
  9
$SHADEDGE
 70
     3
  9
$SHADEDIF
 70
    70
  9
$TILEMODE
 70
     1
  9
$MAXACTVP
 70
    64
  9
$PINSBASE
 10
0.0
 20
0.0
 30
0.0
  9
$PLIMCHECK
 70
     0
  9
$PEXTMIN
 10
1.0000000000E+20
 20
1.0000000000E+20
 30
1.0000000000E+20
  9
$PEXTMAX
 10
-1.0000000000E+20
 20
-1.0000000000E+20
 30
-1.0000000000E+20
  9
$PLIMMIN
 10
0.0
 20
0.0
  9
$PLIMMAX
 10
12.0
 20
9.0
  9
$UNITMODE
 70
     0
  9
$VISRETAIN
 70
     1
  9
$PLINEGEN
 70
     0
  9
$PSLTSCALE
 70
     1
  9
$TREEDEPTH
 70
  3020
  9
$CMLSTYLE
  2
Standard
  9
$CMLJUST
 70
     0
  9
$CMLSCALE
 40
1.0
  9
$PROXYGRAPHICS
 70
     1
  9
$MEASUREMENT
 70
     0
  9
$CELWEIGHT
370
    -1
  9
$ENDCAPS
280
     0
  9
$JOINSTYLE
280
     0
  9
$LWDISPLAY
290
     1
  9
$INSUNITS
 70
     1
  9
$HYPERLINKBASE
  1

  9
$STYLESHEET
  1

  9
$XEDIT
290
     1
  9
$CEPSNTYPE
380
     0
  9
$PSTYLEMODE
290
     1
  9
$FINGERPRINTGUID
  2
{096C96FD-E5E3-41FA-A224-73856382BF66}
  9
$VERSIONGUID
  2
{FAEB1C32-E019-11D5-929B-00C0DF256EC4}
  9
$EXTNAMES
290
     1
  9
$PSVPSCALE
 40
0.0
  9
$OLESTARTUP
290
     0
  9
$SORTENTS
280
   127
  9
$INDEXCTL
280
     0
  9
$HIDETEXT
280
     1
  9
$XCLIPFRAME
290
     0
  9
$HALOGAP
280
     0
  9
$OBSCOLOR
 70
   257
  9
$OBSLTYPE
280
     0
  9
$INTERSECTIONDISPLAY
280
     0
  9
$INTERSECTIONCOLOR
 70
   257
  9
$DIMASSOC
280
     2
  9
$PROJECTNAME
  1

  0
ENDSEC
  0
SECTION
  2
CLASSES
  0
CLASS
  1
ACDBDICTIONARYWDFLT
  2
AcDbDictionaryWithDefault
  3
ObjectDBX Classes
 90
        0
 91
        4
280
     0
281
     0
  0
CLASS
  1
VISUALSTYLE
  2
AcDbVisualStyle
  3
ObjectDBX Classes
 90
     4095
 91
        4
280
     0
281
     0
  0
CLASS
  1
MATERIAL
  2
AcDbMaterial
  3
ObjectDBX Classes
 90
     1153
 91
        4
280
     0
281
     0
  0
ENDSEC
  0
SECTION
  2
TABLES
  0
TABLE
  2
VPORT
  5
8
330
0
100
AcDbSymbolTable
 70
     1
  0
VPORT
  5
29
330
8
100
AcDbSymbolTableRecord
100
AcDbViewportTableRecord
  2
*Active
 70
     0
 10
0.0
 20
0.0
 11
1.0
 21
1.0
 12
50.0
 22
30.0
 13
0.0
 23
0.0
 14
0.5
 24
0.5
 15
0.5
 25
0.5
 16
0.0
 26
0.0
 36
1.0
 17
0.0
 27
0.0
 37
0.0
 40
60.0
 41
1.6666666667
 42
50.0
 43
0.0
 44
0.0
 50
0.0
 51
0.0
 71
     0
 72
  2000
 73
     1
 74
     3
 75
     0
 76
     0
 77
     0
 78
     0
281
     0
 65
     1
110
0.0
120
0.0
130
0.0
111
1.0
121
0.0
131
0.0
112
0.0
122
1.0
132
0.0
 79
     0
146
0.0
  0
ENDTAB
  0
TABLE
  2
LTYPE
  5
5
330
0
100
AcDbSymbolTable
 70
     6
  0
LTYPE
  5
14
330
5
100
AcDbSymbolTableRecord
100
AcDbLinetypeTableRecord
  2
ByBlock
 70
     0
  3

 72
    65
 73
     0
 40
0.0
  0
LTYPE
  5
15
330
5
100
AcDbSymbolTableRecord
100
AcDbLinetypeTableRecord
  2
ByLayer
 70
     0
  3

 72
    65
 73
     0
 40
0.0
  0
LTYPE
  5
16
330
5
100
AcDbSymbolTableRecord
100
AcDbLinetypeTableRecord
  2
Continuous
 70
     0
  3
Solid line
 72
    65
 73
     0
 40
0.0
  0
LTYPE
  5
3F
330
5
100
AcDbSymbolTableRecord
100
AcDbLinetypeTableRecord
  2
HIDDEN
 70
     0
  3
Hidden __ __ __ __ __ __ __ __ __ __ __ __ __ __
 72
    65
 73
     2
 40
0.075
 49
0.05
 74
     0
 49
-0.025
 74
     0
  0
LTYPE
  5
40
330
5
100
AcDbSymbolTableRecord
100
AcDbLinetypeTableRecord
  2
PHANTOM
 70
     0
  3
Phantom ______  __  __  ______  __  __  ______
 72
    65
 73
     6
 40
0.5
 49
0.25
 74
     0
 49
-0.05
 74
     0
 49
0.05
 74
     0
 49
-0.05
 74
     0
 49
0.05
 74
     0
 49
-0.05
 74
     0
  0
LTYPE
  5
41
330
5
100
AcDbSymbolTableRecord
100
AcDbLinetypeTableRecord
  2
CENTER
 70
     0
  3
Center ____ _ ____ _ ____ _ ____ _ ____ _ ____
 72
    65
 73
     4
 40
0.4
 49
0.25
 74
     0
 49
-0.05
 74
     0
 49
0.05
 74
     0
 49
-0.05
 74
     0
  0
LTYPE
  5
42
330
5
100
AcDbSymbolTableRecord
100
AcDbLinetypeTableRecord
  2
CENTERX2
 70
     0
  3
Center (2x) ________  __  ________  __  _____
 72
    65
 73
     4
 40
0.8
 49
0.5
 74
     0
 49
-0.1
 74
     0
 49
0.1
 74
     0
 49
-0.1
 74
     0
  0
LTYPE
  5
43
330
5
100
AcDbSymbolTableRecord
100
AcDbLinetypeTableRecord
  2
DOT2
 70
     0
  3
Dot (.5x) ........................................
 72
    65
 73
     2
 40
0.025
 49
0.0
 74
     0
 49
-0.025
 74
     0
  0
ENDTAB
  0
TABLE
  2
LAYER
  5
2
330
0
100
AcDbSymbolTable
 70
     4
  0
LAYER
  5
10
330
2
100
AcDbSymbolTableRecord
100
AcDbLayerTableRecord
  2
0
 70
     0
 62
     7
  6
Continuous
370
    -3
390
F
  0
LAYER
  5
44
330
2
100
AcDbSymbolTableRecord
100
AcDbLayerTableRecord
  2
SLD-0
 70
     0
 62
     7
  6
Continuous
370
    -3
390
F
  0
LAYER
  5
45
330
2
100
AcDbSymbolTableRecord
100
AcDbLayerTableRecord
  2
NOTES
 70
     0
 62
     1
  6
Continuous
370
    -3
390
F
  0
LAYER
  5
46
330
2
100
AcDbSymbolTableRecord
100
AcDbLayerTableRecord
  2
DIM
 70
     0
 62
   100
  6
Continuous
370
    -3
390
F
  0
ENDTAB
  0
TABLE
  2
STYLE
  5
3
330
0
100
AcDbSymbolTable
 70
     2
  0
STYLE
  5
11
330
3
100
AcDbSymbolTableRecord
100
AcDbTextStyleTableRecord
  2
Standard
 70
     0
 40
0.0
 41
1.0
 50
0.0
 71
     0
 42
0.1388888889
  3
txt
  4

  0
STYLE
  5
4A
330
3
100
AcDbSymbolTableRecord
100
AcDbTextStyleTableRecord
  2
SLDTEXTSTYLE0
 70
     0
 40
0.0
 41
0.75
 50
0.0
 71
     0
 42
0.2
  3
TXT
  4

  0
ENDTAB
  0
TABLE
  2
VIEW
  5
6
330
0
100
AcDbSymbolTable
 70
     0
  0
ENDTAB
  0
TABLE
  2
UCS
  5
7
330
0
100
AcDbSymbolTable
 70
     0
  0
ENDTAB
  0
TABLE
  2
APPID
  5
9
330
0
100
AcDbSymbolTable
 70
     1
  0
APPID
  5
12
330
9
100
AcDbSymbolTableRecord
100
AcDbRegAppTableRecord
  2
ACAD
 70
     0
  0
ENDTAB
  0
TABLE
  2
DIMSTYLE
  5
A
330
0
100
AcDbSymbolTable
 70
     4
100
AcDbDimStyleTable
  0
DIMSTYLE
105
27
330
A
100
AcDbSymbolTableRecord
100
AcDbDimStyleTableRecord
  2
Standard
 70
     0
178
     0
340
11
  0
DIMSTYLE
105
F6
102
{ACAD_REACTORS
330
F5
330
105
330
12D
330
212
330
24F
330
26D
330
27C
330
29A
330
3CE
330
3ED
102
}
330
A
100
AcDbSymbolTableRecord
100
AcDbDimStyleTableRecord
  2
SLDDIMSTYLE0
 70
     0
 41
1.0
 44
0.0
 45
0.000000001
 78
    12
 79
     3
140
1.25
147
0.3125
173
     1
178
     0
271
     3
272
     2
276
     2
277
     5
284
    12
340
4A
  0
DIMSTYLE
105
113
102
{ACAD_REACTORS
330
112
330
11E
330
221
330
230
330
23F
330
25E
330
28B
330
3DD
102
}
330
A
100
AcDbSymbolTableRecord
100
AcDbDimStyleTableRecord
  2
SLDDIMSTYLE1
 70
     0
 41
1.0
 44
0.0
 45
0.000000001
 78
    12
 79
     3
140
1.25
147
0.3125
172
     1
173
     1
178
     0
271
     3
272
     2
276
     2
277
     5
284
    12
289
     0
340
4A
  0
DIMSTYLE
105
2AA
102
{ACAD_REACTORS
330
2A9
330
2B3
102
}
330
A
100
AcDbSymbolTableRecord
100
AcDbDimStyleTableRecord
  2
SLDDIMSTYLE2
 70
     0
 41
1.0
 44
0.0
 45
0.000000001
 78
    12
 79
     3
140
1.25
141
0.0
147
0.3125
173
     1
178
     0
271
     3
272
     2
276
     2
277
     5
284
    12
340
4A
  0
ENDTAB
  0
TABLE
  2
BLOCK_RECORD
  5
1
330
0
100
AcDbSymbolTable
 70
    24
  0
BLOCK_RECORD
  5
1F
330
1
100
AcDbSymbolTableRecord
100
AcDbBlockTableRecord
  2
*Model_Space
340
22
  0
BLOCK_RECORD
  5
1B
330
1
100
AcDbSymbolTableRecord
100
AcDbBlockTableRecord
  2
*Paper_Space
340
1E
  0
BLOCK_RECORD
  5
23
330
1
100
AcDbSymbolTableRecord
100
AcDbBlockTableRecord
  2
*Paper_Space0
340
26
  0
BLOCK_RECORD
  5
47
330
1
100
AcDbSymbolTableRecord
100
AcDbBlockTableRecord
  2
SW_NOTE_0
340
0
102
{BLKREFS
331
4D
102
}
  0
BLOCK_RECORD
  5
F7
330
1
100
AcDbSymbolTableRecord
100
AcDbBlockTableRecord
  2
_D
340
0
  0
BLOCK_RECORD
  5
106
330
1
100
AcDbSymbolTableRecord
100
AcDbBlockTableRecord
  2
_D_1
340
0
  0
BLOCK_RECORD
  5
114
330
1
100
AcDbSymbolTableRecord
100
AcDbBlockTableRecord
  2
_D_2
340
0
  0
BLOCK_RECORD
  5
11F
330
1
100
AcDbSymbolTableRecord
100
AcDbBlockTableRecord
  2
_D_3
340
0
  0
BLOCK_RECORD
  5
12E
330
1
100
AcDbSymbolTableRecord
100
AcDbBlockTableRecord
  2
_D_4
340
0
  0
BLOCK_RECORD
  5
213
330
1
100
AcDbSymbolTableRecord
100
AcDbBlockTableRecord
  2
_D_5
340
0
  0
BLOCK_RECORD
  5
222
330
1
100
AcDbSymbolTableRecord
100
AcDbBlockTableRecord
  2
_D_6
340
0
  0
BLOCK_RECORD
  5
231
330
1
100
AcDbSymbolTableRecord
100
AcDbBlockTableRecord
  2
_D_7
340
0
  0
BLOCK_RECORD
  5
240
330
1
100
AcDbSymbolTableRecord
100
AcDbBlockTableRecord
  2
_D_8
340
0
  0
BLOCK_RECORD
  5
250
330
1
100
AcDbSymbolTableRecord
100
AcDbBlockTableRecord
  2
_D_9
340
0
  0
BLOCK_RECORD
  5
25F
330
1
100
AcDbSymbolTableRecord
100
AcDbBlockTableRecord
  2
_D_10
340
0
  0
BLOCK_RECORD
  5
26E
330
1
100
AcDbSymbolTableRecord
100
AcDbBlockTableRecord
  2
_D_11
340
0
  0
BLOCK_RECORD
  5
27D
330
1
100
AcDbSymbolTableRecord
100
AcDbBlockTableRecord
  2
_D_12
340
0
  0
BLOCK_RECORD
  5
28C
330
1
100
AcDbSymbolTableRecord
100
AcDbBlockTableRecord
  2
_D_13
340
0
  0
BLOCK_RECORD
  5
29B
330
1
100
AcDbSymbolTableRecord
100
AcDbBlockTableRecord
  2
_D_14
340
0
  0
BLOCK_RECORD
  5
2AB
330
1
100
AcDbSymbolTableRecord
100
AcDbBlockTableRecord
  2
_D_15
340
0
  0
BLOCK_RECORD
  5
2B4
330
1
100
AcDbSymbolTableRecord
100
AcDbBlockTableRecord
  2
_D_16
340
0
  0
BLOCK_RECORD
  5
2BC
330
1
100
AcDbSymbolTableRecord
100
AcDbBlockTableRecord
  2
SW_CENTERMARKSYMBOL_0
340
0
102
{BLKREFS
331
2C7
102
}
  0
BLOCK_RECORD
  5
2C8
330
1
100
AcDbSymbolTableRecord
100
AcDbBlockTableRecord
  2
SW_CENTERMARKSYMBOL_1
340
0
102
{BLKREFS
331
2D3
102
}
  0
BLOCK_RECORD
  5
3CF
330
1
100
AcDbSymbolTableRecord
100
AcDbBlockTableRecord
  2
_D_17
340
0
  0
BLOCK_RECORD
  5
3DE
330
1
100
AcDbSymbolTableRecord
100
AcDbBlockTableRecord
  2
_D_18
340
0
  0
BLOCK_RECORD
  5
3EE
330
1
100
AcDbSymbolTableRecord
100
AcDbBlockTableRecord
  2
_D_19
340
0
  0
ENDTAB
  0
ENDSEC
  0
SECTION
  2
BLOCKS
  0
BLOCK
  5
20
330
1F
100
AcDbEntity
  8
0
100
AcDbBlockBegin
  2
*Model_Space
 70
     0
 10
0.0
 20
0.0
 30
0.0
  3
*Model_Space
  1

  0
ENDBLK
  5
21
330
1F
100
AcDbEntity
  8
0
100
AcDbBlockEnd
  0
BLOCK
  5
1C
330
1B
100
AcDbEntity
 67
     1
  8
0
100
AcDbBlockBegin
  2
*Paper_Space
 70
     0
 10
0.0
 20
0.0
 30
0.0
  3
*Paper_Space
  1

  0
ENDBLK
  5
1D
330
1B
100
AcDbEntity
 67
     1
  8
0
100
AcDbBlockEnd
  0
BLOCK
  5
24
330
23
100
AcDbEntity
  8
0
100
AcDbBlockBegin
  2
*Paper_Space0
 70
     0
 10
0.0
 20
0.0
 30
0.0
  3
*Paper_Space0
  1

  0
ENDBLK
  5
25
330
23
100
AcDbEntity
  8
0
100
AcDbBlockEnd
  0
BLOCK
  5
48
330
47
100
AcDbEntity
  8
0
100
AcDbBlockBegin
  2
SW_NOTE_0
 70
     0
 10
0.0
 20
0.0
 30
0.0
  3
SW_NOTE_0
  1

  0
MTEXT
  5
4B
330
47
100
AcDbEntity
  8
NOTES
 62
     0
100
AcDbMText
 10
0.0
 20
2.2558685446
 30
0.0
 40
1.75
 41
0.0
 71
     1
 72
     1
  1
DVL25IN33(N,P)-1
  7
SLDTEXTSTYLE0
 73
     1
 44
1.0
  0
MTEXT
  5
4C
330
47
100
AcDbEntity
  8
NOTES
 62
     0
100
AcDbMText
 10
0.0
 20
-0.0069786748
 30
0.0
 40
1.75
 41
0.0
 71
     1
 72
     1
  1
DVL25IN73(N,P)-2
  7
SLDTEXTSTYLE0
 73
     1
 44
1.0
  0
ENDBLK
  5
49
330
47
100
AcDbEntity
  8
0
100
AcDbBlockEnd
  0
BLOCK
  5
F8
330
F7
100
AcDbEntity
  8
0
100
AcDbBlockBegin
  2
_D
 70
     0
 10
0.0
 20
0.0
 30
0.0
  3
_D
  1

  0
SOLID
  5
FA
330
F7
100
AcDbEntity
  8
DIM
100
AcDbTrace
 10
66.5899598484
 20
18.5320523938
 30
0.0
 11
66.3399598484
 21
17.5320523938
 31
0.0
 12
66.8399598484
 22
17.5320523938
 32
0.0
 13
66.8399598484
 23
17.5320523938
 33
0.0
  0
SOLID
  5
FB
330
F7
100
AcDbEntity
  8
DIM
100
AcDbTrace
 10
66.5899598484
 20
5.8350523938
 30
0.0
 11
66.8399598484
 21
6.8350523938
 31
0.0
 12
66.3399598484
 22
6.8350523938
 32
0.0
 13
66.3399598484
 23
6.8350523938
 33
0.0
  0
LINE
  5
FC
330
F7
100
AcDbEntity
  8
DIM
100
AcDbLine
 10
67.4979459139
 20
13.4335523603
 30
0.0
 11
65.9979458661
 21
10.9335522805
 31
0.0
  0
LINE
  5
FD
330
F7
100
AcDbEntity
  8
DIM
100
AcDbLine
 10
61.2328630277
 20
18.5320523938
 30
0.0
 11
66.6293299271
 21
18.5320523938
 31
0.0
  0
LINE
  5
FE
330
F7
100
AcDbEntity
  8
DIM
100
AcDbLine
 10
61.2328630277
 20
5.8350523938
 30
0.0
 11
66.6293299271
 21
5.8350523938
 31
0.0
  0
LINE
  5
FF
330
F7
100
AcDbEntity
  8
DIM
100
AcDbLine
 10
66.5899598484
 20
18.5320523938
 30
0.0
 11
66.5899598484
 21
13.7998718152
 31
0.0
  0
LINE
  5
100
330
F7
100
AcDbEntity
  8
DIM
100
AcDbLine
 10
66.5899598484
 20
5.8350523938
 30
0.0
 11
66.5899598484
 21
10.5672329723
 31
0.0
  0
MTEXT
  5
101
330
F7
100
AcDbEntity
  8
DIM
100
AcDbMText
 10
63.0535015819
 20
12.8999217872
 30
8.8640669022
 40
1.25
 41
0.0
 71
     1
 72
     1
  1
12
  7
SLDTEXTSTYLE0
 73
     1
 44
1.0
  0
MTEXT
  5
102
330
F7
100
AcDbEntity
  8
DIM
100
AcDbMText
 10
64.9007237359
 20
13.7948869218
 30
8.8640669022
 40
1.25
 41
0.0
 71
     1
 72
     1
  1
11
  7
SLDTEXTSTYLE0
 73
     1
 44
1.0
  0
MTEXT
  5
103
330
F7
100
AcDbEntity
  8
DIM
100
AcDbMText
 10
66.74794589
 20
12.1785675003
 30
8.8640669022
 40
1.25
 41
0.0
 71
     1
 72
     1
  1
16
  7
SLDTEXTSTYLE0
 73
     1
 44
1.0
  0
MTEXT
  5
104
330
F7
100
AcDbEntity
  8
DIM
100
AcDbMText
 10
68.5951683374
 20
12.8999217872
 30
8.8640669022
 40
1.25
 41
0.0
 71
     1
 72
     1
  1
"
  7
SLDTEXTSTYLE0
 73
     1
 44
1.0
  0
ENDBLK
  5
F9
330
F7
100
AcDbEntity
  8
0
100
AcDbBlockEnd
  0
BLOCK
  5
107
330
106
100
AcDbEntity
  8
0
100
AcDbBlockBegin
  2
_D_1
 70
     0
 10
0.0
 20
0.0
 30
0.0
  3
_D_1
  1

  0
SOLID
  5
109
330
106
100
AcDbEntity
  8
DIM
100
AcDbTrace
 10
33.768492949
 20
12.5186335839
 30
0.0
 11
34.768492949
 21
12.2686335839
 31
0.0
 12
34.768492949
 22
12.7686335839
 32
0.0
 13
34.768492949
 23
12.7686335839
 33
0.0
  0
SOLID
  5
10A
330
106
100
AcDbEntity
  8
DIM
100
AcDbTrace
 10
61.268492949
 20
12.5186335839
 30
0.0
 11
60.268492949
 21
12.7686335839
 31
0.0
 12
60.268492949
 22
12.2686335839
 32
0.0
 13
60.268492949
 23
12.2686335839
 33
0.0
  0
LINE
  5
10B
330
106
100
AcDbEntity
  8
DIM
100
AcDbLine
 10
48.4264791612
 20
13.7686335505
 30
0.0
 11
46.9264791133
 21
11.2686334707
 31
0.0
  0
LINE
  5
10C
330
106
100
AcDbEntity
  8
DIM
100
AcDbLine
 10
33.768492949
 20
12.5186335839
 30
0.0
 11
44.9056459062
 21
12.5186335839
 31
0.0
  0
LINE
  5
10D
330
106
100
AcDbEntity
  8
DIM
100
AcDbLine
 10
61.268492949
 20
12.5186335839
 30
0.0
 11
50.1313399918
 21
12.5186335839
 31
0.0
  0
MTEXT
  5
10E
330
106
100
AcDbEntity
  8
DIM
100
AcDbMText
 10
44.9056459062
 20
13.2350029774
 30
8.8640669022
 40
1.25
 41
0.0
 71
     1
 72
     1
  1
27
  7
SLDTEXTSTYLE0
 73
     1
 44
1.0
  0
MTEXT
  5
10F
330
106
100
AcDbEntity
  8
DIM
100
AcDbMText
 10
46.7528680602
 20
14.129968112
 30
8.8640669022
 40
1.25
 41
0.0
 71
     1
 72
     1
  1
1
  7
SLDTEXTSTYLE0
 73
     1
 44
1.0
  0
MTEXT
  5
110
330
106
100
AcDbEntity
  8
DIM
100
AcDbMText
 10
47.6764791373
 20
12.5136486905
 30
8.8640669022
 40
1.25
 41
0.0
 71
     1
 72
     1
  1
2
  7
SLDTEXTSTYLE0
 73
     1
 44
1.0
  0
MTEXT
  5
111
330
106
100
AcDbEntity
  8
DIM
100
AcDbMText
 10
48.6000902143
 20
13.2350029774
 30
8.8640669022
 40
1.25
 41
0.0
 71
     1
 72
     1
  1
"
  7
SLDTEXTSTYLE0
 73
     1
 44
1.0
  0
ENDBLK
  5
108
330
106
100
AcDbEntity
  8
0
100
AcDbBlockEnd
  0
BLOCK
  5
115
330
114
100
AcDbEntity
  8
0
100
AcDbBlockBegin
  2
_D_2
 70
     0
 10
0.0
 20
0.0
 30
0.0
  3
_D_2
  1

  0
SOLID
  5
117
330
114
100
AcDbEntity
  8
DIM
100
AcDbTrace
 10
66.5899598484
 20
18.5320523938
 30
0.0
 11
66.3399598484
 21
17.5320523938
 31
0.0
 12
66.8399598484
 22
17.5320523938
 32
0.0
 13
66.8399598484
 23
17.5320523938
 33
0.0
  0
SOLID
  5
118
330
114
100
AcDbEntity
  8
DIM
100
AcDbTrace
 10
66.5899598484
 20
22.5275548706
 30
0.0
 11
66.8399598484
 21
23.5275548706
 31
0.0
 12
66.3399598484
 22
23.5275548706
 32
0.0
 13
66.3399598484
 23
23.5275548706
 33
0.0
  0
LINE
  5
119
330
114
100
AcDbEntity
  8
DIM
100
AcDbLine
 10
61.2328630277
 20
18.5320523938
 30
0.0
 11
66.6293299271
 21
18.5320523938
 31
0.0
  0
LINE
  5
11A
330
114
100
AcDbEntity
  8
DIM
100
AcDbLine
 10
61.8008630277
 20
22.5275548706
 30
0.0
 11
66.6293299271
 21
22.5275548706
 31
0.0
  0
LINE
  5
11B
330
114
100
AcDbEntity
  8
DIM
100
AcDbLine
 10
66.5899598484
 20
18.5320523938
 30
0.0
 11
66.5899598484
 21
17.0320523938
 31
0.0
  0
LINE
  5
11C
330
114
100
AcDbEntity
  8
DIM
100
AcDbLine
 10
66.5899598484
 20
22.5275548706
 30
0.0
 11
66.5899598484
 21
24.0275548706
 31
0.0
  0
MTEXT
  5
11D
330
114
100
AcDbEntity
  8
DIM
100
AcDbMText
 10
65.3625293478
 20
21.1489508687
 30
8.8640669022
 40
1.25
 41
0.0
 71
     1
 72
     1
  1
4"
  7
SLDTEXTSTYLE0
 73
     1
 44
1.0
  0
ENDBLK
  5
116
330
114
100
AcDbEntity
  8
0
100
AcDbBlockEnd
  0
BLOCK
  5
120
330
11F
100
AcDbEntity
  8
0
100
AcDbBlockBegin
  2
_D_3
 70
     0
 10
0.0
 20
0.0
 30
0.0
  3
_D_3
  1

  0
SOLID
  5
122
330
11F
100
AcDbEntity
  8
DIM
100
AcDbTrace
 10
66.5899598484
 20
2.8033061938
 30
0.0
 11
66.3399598484
 21
1.8033061938
 31
0.0
 12
66.8399598484
 22
1.8033061938
 32
0.0
 13
66.8399598484
 23
1.8033061938
 33
0.0
  0
SOLID
  5
123
330
11F
100
AcDbEntity
  8
DIM
100
AcDbTrace
 10
66.5899598484
 20
5.8350523938
 30
0.0
 11
66.8399598484
 21
6.8350523938
 31
0.0
 12
66.3399598484
 22
6.8350523938
 32
0.0
 13
66.3399598484
 23
6.8350523938
 33
0.0
  0
LINE
  5
124
330
11F
100
AcDbEntity
  8
DIM
100
AcDbLine
 10
66.5743349836
 20
5.3918455402
 30
0.0
 11
65.0743349357
 21
2.8918454604
 31
0.0
  0
LINE
  5
125
330
11F
100
AcDbEntity
  8
DIM
100
AcDbLine
 10
61.0141130277
 20
2.8033061938
 30
0.0
 11
66.6293299271
 21
2.8033061938
 31
0.0
  0
LINE
  5
126
330
11F
100
AcDbEntity
  8
DIM
100
AcDbLine
 10
61.2328630277
 20
5.8350523938
 30
0.0
 11
66.6293299271
 21
5.8350523938
 31
0.0
  0
LINE
  5
127
330
11F
100
AcDbEntity
  8
DIM
100
AcDbLine
 10
66.5899598484
 20
2.8033061938
 30
0.0
 11
66.5899598484
 21
1.3033061938
 31
0.0
  0
LINE
  5
128
330
11F
100
AcDbEntity
  8
DIM
100
AcDbLine
 10
66.5899598484
 20
5.8350523938
 30
0.0
 11
66.5899598484
 21
7.3350523938
 31
0.0
  0
MTEXT
  5
129
330
11F
100
AcDbEntity
  8
DIM
100
AcDbMText
 10
63.9771128056
 20
4.8582149671
 30
8.8640669022
 40
1.25
 41
0.0
 71
     1
 72
     1
  1
3
  7
SLDTEXTSTYLE0
 73
     1
 44
1.0
  0
MTEXT
  5
12A
330
11F
100
AcDbEntity
  8
DIM
100
AcDbMText
 10
64.9007238826
 20
5.7531801017
 30
8.8640669022
 40
1.25
 41
0.0
 71
     1
 72
     1
  1
1
  7
SLDTEXTSTYLE0
 73
     1
 44
1.0
  0
MTEXT
  5
12B
330
11F
100
AcDbEntity
  8
DIM
100
AcDbMText
 10
65.8243349596
 20
4.1368606802
 30
8.8640669022
 40
1.25
 41
0.0
 71
     1
 72
     1
  1
16
  7
SLDTEXTSTYLE0
 73
     1
 44
1.0
  0
MTEXT
  5
12C
330
11F
100
AcDbEntity
  8
DIM
100
AcDbMText
 10
67.6715571137
 20
4.8582149671
 30
8.8640669022
 40
1.25
 41
0.0
 71
     1
 72
     1
  1
"
  7
SLDTEXTSTYLE0
 73
     1
 44
1.0
  0
ENDBLK
  5
121
330
11F
100
AcDbEntity
  8
0
100
AcDbBlockEnd
  0
BLOCK
  5
12F
330
12E
100
AcDbEntity
  8
0
100
AcDbBlockBegin
  2
_D_4
 70
     0
 10
0.0
 20
0.0
 30
0.0
  3
_D_4
  1

  0
SOLID
  5
131
330
12E
100
AcDbEntity
  8
DIM
100
AcDbTrace
 10
29.893492949
 20
2.8033061938
 30
0.0
 11
30.143492949
 21
3.8033061938
 31
0.0
 12
29.643492949
 22
3.8033061938
 32
0.0
 13
29.643492949
 23
3.8033061938
 33
0.0
  0
SOLID
  5
132
330
12E
100
AcDbEntity
  8
DIM
100
AcDbTrace
 10
29.893492949
 20
22.6930799007
 30
0.0
 11
29.643492949
 21
21.6930799007
 31
0.0
 12
30.143492949
 22
21.6930799007
 32
0.0
 13
30.143492949
 23
21.6930799007
 33
0.0
  0
LINE
  5
133
330
12E
100
AcDbEntity
  8
DIM
100
AcDbLine
 10
30.8014791612
 20
13.9981930138
 30
0.0
 11
29.3014791133
 21
11.498192934
 31
0.0
  0
LINE
  5
134
330
12E
100
AcDbEntity
  8
DIM
100
AcDbLine
 10
34.0228728702
 20
2.8033061938
 30
0.0
 11
29.8541228702
 21
2.8033061938
 31
0.0
  0
LINE
  5
135
330
12E
100
AcDbEntity
  8
DIM
100
AcDbLine
 10
43.1183793501
 20
22.6930799007
 30
0.0
 11
29.8541228702
 21
22.6930799007
 31
0.0
  0
LINE
  5
136
330
12E
100
AcDbEntity
  8
DIM
100
AcDbLine
 10
29.893492949
 20
2.8033061938
 30
0.0
 11
29.893492949
 21
11.1318736257
 31
0.0
  0
LINE
  5
137
330
12E
100
AcDbEntity
  8
DIM
100
AcDbLine
 10
29.893492949
 20
22.6930799007
 30
0.0
 11
29.893492949
 21
14.3645124687
 31
0.0
  0
MTEXT
  5
138
330
12E
100
AcDbEntity
  8
DIM
100
AcDbMText
 10
27.2806459062
 20
13.4645624406
 30
8.8640669022
 40
1.25
 41
0.0
 71
     1
 72
     1
  1
19
  7
SLDTEXTSTYLE0
 73
     1
 44
1.0
  0
MTEXT
  5
139
330
12E
100
AcDbEntity
  8
DIM
100
AcDbMText
 10
29.1278680602
 20
14.3595275753
 30
8.8640669022
 40
1.25
 41
0.0
 71
     1
 72
     1
  1
7
  7
SLDTEXTSTYLE0
 73
     1
 44
1.0
  0
MTEXT
  5
13A
330
12E
100
AcDbEntity
  8
DIM
100
AcDbMText
 10
30.0514791373
 20
12.7432081538
 30
8.8640669022
 40
1.25
 41
0.0
 71
     1
 72
     1
  1
8
  7
SLDTEXTSTYLE0
 73
     1
 44
1.0
  0
MTEXT
  5
13B
330
12E
100
AcDbEntity
  8
DIM
100
AcDbMText
 10
30.9750902143
 20
13.4645624406
 30
8.8640669022
 40
1.25
 41
0.0
 71
     1
 72
     1
  1
"
  7
SLDTEXTSTYLE0
 73
     1
 44
1.0
  0
ENDBLK
  5
130
330
12E
100
AcDbEntity
  8
0
100
AcDbBlockEnd
  0
BLOCK
  5
214
330
213
100
AcDbEntity
  8
0
100
AcDbBlockBegin
  2
_D_5
 70
     0
 10
0.0
 20
0.0
 30
0.0
  3
_D_5
  1

  0
SOLID
  5
216
330
213
100
AcDbEntity
  8
DIM
100
AcDbTrace
 10
39.0624682398
 20
57.7308133753
 30
0.0
 11
40.0624682398
 21
57.4808133753
 31
0.0
 12
40.0624682398
 22
57.9808133753
 32
0.0
 13
40.0624682398
 23
57.9808133753
 33
0.0
  0
SOLID
  5
217
330
213
100
AcDbEntity
  8
DIM
100
AcDbTrace
 10
55.9745176582
 20
57.7308133753
 30
0.0
 11
54.9745176582
 21
57.9808133753
 31
0.0
 12
54.9745176582
 22
57.4808133753
 32
0.0
 13
54.9745176582
 23
57.4808133753
 33
0.0
  0
LINE
  5
218
330
213
100
AcDbEntity
  8
DIM
100
AcDbLine
 10
48.4264790145
 20
58.9808133418
 30
0.0
 11
46.9264789667
 21
56.480813262
 31
0.0
  0
LINE
  5
219
330
213
100
AcDbEntity
  8
DIM
100
AcDbLine
 10
39.0624682398
 20
51.2201834471
 30
0.0
 11
39.0624682398
 21
57.770183454
 31
0.0
  0
LINE
  5
21A
330
213
100
AcDbEntity
  8
DIM
100
AcDbLine
 10
55.9745176582
 20
51.2201834471
 30
0.0
 11
55.9745176582
 21
57.770183454
 31
0.0
  0
LINE
  5
21B
330
213
100
AcDbEntity
  8
DIM
100
AcDbLine
 10
39.0624682398
 20
57.7308133753
 30
0.0
 11
43.9820346825
 21
57.7308133753
 31
0.0
  0
LINE
  5
21C
330
213
100
AcDbEntity
  8
DIM
100
AcDbLine
 10
55.9745176582
 20
57.7308133753
 30
0.0
 11
51.0549512155
 21
57.7308133753
 31
0.0
  0
MTEXT
  5
21D
330
213
100
AcDbEntity
  8
DIM
100
AcDbMText
 10
43.9820346825
 20
58.4471827687
 30
-1.4988676662
 40
1.25
 41
0.0
 71
     1
 72
     1
  1
16
  7
SLDTEXTSTYLE0
 73
     1
 44
1.0
  0
MTEXT
  5
21E
330
213
100
AcDbEntity
  8
DIM
100
AcDbMText
 10
45.8292568365
 20
59.3421479033
 30
-1.4988676662
 40
1.25
 41
0.0
 71
     1
 72
     1
  1
15
  7
SLDTEXTSTYLE0
 73
     1
 44
1.0
  0
MTEXT
  5
21F
330
213
100
AcDbEntity
  8
DIM
100
AcDbMText
 10
47.6764789906
 20
57.7258284818
 30
-1.4988676662
 40
1.25
 41
0.0
 71
     1
 72
     1
  1
16
  7
SLDTEXTSTYLE0
 73
     1
 44
1.0
  0
MTEXT
  5
220
330
213
100
AcDbEntity
  8
DIM
100
AcDbMText
 10
49.523701438
 20
58.4471827687
 30
-1.4988676662
 40
1.25
 41
0.0
 71
     1
 72
     1
  1
"
  7
SLDTEXTSTYLE0
 73
     1
 44
1.0
  0
ENDBLK
  5
215
330
213
100
AcDbEntity
  8
0
100
AcDbBlockEnd
  0
BLOCK
  5
223
330
222
100
AcDbEntity
  8
0
100
AcDbBlockBegin
  2
_D_6
 70
     0
 10
0.0
 20
0.0
 30
0.0
  3
_D_6
  1

  0
SOLID
  5
225
330
222
100
AcDbEntity
  8
DIM
100
AcDbTrace
 10
39.0624682398
 20
54.2308133683
 30
0.0
 11
38.0624682398
 21
54.4808133683
 31
0.0
 12
38.0624682398
 22
53.9808133683
 32
0.0
 13
38.0624682398
 23
53.9808133683
 33
0.0
  0
SOLID
  5
226
330
222
100
AcDbEntity
  8
DIM
100
AcDbTrace
 10
44.5228230829
 20
54.2308133683
 30
0.0
 11
45.5228230829
 21
53.9808133683
 31
0.0
 12
45.5228230829
 22
54.4808133683
 32
0.0
 13
45.5228230829
 23
54.4808133683
 33
0.0
  0
LINE
  5
227
330
222
100
AcDbEntity
  8
DIM
100
AcDbLine
 10
34.4406004345
 20
55.4808133349
 30
0.0
 11
32.9406003867
 21
52.9808132551
 31
0.0
  0
LINE
  5
228
330
222
100
AcDbEntity
  8
DIM
100
AcDbLine
 10
39.0624682398
 20
51.2201834471
 30
0.0
 11
39.0624682398
 21
54.2701834471
 31
0.0
  0
LINE
  5
229
330
222
100
AcDbEntity
  8
DIM
100
AcDbLine
 10
44.5228230829
 20
49.1457124279
 30
0.0
 11
44.5228230829
 21
54.2701834471
 31
0.0
  0
LINE
  5
22A
330
222
100
AcDbEntity
  8
DIM
100
AcDbLine
 10
39.0624682398
 20
54.2308133683
 30
0.0
 11
37.0690723422
 21
54.2308133683
 31
0.0
  0
LINE
  5
22B
330
222
100
AcDbEntity
  8
DIM
100
AcDbLine
 10
44.5228230829
 20
54.2308133683
 30
0.0
 11
46.0228230829
 21
54.2308133683
 31
0.0
  0
MTEXT
  5
22C
330
222
100
AcDbEntity
  8
DIM
100
AcDbMText
 10
31.8433782565
 20
54.9471827617
 30
-1.4988676662
 40
1.25
 41
0.0
 71
     1
 72
     1
  1
5
  7
SLDTEXTSTYLE0
 73
     1
 44
1.0
  0
MTEXT
  5
22D
330
222
100
AcDbEntity
  8
DIM
100
AcDbMText
 10
32.7669893336
 20
55.8421478964
 30
-1.4988676662
 40
1.25
 41
0.0
 71
     1
 72
     1
  1
7
  7
SLDTEXTSTYLE0
 73
     1
 44
1.0
  0
MTEXT
  5
22E
330
222
100
AcDbEntity
  8
DIM
100
AcDbMText
 10
33.6906004106
 20
54.2258284749
 30
-1.4988676662
 40
1.25
 41
0.0
 71
     1
 72
     1
  1
16
  7
SLDTEXTSTYLE0
 73
     1
 44
1.0
  0
MTEXT
  5
22F
330
222
100
AcDbEntity
  8
DIM
100
AcDbMText
 10
35.5378225647
 20
54.9471827617
 30
-1.4988676662
 40
1.25
 41
0.0
 71
     1
 72
     1
  1
"
  7
SLDTEXTSTYLE0
 73
     1
 44
1.0
  0
ENDBLK
  5
224
330
222
100
AcDbEntity
  8
0
100
AcDbBlockEnd
  0
BLOCK
  5
232
330
231
100
AcDbEntity
  8
0
100
AcDbBlockBegin
  2
_D_7
 70
     0
 10
0.0
 20
0.0
 30
0.0
  3
_D_7
  1

  0
SOLID
  5
234
330
231
100
AcDbEntity
  8
DIM
100
AcDbTrace
 10
55.9745176582
 20
54.2308133753
 30
0.0
 11
56.9745176582
 21
53.9808133753
 31
0.0
 12
56.9745176582
 22
54.4808133753
 32
0.0
 13
56.9745176582
 23
54.4808133753
 33
0.0
  0
SOLID
  5
235
330
231
100
AcDbEntity
  8
DIM
100
AcDbTrace
 10
50.5228230829
 20
54.2308133753
 30
0.0
 11
49.5228230829
 21
54.4808133753
 31
0.0
 12
49.5228230829
 22
53.9808133753
 32
0.0
 13
49.5228230829
 23
53.9808133753
 33
0.0
  0
LINE
  5
236
330
231
100
AcDbEntity
  8
DIM
100
AcDbLine
 10
60.9223300005
 20
55.4808133418
 30
0.0
 11
59.4223299526
 21
52.980813262
 31
0.0
  0
LINE
  5
237
330
231
100
AcDbEntity
  8
DIM
100
AcDbLine
 10
55.9745176582
 20
51.2201834471
 30
0.0
 11
55.9745176582
 21
54.270183454
 31
0.0
  0
LINE
  5
238
330
231
100
AcDbEntity
  8
DIM
100
AcDbLine
 10
50.5228230829
 20
46.9327124279
 30
0.0
 11
50.5228230829
 21
54.270183454
 31
0.0
  0
LINE
  5
239
330
231
100
AcDbEntity
  8
DIM
100
AcDbLine
 10
55.9745176582
 20
54.2308133753
 30
0.0
 11
58.3251078225
 21
54.2308133753
 31
0.0
  0
LINE
  5
23A
330
231
100
AcDbEntity
  8
DIM
100
AcDbLine
 10
50.5228230829
 20
54.2308133753
 30
0.0
 11
49.0228230829
 21
54.2308133753
 31
0.0
  0
MTEXT
  5
23B
330
231
100
AcDbEntity
  8
DIM
100
AcDbMText
 10
58.3251078225
 20
54.9471827687
 30
-1.4988676662
 40
1.25
 41
0.0
 71
     1
 72
     1
  1
5
  7
SLDTEXTSTYLE0
 73
     1
 44
1.0
  0
MTEXT
  5
23C
330
231
100
AcDbEntity
  8
DIM
100
AcDbMText
 10
59.2487188995
 20
55.8421479033
 30
-1.4988676662
 40
1.25
 41
0.0
 71
     1
 72
     1
  1
7
  7
SLDTEXTSTYLE0
 73
     1
 44
1.0
  0
MTEXT
  5
23D
330
231
100
AcDbEntity
  8
DIM
100
AcDbMText
 10
60.1723299766
 20
54.2258284818
 30
-1.4988676662
 40
1.25
 41
0.0
 71
     1
 72
     1
  1
16
  7
SLDTEXTSTYLE0
 73
     1
 44
1.0
  0
MTEXT
  5
23E
330
231
100
AcDbEntity
  8
DIM
100
AcDbMText
 10
62.0195521306
 20
54.9471827687
 30
-1.4988676662
 40
1.25
 41
0.0
 71
     1
 72
     1
  1
"
  7
SLDTEXTSTYLE0
 73
     1
 44
1.0
  0
ENDBLK
  5
233
330
231
100
AcDbEntity
  8
0
100
AcDbBlockEnd
  0
BLOCK
  5
241
330
240
100
AcDbEntity
  8
0
100
AcDbBlockBegin
  2
_D_8
 70
     0
 10
0.0
 20
0.0
 30
0.0
  3
_D_8
  1

  0
SOLID
  5
243
330
240
100
AcDbEntity
  8
DIM
100
AcDbTrace
 10
29.8934929478
 20
51.2308133775
 30
0.0
 11
30.1434929482
 21
52.2308133774
 31
0.0
 12
29.6434929482
 22
52.2308133776
 32
0.0
 13
29.6434929482
 23
52.2308133776
 33
0.0
  0
SOLID
  5
244
330
240
100
AcDbEntity
  8
DIM
100
AcDbTrace
 10
29.8934929464
 20
47.6428435034
 30
0.0
 11
29.643492946
 21
46.6428435035
 31
0.0
 12
30.143492946
 22
46.6428435033
 32
0.0
 13
30.143492946
 23
46.6428435033
 33
0.0
  0
LINE
  5
245
330
240
100
AcDbEntity
  8
DIM
100
AcDbLine
 10
25.6512243201
 20
55.4808133349
 30
0.0
 11
24.1512242722
 21
52.9808132551
 31
0.0
  0
LINE
  5
246
330
240
100
AcDbEntity
  8
DIM
100
AcDbLine
 10
41.5103728702
 20
51.230813373
 30
0.0
 11
29.8541228691
 21
51.2308133775
 31
0.0
  0
LINE
  5
247
330
240
100
AcDbEntity
  8
DIM
100
AcDbLine
 10
43.0199541533
 20
47.6428434983
 30
0.0
 11
29.8541228677
 21
47.6428435034
 31
0.0
  0
LINE
  5
248
330
240
100
AcDbEntity
  8
DIM
100
AcDbLine
 10
28.2796962277
 20
54.2308133683
 30
0.0
 11
29.8934929478
 21
54.2308133683
 31
0.0
  0
LINE
  5
249
330
240
100
AcDbEntity
  8
DIM
100
AcDbLine
 10
29.8934929478
 20
54.2308133683
 30
0.0
 11
29.8934929478
 21
51.2308133775
 31
0.0
  0
LINE
  5
24A
330
240
100
AcDbEntity
  8
DIM
100
AcDbLine
 10
29.8934929464
 20
47.6428435034
 30
0.0
 11
29.8934929461
 21
46.1428435034
 31
0.0
  0
MTEXT
  5
24B
330
240
100
AcDbEntity
  8
DIM
100
AcDbMText
 10
23.0540021421
 20
54.9471827617
 30
-1.4988676662
 40
1.25
 41
0.0
 71
     1
 72
     1
  1
3
  7
SLDTEXTSTYLE0
 73
     1
 44
1.0
  0
MTEXT
  5
24C
330
240
100
AcDbEntity
  8
DIM
100
AcDbMText
 10
23.9776132191
 20
55.8421478964
 30
-1.4988676662
 40
1.25
 41
0.0
 71
     1
 72
     1
  1
9
  7
SLDTEXTSTYLE0
 73
     1
 44
1.0
  0
MTEXT
  5
24D
330
240
100
AcDbEntity
  8
DIM
100
AcDbMText
 10
24.9012242961
 20
54.2258284749
 30
-1.4988676662
 40
1.25
 41
0.0
 71
     1
 72
     1
  1
16
  7
SLDTEXTSTYLE0
 73
     1
 44
1.0
  0
MTEXT
  5
24E
330
240
100
AcDbEntity
  8
DIM
100
AcDbMText
 10
26.7484464502
 20
54.9471827617
 30
-1.4988676662
 40
1.25
 41
0.0
 71
     1
 72
     1
  1
"
  7
SLDTEXTSTYLE0
 73
     1
 44
1.0
  0
ENDBLK
  5
242
330
240
100
AcDbEntity
  8
0
100
AcDbBlockEnd
  0
BLOCK
  5
251
330
250
100
AcDbEntity
  8
0
100
AcDbBlockBegin
  2
_D_9
 70
     0
 10
0.0
 20
0.0
 30
0.0
  3
_D_9
  1

  0
SOLID
  5
253
330
250
100
AcDbEntity
  8
DIM
100
AcDbTrace
 10
29.893492949
 20
37.9497133683
 30
0.0
 11
30.143492949
 21
38.9497133683
 31
0.0
 12
29.643492949
 22
38.9497133683
 32
0.0
 13
29.643492949
 23
38.9497133683
 33
0.0
  0
SOLID
  5
254
330
250
100
AcDbEntity
  8
DIM
100
AcDbTrace
 10
29.893492949
 20
47.6428434983
 30
0.0
 11
29.643492949
 21
46.6428434983
 31
0.0
 12
30.143492949
 22
46.6428434983
 32
0.0
 13
30.143492949
 23
46.6428434983
 33
0.0
  0
LINE
  5
255
330
250
100
AcDbEntity
  8
DIM
100
AcDbLine
 10
30.339673696
 20
44.0462783999
 30
0.0
 11
28.8396736481
 21
41.5462783201
 31
0.0
  0
LINE
  5
256
330
250
100
AcDbEntity
  8
DIM
100
AcDbLine
 10
32.8611228702
 20
37.9497133683
 30
0.0
 11
29.8541228702
 21
37.9497133683
 31
0.0
  0
LINE
  5
257
330
250
100
AcDbEntity
  8
DIM
100
AcDbLine
 10
43.0199541533
 20
47.6428434983
 30
0.0
 11
29.8541228702
 21
47.6428434983
 31
0.0
  0
LINE
  5
258
330
250
100
AcDbEntity
  8
DIM
100
AcDbLine
 10
29.893492949
 20
37.9497133683
 30
0.0
 11
29.893492949
 21
41.1799590118
 31
0.0
  0
LINE
  5
259
330
250
100
AcDbEntity
  8
DIM
100
AcDbLine
 10
29.893492949
 20
47.6428434983
 30
0.0
 11
29.893492949
 21
44.4125978548
 31
0.0
  0
MTEXT
  5
25A
330
250
100
AcDbEntity
  8
DIM
100
AcDbMText
 10
26.818840441
 20
43.5126478267
 30
-1.4988676662
 40
1.25
 41
0.0
 71
     1
 72
     1
  1
9
  7
SLDTEXTSTYLE0
 73
     1
 44
1.0
  0
MTEXT
  5
25B
330
250
100
AcDbEntity
  8
DIM
100
AcDbMText
 10
27.742451518
 20
44.4076129614
 30
-1.4988676662
 40
1.25
 41
0.0
 71
     1
 72
     1
  1
11
  7
SLDTEXTSTYLE0
 73
     1
 44
1.0
  0
MTEXT
  5
25C
330
250
100
AcDbEntity
  8
DIM
100
AcDbMText
 10
29.5896736721
 20
42.7912935399
 30
-1.4988676662
 40
1.25
 41
0.0
 71
     1
 72
     1
  1
16
  7
SLDTEXTSTYLE0
 73
     1
 44
1.0
  0
MTEXT
  5
25D
330
250
100
AcDbEntity
  8
DIM
100
AcDbMText
 10
31.4368956795
 20
43.5126478267
 30
-1.4988676662
 40
1.25
 41
0.0
 71
     1
 72
     1
  1
"
  7
SLDTEXTSTYLE0
 73
     1
 44
1.0
  0
ENDBLK
  5
252
330
250
100
AcDbEntity
  8
0
100
AcDbBlockEnd
  0
BLOCK
  5
260
330
25F
100
AcDbEntity
  8
0
100
AcDbBlockBegin
  2
_D_10
 70
     0
 10
0.0
 20
0.0
 30
0.0
  3
_D_10
  1

  0
SOLID
  5
262
330
25F
100
AcDbEntity
  8
DIM
100
AcDbTrace
 10
65.1434929422
 20
45.4298434932
 30
0.0
 11
64.8934929418
 21
44.4298434933
 31
0.0
 12
65.3934929418
 22
44.4298434931
 32
0.0
 13
65.3934929418
 23
44.4298434931
 33
0.0
  0
SOLID
  5
263
330
25F
100
AcDbEntity
  8
DIM
100
AcDbTrace
 10
65.1434929445
 20
51.2308133638
 30
0.0
 11
65.3934929449
 21
52.2308133637
 31
0.0
 12
64.8934929449
 22
52.2308133639
 32
0.0
 13
64.8934929449
 23
52.2308133639
 33
0.0
  0
LINE
  5
264
330
25F
100
AcDbEntity
  8
DIM
100
AcDbLine
 10
65.5896736904
 20
49.5803283951
 30
0.0
 11
64.0896736425
 21
47.0803283153
 31
0.0
  0
LINE
  5
265
330
25F
100
AcDbEntity
  8
DIM
100
AcDbLine
 10
52.0256920126
 20
45.4298434983
 30
0.0
 11
65.182863021
 21
45.4298434932
 31
0.0
  0
LINE
  5
266
330
25F
100
AcDbEntity
  8
DIM
100
AcDbLine
 10
53.5266130277
 20
51.2308133683
 30
0.0
 11
65.1828630232
 21
51.2308133638
 31
0.0
  0
LINE
  5
267
330
25F
100
AcDbEntity
  8
DIM
100
AcDbLine
 10
65.1434929422
 20
45.4298434932
 30
0.0
 11
65.1434929416
 21
43.9298434932
 31
0.0
  0
LINE
  5
268
330
25F
100
AcDbEntity
  8
DIM
100
AcDbLine
 10
65.1434929445
 20
51.2308133638
 30
0.0
 11
65.1434929451
 21
52.7308133638
 31
0.0
  0
MTEXT
  5
269
330
25F
100
AcDbEntity
  8
DIM
100
AcDbMText
 10
62.0688404353
 20
49.0466978219
 30
-1.4988676662
 40
1.25
 41
0.0
 71
     1
 72
     1
  1
5
  7
SLDTEXTSTYLE0
 73
     1
 44
1.0
  0
MTEXT
  5
26A
330
25F
100
AcDbEntity
  8
DIM
100
AcDbMText
 10
62.9924515124
 20
49.9416629566
 30
-1.4988676662
 40
1.25
 41
0.0
 71
     1
 72
     1
  1
13
  7
SLDTEXTSTYLE0
 73
     1
 44
1.0
  0
MTEXT
  5
26B
330
25F
100
AcDbEntity
  8
DIM
100
AcDbMText
 10
64.8396736664
 20
48.3253435351
 30
-1.4988676662
 40
1.25
 41
0.0
 71
     1
 72
     1
  1
16
  7
SLDTEXTSTYLE0
 73
     1
 44
1.0
  0
MTEXT
  5
26C
330
25F
100
AcDbEntity
  8
DIM
100
AcDbMText
 10
66.6868956738
 20
49.0466978219
 30
-1.4988676662
 40
1.25
 41
0.0
 71
     1
 72
     1
  1
"
  7
SLDTEXTSTYLE0
 73
     1
 44
1.0
  0
ENDBLK
  5
261
330
25F
100
AcDbEntity
  8
0
100
AcDbBlockEnd
  0
BLOCK
  5
26F
330
26E
100
AcDbEntity
  8
0
100
AcDbBlockBegin
  2
_D_11
 70
     0
 10
0.0
 20
0.0
 30
0.0
  3
_D_11
  1

  0
SOLID
  5
271
330
26E
100
AcDbEntity
  8
DIM
100
AcDbTrace
 10
65.143492949
 20
37.9497133683
 30
0.0
 11
65.393492949
 21
38.9497133683
 31
0.0
 12
64.893492949
 22
38.9497133683
 32
0.0
 13
64.893492949
 23
38.9497133683
 33
0.0
  0
SOLID
  5
272
330
26E
100
AcDbEntity
  8
DIM
100
AcDbTrace
 10
65.143492949
 20
45.4298434983
 30
0.0
 11
64.893492949
 21
44.4298434983
 31
0.0
 12
65.393492949
 22
44.4298434983
 32
0.0
 13
65.393492949
 23
44.4298434983
 33
0.0
  0
LINE
  5
273
330
26E
100
AcDbEntity
  8
DIM
100
AcDbLine
 10
65.5896734027
 20
42.9397783999
 30
0.0
 11
64.0896733548
 21
40.4397783201
 31
0.0
  0
LINE
  5
274
330
26E
100
AcDbEntity
  8
DIM
100
AcDbLine
 10
62.1758630277
 20
37.9497133683
 30
0.0
 11
65.1828630277
 21
37.9497133683
 31
0.0
  0
LINE
  5
275
330
26E
100
AcDbEntity
  8
DIM
100
AcDbLine
 10
52.0256920126
 20
45.4298434983
 30
0.0
 11
65.1828630277
 21
45.4298434983
 31
0.0
  0
LINE
  5
276
330
26E
100
AcDbEntity
  8
DIM
100
AcDbLine
 10
65.143492949
 20
37.9497133683
 30
0.0
 11
65.143492949
 21
40.0734590118
 31
0.0
  0
LINE
  5
277
330
26E
100
AcDbEntity
  8
DIM
100
AcDbLine
 10
65.143492949
 20
45.4298434983
 30
0.0
 11
65.143492949
 21
43.3060978548
 31
0.0
  0
MTEXT
  5
278
330
26E
100
AcDbEntity
  8
DIM
100
AcDbMText
 10
62.9924512247
 20
42.4061478267
 30
-1.4988676662
 40
1.25
 41
0.0
 71
     1
 72
     1
  1
7
  7
SLDTEXTSTYLE0
 73
     1
 44
1.0
  0
MTEXT
  5
279
330
26E
100
AcDbEntity
  8
DIM
100
AcDbMText
 10
63.9160623017
 20
43.3011129614
 30
-1.4988676662
 40
1.25
 41
0.0
 71
     1
 72
     1
  1
1
  7
SLDTEXTSTYLE0
 73
     1
 44
1.0
  0
MTEXT
  5
27A
330
26E
100
AcDbEntity
  8
DIM
100
AcDbMText
 10
64.8396733787
 20
41.6847935399
 30
-1.4988676662
 40
1.25
 41
0.0
 71
     1
 72
     1
  1
2
  7
SLDTEXTSTYLE0
 73
     1
 44
1.0
  0
MTEXT
  5
27B
330
26E
100
AcDbEntity
  8
DIM
100
AcDbMText
 10
65.7632846024
 20
42.4061478267
 30
-1.4988676662
 40
1.25
 41
0.0
 71
     1
 72
     1
  1
"
  7
SLDTEXTSTYLE0
 73
     1
 44
1.0
  0
ENDBLK
  5
270
330
26E
100
AcDbEntity
  8
0
100
AcDbBlockEnd
  0
BLOCK
  5
27E
330
27D
100
AcDbEntity
  8
0
100
AcDbBlockBegin
  2
_D_12
 70
     0
 10
0.0
 20
0.0
 30
0.0
  3
_D_12
  1

  0
SOLID
  5
280
330
27D
100
AcDbEntity
  8
DIM
100
AcDbTrace
 10
33.768492949
 20
34.0916447205
 30
0.0
 11
34.768492949
 21
33.8416447205
 31
0.0
 12
34.768492949
 22
34.3416447205
 32
0.0
 13
34.768492949
 23
34.3416447205
 33
0.0
  0
SOLID
  5
281
330
27D
100
AcDbEntity
  8
DIM
100
AcDbTrace
 10
61.268492949
 20
34.0916447205
 30
0.0
 11
60.268492949
 21
34.3416447205
 31
0.0
 12
60.268492949
 22
33.8416447205
 32
0.0
 13
60.268492949
 23
33.8416447205
 33
0.0
  0
LINE
  5
282
330
27D
100
AcDbEntity
  8
DIM
100
AcDbLine
 10
48.4264791612
 20
35.341644687
 30
0.0
 11
46.9264791133
 21
32.8416446072
 31
0.0
  0
LINE
  5
283
330
27D
100
AcDbEntity
  8
DIM
100
AcDbLine
 10
33.768492949
 20
37.1272746417
 30
0.0
 11
33.768492949
 21
34.0522746417
 31
0.0
  0
LINE
  5
284
330
27D
100
AcDbEntity
  8
DIM
100
AcDbLine
 10
61.268492949
 20
37.1272746417
 30
0.0
 11
61.268492949
 21
34.0522746417
 31
0.0
  0
LINE
  5
285
330
27D
100
AcDbEntity
  8
DIM
100
AcDbLine
 10
33.768492949
 20
34.0916447205
 30
0.0
 11
44.9056459062
 21
34.0916447205
 31
0.0
  0
LINE
  5
286
330
27D
100
AcDbEntity
  8
DIM
100
AcDbLine
 10
61.268492949
 20
34.0916447205
 30
0.0
 11
50.1313399918
 21
34.0916447205
 31
0.0
  0
MTEXT
  5
287
330
27D
100
AcDbEntity
  8
DIM
100
AcDbMText
 10
44.9056459062
 20
34.8080141139
 30
-1.4988676662
 40
1.25
 41
0.0
 71
     1
 72
     1
  1
27
  7
SLDTEXTSTYLE0
 73
     1
 44
1.0
  0
MTEXT
  5
288
330
27D
100
AcDbEntity
  8
DIM
100
AcDbMText
 10
46.7528680602
 20
35.7029792485
 30
-1.4988676662
 40
1.25
 41
0.0
 71
     1
 72
     1
  1
1
  7
SLDTEXTSTYLE0
 73
     1
 44
1.0
  0
MTEXT
  5
289
330
27D
100
AcDbEntity
  8
DIM
100
AcDbMText
 10
47.6764791373
 20
34.086659827
 30
-1.4988676662
 40
1.25
 41
0.0
 71
     1
 72
     1
  1
2
  7
SLDTEXTSTYLE0
 73
     1
 44
1.0
  0
MTEXT
  5
28A
330
27D
100
AcDbEntity
  8
DIM
100
AcDbMText
 10
48.6000902143
 20
34.8080141139
 30
-1.4988676662
 40
1.25
 41
0.0
 71
     1
 72
     1
  1
"
  7
SLDTEXTSTYLE0
 73
     1
 44
1.0
  0
ENDBLK
  5
27F
330
27D
100
AcDbEntity
  8
0
100
AcDbBlockEnd
  0
BLOCK
  5
28D
330
28C
100
AcDbEntity
  8
0
100
AcDbBlockBegin
  2
_D_13
 70
     0
 10
0.0
 20
0.0
 30
0.0
  3
_D_13
  1

  0
SOLID
  5
28F
330
28C
100
AcDbEntity
  8
DIM
100
AcDbTrace
 10
65.143492949
 20
37.0916447205
 30
0.0
 11
64.893492949
 21
36.0916447205
 31
0.0
 12
65.393492949
 22
36.0916447205
 32
0.0
 13
65.393492949
 23
36.0916447205
 33
0.0
  0
SOLID
  5
290
330
28C
100
AcDbEntity
  8
DIM
100
AcDbTrace
 10
65.143492949
 20
37.9497133683
 30
0.0
 11
65.393492949
 21
38.9497133683
 31
0.0
 12
64.893492949
 22
38.9497133683
 32
0.0
 13
64.893492949
 23
38.9497133683
 33
0.0
  0
LINE
  5
291
330
28C
100
AcDbEntity
  8
DIM
100
AcDbLine
 10
68.5093159328
 20
35.341644687
 30
0.0
 11
67.009315885
 21
32.8416446072
 31
0.0
  0
LINE
  5
292
330
28C
100
AcDbEntity
  8
DIM
100
AcDbLine
 10
61.2328630277
 20
37.0916447205
 30
0.0
 11
65.1828630277
 21
37.0916447205
 31
0.0
  0
LINE
  5
293
330
28C
100
AcDbEntity
  8
DIM
100
AcDbLine
 10
62.1758630277
 20
37.9497133683
 30
0.0
 11
65.1828630277
 21
37.9497133683
 31
0.0
  0
LINE
  5
294
330
28C
100
AcDbEntity
  8
DIM
100
AcDbLine
 10
66.8357048319
 20
34.0916447205
 30
0.0
 11
65.143492949
 21
34.0916447205
 31
0.0
  0
LINE
  5
295
330
28C
100
AcDbEntity
  8
DIM
100
AcDbLine
 10
65.143492949
 20
34.0916447205
 30
0.0
 11
65.143492949
 21
37.0916447205
 31
0.0
  0
LINE
  5
296
330
28C
100
AcDbEntity
  8
DIM
100
AcDbLine
 10
65.143492949
 20
37.9497133683
 30
0.0
 11
65.143492949
 21
39.4497133683
 31
0.0
  0
MTEXT
  5
297
330
28C
100
AcDbEntity
  8
DIM
100
AcDbMText
 10
66.8357048319
 20
35.7029792485
 30
-1.4988676662
 40
1.25
 41
0.0
 71
     1
 72
     1
  1
7
  7
SLDTEXTSTYLE0
 73
     1
 44
1.0
  0
MTEXT
  5
298
330
28C
100
AcDbEntity
  8
DIM
100
AcDbMText
 10
67.7593159089
 20
34.086659827
 30
-1.4988676662
 40
1.25
 41
0.0
 71
     1
 72
     1
  1
8
  7
SLDTEXTSTYLE0
 73
     1
 44
1.0
  0
MTEXT
  5
299
330
28C
100
AcDbEntity
  8
DIM
100
AcDbMText
 10
68.6829269859
 20
34.8080141139
 30
-1.4988676662
 40
1.25
 41
0.0
 71
     1
 72
     1
  1
"
  7
SLDTEXTSTYLE0
 73
     1
 44
1.0
  0
ENDBLK
  5
28E
330
28C
100
AcDbEntity
  8
0
100
AcDbBlockEnd
  0
BLOCK
  5
29C
330
29B
100
AcDbEntity
  8
0
100
AcDbBlockBegin
  2
_D_14
 70
     0
 10
0.0
 20
0.0
 30
0.0
  3
_D_14
  1

  0
SOLID
  5
29E
330
29B
100
AcDbEntity
  8
DIM
100
AcDbTrace
 10
32.900492949
 20
30.5916447205
 30
0.0
 11
33.900492949
 21
30.3416447205
 31
0.0
 12
33.900492949
 22
30.8416447205
 32
0.0
 13
33.900492949
 23
30.8416447205
 33
0.0
  0
SOLID
  5
29F
330
29B
100
AcDbEntity
  8
DIM
100
AcDbTrace
 10
62.136492949
 20
30.5916447205
 30
0.0
 11
61.136492949
 21
30.8416447205
 31
0.0
 12
61.136492949
 22
30.3416447205
 32
0.0
 13
61.136492949
 23
30.3416447205
 33
0.0
  0
LINE
  5
2A0
330
29B
100
AcDbEntity
  8
DIM
100
AcDbLine
 10
48.2909229048
 20
31.841644687
 30
0.0
 11
46.790922857
 21
29.3416446072
 31
0.0
  0
LINE
  5
2A1
330
29B
100
AcDbEntity
  8
DIM
100
AcDbLine
 10
32.900492949
 20
37.6417432896
 30
0.0
 11
32.900492949
 21
30.5522746417
 31
0.0
  0
LINE
  5
2A2
330
29B
100
AcDbEntity
  8
DIM
100
AcDbLine
 10
62.136492949
 20
37.6417432896
 30
0.0
 11
62.136492949
 21
30.5522746417
 31
0.0
  0
LINE
  5
2A3
330
29B
100
AcDbEntity
  8
DIM
100
AcDbLine
 10
32.900492949
 20
30.5916447205
 30
0.0
 11
44.7700896498
 21
30.5916447205
 31
0.0
  0
LINE
  5
2A4
330
29B
100
AcDbEntity
  8
DIM
100
AcDbLine
 10
62.136492949
 20
30.5916447205
 30
0.0
 11
49.9957837355
 21
30.5916447205
 31
0.0
  0
MTEXT
  5
2A5
330
29B
100
AcDbEntity
  8
DIM
100
AcDbMText
 10
44.7700896498
 20
31.3080141139
 30
-1.4988676662
 40
1.25
 41
0.0
 71
     1
 72
     1
  1
29
  7
SLDTEXTSTYLE0
 73
     1
 44
1.0
  0
MTEXT
  5
2A6
330
29B
100
AcDbEntity
  8
DIM
100
AcDbMText
 10
46.6173118039
 20
32.2029792485
 30
-1.4988676662
 40
1.25
 41
0.0
 71
     1
 72
     1
  1
1
  7
SLDTEXTSTYLE0
 73
     1
 44
1.0
  0
MTEXT
  5
2A7
330
29B
100
AcDbEntity
  8
DIM
100
AcDbMText
 10
47.5409228809
 20
30.586659827
 30
-1.4988676662
 40
1.25
 41
0.0
 71
     1
 72
     1
  1
4
  7
SLDTEXTSTYLE0
 73
     1
 44
1.0
  0
MTEXT
  5
2A8
330
29B
100
AcDbEntity
  8
DIM
100
AcDbMText
 10
48.4645339579
 20
31.3080141139
 30
-1.4988676662
 40
1.25
 41
0.0
 71
     1
 72
     1
  1
"
  7
SLDTEXTSTYLE0
 73
     1
 44
1.0
  0
ENDBLK
  5
29D
330
29B
100
AcDbEntity
  8
0
100
AcDbBlockEnd
  0
BLOCK
  5
2AC
330
2AB
100
AcDbEntity
  8
0
100
AcDbBlockBegin
  2
_D_15
 70
     0
 10
0.0
 20
0.0
 30
0.0
  3
_D_15
  1

  0
SOLID
  5
2AE
330
2AB
100
AcDbEntity
  8
DIM
100
AcDbTrace
 10
43.8697902111
 20
46.2919791723
 30
0.0
 11
43.2094796367
 21
45.500467994
 31
0.0
 12
43.6596390823
 22
45.2828525682
 32
0.0
 13
43.6596390823
 23
45.2828525682
 33
0.0
  0
LINE
  5
2AF
330
2AB
100
AcDbEntity
  8
DIM
100
AcDbLine
 10
43.8697902111
 20
46.2919791723
 30
0.0
 11
42.0939980967
 21
42.6185741703
 31
0.0
  0
LINE
  5
2B0
330
2AB
100
AcDbEntity
  8
DIM
100
AcDbLine
 10
42.0939980967
 20
42.6185741703
 30
0.0
 11
43.159157072
 21
42.6185741703
 31
0.0
  0
MTEXT
  5
2B1
330
2AB
100
AcDbEntity
  8
DIM
100
AcDbMText
 10
43.159157072
 20
43.2281727839
 30
-1.4988676662
 40
1.25
 41
0.0
 71
     1
 72
     1
  1
%%c
  7
SLDTEXTSTYLE0
 73
     1
 44
1.0
  0
MTEXT
  5
2B2
330
2AB
100
AcDbEntity
  8
DIM
100
AcDbMText
 10
45.0443133878
 20
43.2472700299
 30
-1.4988676662
 40
1.25
 41
0.0
 71
     1
 72
     1
  1
3"
  7
SLDTEXTSTYLE0
 73
     1
 44
1.0
  0
ENDBLK
  5
2AD
330
2AB
100
AcDbEntity
  8
0
100
AcDbBlockEnd
  0
BLOCK
  5
2B5
330
2B4
100
AcDbEntity
  8
0
100
AcDbBlockBegin
  2
_D_16
 70
     0
 10
0.0
 20
0.0
 30
0.0
  3
_D_16
  1

  0
SOLID
  5
2B7
330
2B4
100
AcDbEntity
  8
DIM
100
AcDbTrace
 10
51.0368904524
 20
44.0202261394
 30
0.0
 11
51.1446350104
 21
42.9950963377
 31
0.0
 12
51.6143732043
 22
43.1664031652
 32
0.0
 13
51.6143732043
 23
43.1664031652
 33
0.0
  0
LINE
  5
2B8
330
2B4
100
AcDbEntity
  8
DIM
100
AcDbLine
 10
51.0368904524
 20
44.0202261394
 30
0.0
 11
52.4372180534
 21
40.1804062797
 31
0.0
  0
LINE
  5
2B9
330
2B4
100
AcDbEntity
  8
DIM
100
AcDbLine
 10
52.4372180534
 20
40.1804062797
 30
0.0
 11
50.9650047314
 21
40.1804062797
 31
0.0
  0
MTEXT
  5
2BA
330
2B4
100
AcDbEntity
  8
DIM
100
AcDbMText
 10
46.6249872676
 20
40.7900048932
 30
-1.4988676662
 40
1.25
 41
0.0
 71
     1
 72
     1
  1
%%c
  7
SLDTEXTSTYLE0
 73
     1
 44
1.0
  0
MTEXT
  5
2BB
330
2B4
100
AcDbEntity
  8
DIM
100
AcDbMText
 10
48.5101435835
 20
40.8091021392
 30
-1.4988676662
 40
1.25
 41
0.0
 71
     1
 72
     1
  1
3"
  7
SLDTEXTSTYLE0
 73
     1
 44
1.0
  0
ENDBLK
  5
2B6
330
2B4
100
AcDbEntity
  8
0
100
AcDbBlockEnd
  0
BLOCK
  5
2BD
330
2BC
100
AcDbEntity
  8
0
100
AcDbBlockBegin
  2
SW_CENTERMARKSYMBOL_0
 70
     0
 10
0.0
 20
0.0
 30
0.0
  3
SW_CENTERMARKSYMBOL_0
  1

  0
LINE
  5
2BF
330
2BC
100
AcDbEntity
  8
DIM
 62
     0
100
AcDbLine
 10
0.0
 20
0.0
 30
0.0
 11
0.0
 21
0.0984251969
 31
0.0
  0
LINE
  5
2C0
330
2BC
100
AcDbEntity
  8
DIM
 62
     0
100
AcDbLine
 10
0.0
 20
0.0
 30
0.0
 11
-0.0984251969
 21
0.0
 31
0.0
  0
LINE
  5
2C1
330
2BC
100
AcDbEntity
  8
DIM
 62
     0
100
AcDbLine
 10
0.0
 20
0.0
 30
0.0
 11
0.0
 21
-0.0984251969
 31
0.0
  0
LINE
  5
2C2
330
2BC
100
AcDbEntity
  8
DIM
 62
     0
100
AcDbLine
 10
0.0
 20
0.0
 30
0.0
 11
0.0984251969
 21
0.0
 31
0.0
  0
LINE
  5
2C3
330
2BC
100
AcDbEntity
  8
DIM
 62
     0
100
AcDbLine
 10
0.0
 20
0.1968503937
 30
0.0
 11
0.0
 21
1.4634988509
 31
0.0
  0
LINE
  5
2C4
330
2BC
100
AcDbEntity
  8
DIM
 62
     0
100
AcDbLine
 10
-0.1968503937
 20
0.0
 30
0.0
 11
-1.4634988509
 21
0.0
 31
0.0
  0
LINE
  5
2C5
330
2BC
100
AcDbEntity
  8
DIM
 62
     0
100
AcDbLine
 10
0.0
 20
-0.1968503937
 30
0.0
 11
0.0
 21
-1.4634988509
 31
0.0
  0
LINE
  5
2C6
330
2BC
100
AcDbEntity
  8
DIM
 62
     0
100
AcDbLine
 10
0.1968503937
 20
0.0
 30
0.0
 11
1.4634988509
 21
0.0
 31
0.0
  0
ENDBLK
  5
2BE
330
2BC
100
AcDbEntity
  8
0
100
AcDbBlockEnd
  0
BLOCK
  5
2C9
330
2C8
100
AcDbEntity
  8
0
100
AcDbBlockBegin
  2
SW_CENTERMARKSYMBOL_1
 70
     0
 10
0.0
 20
0.0
 30
0.0
  3
SW_CENTERMARKSYMBOL_1
  1

  0
LINE
  5
2CB
330
2C8
100
AcDbEntity
  8
DIM
 62
     0
100
AcDbLine
 10
0.0
 20
0.0
 30
0.0
 11
0.0
 21
0.0984251969
 31
0.0
  0
LINE
  5
2CC
330
2C8
100
AcDbEntity
  8
DIM
 62
     0
100
AcDbLine
 10
0.0
 20
0.0
 30
0.0
 11
-0.0984251969
 21
0.0
 31
0.0
  0
LINE
  5
2CD
330
2C8
100
AcDbEntity
  8
DIM
 62
     0
100
AcDbLine
 10
0.0
 20
0.0
 30
0.0
 11
0.0
 21
-0.0984251969
 31
0.0
  0
LINE
  5
2CE
330
2C8
100
AcDbEntity
  8
DIM
 62
     0
100
AcDbLine
 10
0.0
 20
0.0
 30
0.0
 11
0.0984251969
 21
0.0
 31
0.0
  0
LINE
  5
2CF
330
2C8
100
AcDbEntity
  8
DIM
 62
     0
100
AcDbLine
 10
0.0
 20
0.1968503937
 30
0.0
 11
0.0
 21
1.4634988509
 31
0.0
  0
LINE
  5
2D0
330
2C8
100
AcDbEntity
  8
DIM
 62
     0
100
AcDbLine
 10
-0.1968503937
 20
0.0
 30
0.0
 11
-1.4634988509
 21
0.0
 31
0.0
  0
LINE
  5
2D1
330
2C8
100
AcDbEntity
  8
DIM
 62
     0
100
AcDbLine
 10
0.0
 20
-0.1968503937
 30
0.0
 11
0.0
 21
-1.4634988509
 31
0.0
  0
LINE
  5
2D2
330
2C8
100
AcDbEntity
  8
DIM
 62
     0
100
AcDbLine
 10
0.1968503937
 20
0.0
 30
0.0
 11
1.4634988509
 21
0.0
 31
0.0
  0
ENDBLK
  5
2CA
330
2C8
100
AcDbEntity
  8
0
100
AcDbBlockEnd
  0
BLOCK
  5
3D0
330
3CF
100
AcDbEntity
  8
0
100
AcDbBlockBegin
  2
_D_17
 70
     0
 10
0.0
 20
0.0
 30
0.0
  3
_D_17
  1

  0
SOLID
  5
3D2
330
3CF
100
AcDbEntity
  8
DIM
100
AcDbTrace
 10
76.9055820483
 20
25.6955061938
 30
0.0
 11
77.9055820483
 21
25.4455061938
 31
0.0
 12
77.9055820483
 22
25.9455061938
 32
0.0
 13
77.9055820483
 23
25.9455061938
 33
0.0
  0
SOLID
  5
3D3
330
3CF
100
AcDbEntity
  8
DIM
100
AcDbTrace
 10
90.4552820483
 20
25.6955061938
 30
0.0
 11
89.4552820483
 21
25.9455061938
 31
0.0
 12
89.4552820483
 22
25.4455061938
 32
0.0
 13
89.4552820483
 23
25.4455061938
 33
0.0
  0
LINE
  5
3D4
330
3CF
100
AcDbEntity
  8
DIM
100
AcDbLine
 10
84.1266125019
 20
26.9455061603
 30
0.0
 11
82.6266124541
 21
24.4455060805
 31
0.0
  0
LINE
  5
3D5
330
3CF
100
AcDbEntity
  8
DIM
100
AcDbLine
 10
76.9055820483
 20
22.5669249493
 30
0.0
 11
76.9055820483
 21
25.7348762725
 31
0.0
  0
LINE
  5
3D6
330
3CF
100
AcDbEntity
  8
DIM
100
AcDbLine
 10
90.4552820483
 20
21.0286262725
 30
0.0
 11
90.4552820483
 21
25.7348762725
 31
0.0
  0
LINE
  5
3D7
330
3CF
100
AcDbEntity
  8
DIM
100
AcDbLine
 10
76.9055820483
 20
25.6955061938
 30
0.0
 11
80.6057792469
 21
25.6955061938
 31
0.0
  0
LINE
  5
3D8
330
3CF
100
AcDbEntity
  8
DIM
100
AcDbLine
 10
90.4552820483
 20
25.6955061938
 30
0.0
 11
86.7550848496
 21
25.6955061938
 31
0.0
  0
MTEXT
  5
3D9
330
3CF
100
AcDbEntity
  8
DIM
100
AcDbMText
 10
80.6057792469
 20
26.4118755872
 30
0.0039370079
 40
1.25
 41
0.0
 71
     1
 72
     1
  1
13
  7
SLDTEXTSTYLE0
 73
     1
 44
1.0
  0
MTEXT
  5
3DA
330
3CF
100
AcDbEntity
  8
DIM
100
AcDbMText
 10
82.453001401
 20
27.3068407218
 30
0.0039370079
 40
1.25
 41
0.0
 71
     1
 72
     1
  1
9
  7
SLDTEXTSTYLE0
 73
     1
 44
1.0
  0
MTEXT
  5
3DB
330
3CF
100
AcDbEntity
  8
DIM
100
AcDbMText
 10
83.376612478
 20
25.6905213003
 30
0.0039370079
 40
1.25
 41
0.0
 71
     1
 72
     1
  1
16
  7
SLDTEXTSTYLE0
 73
     1
 44
1.0
  0
MTEXT
  5
3DC
330
3CF
100
AcDbEntity
  8
DIM
100
AcDbMText
 10
85.2238347787
 20
26.4118755872
 30
0.0039370079
 40
1.25
 41
0.0
 71
     1
 72
     1
  1
"
  7
SLDTEXTSTYLE0
 73
     1
 44
1.0
  0
ENDBLK
  5
3D1
330
3CF
100
AcDbEntity
  8
0
100
AcDbBlockEnd
  0
BLOCK
  5
3DF
330
3DE
100
AcDbEntity
  8
0
100
AcDbBlockBegin
  2
_D_18
 70
     0
 10
0.0
 20
0.0
 30
0.0
  3
_D_18
  1

  0
SOLID
  5
3E1
330
3DE
100
AcDbEntity
  8
DIM
100
AcDbTrace
 10
93.4552820552
 20
21.1631061938
 30
0.0
 11
93.2052820552
 21
20.1631061938
 31
0.0
 12
93.7052820552
 22
20.1631061938
 32
0.0
 13
93.7052820552
 23
20.1631061938
 33
0.0
  0
SOLID
  5
3E2
330
3DE
100
AcDbEntity
  8
DIM
100
AcDbTrace
 10
93.4552820552
 20
22.6930799007
 30
0.0
 11
93.7052820552
 21
23.6930799007
 31
0.0
 12
93.2052820552
 22
23.6930799007
 32
0.0
 13
93.2052820552
 23
23.6930799007
 33
0.0
  0
LINE
  5
3E3
330
3DE
100
AcDbEntity
  8
DIM
100
AcDbLine
 10
97.8207145156
 20
26.9455061603
 30
0.0
 11
96.3207144677
 21
24.4455060805
 31
0.0
  0
LINE
  5
3E4
330
3DE
100
AcDbEntity
  8
DIM
100
AcDbLine
 10
90.416552127
 20
21.1631061938
 30
0.0
 11
93.494652134
 21
21.1631061938
 31
0.0
  0
LINE
  5
3E5
330
3DE
100
AcDbEntity
  8
DIM
100
AcDbLine
 10
88.271755911
 20
22.6930799007
 30
0.0
 11
93.494652134
 21
22.6930799007
 31
0.0
  0
LINE
  5
3E6
330
3DE
100
AcDbEntity
  8
DIM
100
AcDbLine
 10
95.2234923376
 20
25.6955061938
 30
0.0
 11
93.4552820552
 21
25.6955061938
 31
0.0
  0
LINE
  5
3E7
330
3DE
100
AcDbEntity
  8
DIM
100
AcDbLine
 10
93.4552820552
 20
25.6955061938
 30
0.0
 11
93.4552820552
 21
22.6930799007
 31
0.0
  0
LINE
  5
3E8
330
3DE
100
AcDbEntity
  8
DIM
100
AcDbLine
 10
93.4552820552
 20
21.1631061938
 30
0.0
 11
93.4552820552
 21
19.6631061938
 31
0.0
  0
MTEXT
  5
3E9
330
3DE
100
AcDbEntity
  8
DIM
100
AcDbMText
 10
95.2234923376
 20
26.4118755872
 30
0.0039370079
 40
1.25
 41
0.0
 71
     1
 72
     1
  1
1
  7
SLDTEXTSTYLE0
 73
     1
 44
1.0
  0
MTEXT
  5
3EA
330
3DE
100
AcDbEntity
  8
DIM
100
AcDbMText
 10
96.1471034146
 20
27.3068407218
 30
0.0039370079
 40
1.25
 41
0.0
 71
     1
 72
     1
  1
1
  7
SLDTEXTSTYLE0
 73
     1
 44
1.0
  0
MTEXT
  5
3EB
330
3DE
100
AcDbEntity
  8
DIM
100
AcDbMText
 10
97.0707144916
 20
25.6905213003
 30
0.0039370079
 40
1.25
 41
0.0
 71
     1
 72
     1
  1
2
  7
SLDTEXTSTYLE0
 73
     1
 44
1.0
  0
MTEXT
  5
3EC
330
3DE
100
AcDbEntity
  8
DIM
100
AcDbMText
 10
97.9943257153
 20
26.4118755872
 30
0.0039370079
 40
1.25
 41
0.0
 71
     1
 72
     1
  1
"
  7
SLDTEXTSTYLE0
 73
     1
 44
1.0
  0
ENDBLK
  5
3E0
330
3DE
100
AcDbEntity
  8
0
100
AcDbBlockEnd
  0
BLOCK
  5
3EF
330
3EE
100
AcDbEntity
  8
0
100
AcDbBlockBegin
  2
_D_19
 70
     0
 10
0.0
 20
0.0
 30
0.0
  3
_D_19
  1

  0
SOLID
  5
3F1
330
3EE
100
AcDbEntity
  8
DIM
100
AcDbTrace
 10
93.4552820552
 20
2.8033061938
 30
0.0
 11
93.7052820552
 21
3.8033061938
 31
0.0
 12
93.2052820552
 22
3.8033061938
 32
0.0
 13
93.2052820552
 23
3.8033061938
 33
0.0
  0
SOLID
  5
3F2
330
3EE
100
AcDbEntity
  8
DIM
100
AcDbTrace
 10
93.4552820552
 20
21.1631061938
 30
0.0
 11
93.2052820552
 21
20.1631061938
 31
0.0
 12
93.7052820552
 22
20.1631061938
 32
0.0
 13
93.7052820552
 23
20.1631061938
 33
0.0
  0
LINE
  5
3F3
330
3EE
100
AcDbEntity
  8
DIM
100
AcDbLine
 10
94.3632682674
 20
13.2332061603
 30
0.0
 11
92.8632682195
 21
10.7332060805
 31
0.0
  0
LINE
  5
3F4
330
3EE
100
AcDbEntity
  8
DIM
100
AcDbLine
 10
90.4019985743
 20
2.8033061938
 30
0.0
 11
93.494652134
 21
2.8033061938
 31
0.0
  0
LINE
  5
3F5
330
3EE
100
AcDbEntity
  8
DIM
100
AcDbLine
 10
90.416552127
 20
21.1631061938
 30
0.0
 11
93.494652134
 21
21.1631061938
 31
0.0
  0
LINE
  5
3F6
330
3EE
100
AcDbEntity
  8
DIM
100
AcDbLine
 10
93.4552820552
 20
2.8033061938
 30
0.0
 11
93.4552820552
 21
10.3668867723
 31
0.0
  0
LINE
  5
3F7
330
3EE
100
AcDbEntity
  8
DIM
100
AcDbLine
 10
93.4552820552
 20
21.1631061938
 30
0.0
 11
93.4552820552
 21
13.5995256152
 31
0.0
  0
MTEXT
  5
3F8
330
3EE
100
AcDbEntity
  8
DIM
100
AcDbMText
 10
90.8424350124
 20
12.6995755872
 30
0.0039370079
 40
1.25
 41
0.0
 71
     1
 72
     1
  1
18
  7
SLDTEXTSTYLE0
 73
     1
 44
1.0
  0
MTEXT
  5
3F9
330
3EE
100
AcDbEntity
  8
DIM
100
AcDbMText
 10
92.6896571664
 20
13.5945407218
 30
0.0039370079
 40
1.25
 41
0.0
 71
     1
 72
     1
  1
3
  7
SLDTEXTSTYLE0
 73
     1
 44
1.0
  0
MTEXT
  5
3FA
330
3EE
100
AcDbEntity
  8
DIM
100
AcDbMText
 10
93.6132682435
 20
11.9782213003
 30
0.0039370079
 40
1.25
 41
0.0
 71
     1
 72
     1
  1
8
  7
SLDTEXTSTYLE0
 73
     1
 44
1.0
  0
MTEXT
  5
3FB
330
3EE
100
AcDbEntity
  8
DIM
100
AcDbMText
 10
94.5368793205
 20
12.6995755872
 30
0.0039370079
 40
1.25
 41
0.0
 71
     1
 72
     1
  1
"
  7
SLDTEXTSTYLE0
 73
     1
 44
1.0
  0
ENDBLK
  5
3F0
330
3EE
100
AcDbEntity
  8
0
100
AcDbBlockEnd
  0
ENDSEC
  0
SECTION
  2
ENTITIES
  0
INSERT
  5
4D
330
1F
100
AcDbEntity
  8
NOTES
100
AcDbBlockReference
  2
SW_NOTE_0
 10
1.0904790773
 20
55.4549795098
 30
0.0
  0
MTEXT
  5
4E
330
1F
100
AcDbEntity
  8
NOTES
100
AcDbMText
 10
1.0904790773
 20
48.7202140632
 30
0.0
 40
1.0
 41
0.0
 71
     1
 72
     1
  1
REQUIRES DECORATIVE SURROUND
  7
SLDTEXTSTYLE0
 73
     1
 44
1.0
  0
LINE
  5
4F
330
1F
100
AcDbEntity
  8
SLD-0
  6
Continuous
370
    15
100
AcDbLine
 10
45.9380293
 20
22.5275545092
 30
0.0
 11
45.9278230312
 21
22.695505849
 31
0.0
  0
LINE
  5
50
330
1F
100
AcDbEntity
  8
SLD-0
  6
Continuous
370
    15
100
AcDbLine
 10
43.1178230659
 20
22.695505849
 30
0.0
 11
43.1076169438
 21
22.5275545092
 31
0.0
  0
LINE
  5
51
330
1F
100
AcDbEntity
  8
SLD-0
  6
Continuous
370
    15
100
AcDbLine
 10
51.9380292275
 20
22.5275545092
 30
0.0
 11
51.9278231054
 21
22.695505849
 31
0.0
  0
LINE
  5
52
330
1F
100
AcDbEntity
  8
SLD-0
  6
Continuous
370
    15
100
AcDbLine
 10
49.1178231401
 20
22.695505849
 30
0.0
 11
49.1076168713
 21
22.5275545092
 31
0.0
  0
LINE
  5
53
330
1F
100
AcDbEntity
  8
SLD-0
  6
Continuous
370
    15
100
AcDbLine
 10
60.9747425146
 20
3.3880994499
 30
0.0
 11
34.0622433834
 21
3.3880994499
 31
0.0
  0
LINE
  5
54
330
1F
100
AcDbEntity
  8
SLD-0
  6
Continuous
370
    15
100
AcDbLine
 10
59.4785708918
 20
18.547056599
 30
0.0
 11
59.478553292
 21
18.5471011851
 31
0.0
  0
LINE
  5
55
330
1F
100
AcDbEntity
  8
SLD-0
  6
Continuous
370
    15
100
AcDbLine
 10
35.558432606
 20
18.5471011851
 30
0.0
 11
35.5584150062
 21
18.547056599
 31
0.0
  0
LINE
  5
56
330
1F
100
AcDbEntity
  8
SLD-0
  6
Continuous
370
    15
100
AcDbLine
 10
44.5228230486
 20
22.695505849
 30
0.0
 11
43.1178230659
 21
22.695505849
 31
0.0
  0
LINE
  5
57
330
1F
100
AcDbEntity
  8
SLD-0
  6
Continuous
370
    15
100
AcDbLine
 10
45.9278230312
 20
22.695505849
 30
0.0
 11
44.5228230486
 21
22.695505849
 31
0.0
  0
LINE
  5
58
330
1F
100
AcDbEntity
  8
SLD-0
  6
Continuous
370
    15
100
AcDbLine
 10
51.9278231054
 20
22.695505849
 30
0.0
 11
49.1178231401
 21
22.695505849
 31
0.0
  0
LINE
  5
59
330
1F
100
AcDbEntity
  8
SLD-0
  6
Continuous
370
    15
100
AcDbLine
 10
62.1364933606
 20
22.1525544679
 30
0.0
 11
61.7614933193
 21
22.5275545092
 31
0.0
  0
LINE
  5
5A
330
1F
100
AcDbEntity
  8
SLD-0
  6
Continuous
370
    15
100
AcDbLine
 10
62.1364933606
 20
22.1525544679
 30
0.0
 11
62.1364933606
 21
20.9155064118
 31
0.0
  0
LINE
  5
5B
330
1F
100
AcDbEntity
  8
SLD-0
  6
Continuous
370
    15
100
AcDbLine
 10
62.1364933606
 20
20.9155064118
 30
0.0
 11
32.9004925374
 21
20.9155064118
 31
0.0
  0
LINE
  5
5C
330
1F
100
AcDbEntity
  8
SLD-0
  6
Continuous
370
    15
100
AcDbLine
 10
33.2754925787
 20
22.5275545092
 30
0.0
 11
32.9004925374
 21
22.1525544679
 31
0.0
  0
LINE
  5
5D
330
1F
100
AcDbEntity
  8
SLD-0
  6
Continuous
370
    15
100
AcDbLine
 10
33.2754925787
 20
22.5275545092
 30
0.0
 11
61.7614933193
 21
22.5275545092
 31
0.0
  0
LINE
  5
5E
330
1F
100
AcDbEntity
  8
SLD-0
  6
Continuous
370
    15
100
AcDbLine
 10
32.9004925374
 20
20.9155064118
 30
0.0
 11
32.9004925374
 21
22.1525544679
 31
0.0
  0
LINE
  5
5F
330
1F
100
AcDbEntity
  8
SLD-0
  6
Continuous
370
    15
100
AcDbLine
 10
62.1364933606
 20
20.8669063332
 30
0.0
 11
32.9004925374
 21
20.8669063332
 31
0.0
  0
LINE
  5
60
330
1F
100
AcDbEntity
  8
SLD-0
  6
Continuous
370
    15
100
AcDbLine
 10
62.1364933606
 20
20.9155064118
 30
0.0
 11
62.1364933606
 21
20.8669063332
 31
0.0
  0
LINE
  5
61
330
1F
100
AcDbEntity
  8
SLD-0
  6
Continuous
370
    15
100
AcDbLine
 10
32.9004925374
 20
20.8669063332
 30
0.0
 11
32.9004925374
 21
20.9155064118
 31
0.0
  0
LINE
  5
62
330
1F
100
AcDbEntity
  8
SLD-0
  6
Continuous
370
    15
100
AcDbLine
 10
34.0622433834
 20
3.3525314341
 30
0.0
 11
34.0622433834
 21
3.3880994499
 31
0.0
  0
LINE
  5
63
330
1F
100
AcDbEntity
  8
SLD-0
  6
Continuous
370
    15
100
AcDbLine
 10
60.9747425146
 20
3.3880994499
 30
0.0
 11
60.9747425146
 21
3.3525314341
 31
0.0
  0
LINE
  5
64
330
1F
100
AcDbEntity
  8
SLD-0
  6
Continuous
370
    15
100
AcDbLine
 10
34.0622433834
 20
3.3525314341
 30
0.0
 11
60.9747425146
 21
3.3525314341
 31
0.0
  0
LINE
  5
65
330
1F
100
AcDbEntity
  8
SLD-0
  6
Continuous
370
    15
100
AcDbLine
 10
34.0622433834
 20
2.9080996082
 30
0.0
 11
34.0622433834
 21
3.3525314341
 31
0.0
  0
LINE
  5
66
330
1F
100
AcDbEntity
  8
SLD-0
  6
Continuous
370
    15
100
AcDbLine
 10
60.9747425146
 20
2.9080996082
 30
0.0
 11
60.9747425146
 21
3.3525314341
 31
0.0
  0
LINE
  5
67
330
1F
100
AcDbEntity
  8
SLD-0
  6
Continuous
370
    15
100
AcDbLine
 10
60.9747425146
 20
2.9080996082
 30
0.0
 11
34.0622433834
 21
2.9080996082
 31
0.0
  0
LINE
  5
68
330
1F
100
AcDbEntity
  8
SLD-0
  6
Continuous
370
    15
100
AcDbLine
 10
60.9747425146
 20
2.8519063907
 30
0.0
 11
34.0622433834
 21
2.8519063907
 31
0.0
  0
LINE
  5
69
330
1F
100
AcDbEntity
  8
SLD-0
  6
Continuous
370
    15
100
AcDbLine
 10
34.0622433834
 20
2.9080996082
 30
0.0
 11
34.0622433834
 21
2.8519063907
 31
0.0
  0
LINE
  5
6A
330
1F
100
AcDbEntity
  8
SLD-0
  6
Continuous
370
    15
100
AcDbLine
 10
60.9747425146
 20
2.9080996082
 30
0.0
 11
60.9747425146
 21
2.8519063907
 31
0.0
  0
LINE
  5
6B
330
1F
100
AcDbEntity
  8
SLD-0
  6
Continuous
370
    15
100
AcDbLine
 10
60.9747425146
 20
2.8033063121
 30
0.0
 11
60.9747425146
 21
2.8519063907
 31
0.0
  0
LINE
  5
6C
330
1F
100
AcDbEntity
  8
SLD-0
  6
Continuous
370
    15
100
AcDbLine
 10
60.9747425146
 20
2.8033063121
 30
0.0
 11
34.0622433834
 21
2.8033063121
 31
0.0
  0
LINE
  5
6D
330
1F
100
AcDbEntity
  8
SLD-0
  6
Continuous
370
    15
100
AcDbLine
 10
34.0622433834
 20
2.8519063907
 30
0.0
 11
34.0622433834
 21
2.8033063121
 31
0.0
  0
LINE
  5
6E
330
1F
100
AcDbEntity
  8
SLD-0
  6
Continuous
370
    15
100
AcDbLine
 10
61.0184932625
 20
2.836906084
 30
0.0
 11
61.0184932625
 21
2.8033063121
 31
0.0
  0
LINE
  5
6F
330
1F
100
AcDbEntity
  8
SLD-0
  6
Continuous
370
    15
100
AcDbLine
 10
61.0184932625
 20
2.836906084
 30
0.0
 11
60.9747425146
 21
2.836906084
 31
0.0
  0
LINE
  5
70
330
1F
100
AcDbEntity
  8
SLD-0
  6
Continuous
370
    15
100
AcDbLine
 10
61.0184932625
 20
2.8033063121
 30
0.0
 11
60.9747425146
 21
2.8033063121
 31
0.0
  0
LINE
  5
71
330
1F
100
AcDbEntity
  8
SLD-0
  6
Continuous
370
    15
100
AcDbLine
 10
34.0184926355
 20
2.8033063121
 30
0.0
 11
34.0184926355
 21
2.836906084
 31
0.0
  0
LINE
  5
72
330
1F
100
AcDbEntity
  8
SLD-0
  6
Continuous
370
    15
100
AcDbLine
 10
34.0622433834
 20
2.836906084
 30
0.0
 11
34.0184926355
 21
2.836906084
 31
0.0
  0
LINE
  5
73
330
1F
100
AcDbEntity
  8
SLD-0
  6
Continuous
370
    15
100
AcDbLine
 10
34.0622433834
 20
2.8033063121
 30
0.0
 11
34.0184926355
 21
2.8033063121
 31
0.0
  0
SPLINE
  5
74
330
1F
100
AcDbEntity
  8
SLD-0
  6
Continuous
370
    15
100
AcDbSpline
210
0.0
220
0.0
230
1.0
 70
     8
 71
     3
 72
    11
 73
     7
 74
     0
 42
0.00000001
 43
0.00000001
 12
1.0
 22
0.0
 32
0.0
 13
1.0
 23
0.0
 33
0.0
 40
0.0
 40
0.0
 40
0.0
 40
0.0
 40
0.2499869804355174
 40
0.4999998874597602
 40
0.7499994917207045
 40
0.9999999999999999
 40
0.9999999999999999
 40
0.9999999999999999
 40
0.9999999999999999
 10
34.01849263547773
 20
2.836906083953811
 30
0.0
 10
34.01733254647215
 20
2.837131496336633
 30
0.0
 10
34.01501224814614
 20
2.837582344480193
 30
0.0
 10
34.0123990050815
 20
2.841051322718732
 30
0.0
 10
34.01116921753141
 20
2.846009446591511
 30
0.0
 10
34.01207472377879
 20
2.849940740273857
 30
0.0
 10
34.01252747772107
 20
2.851906390668988
 30
0.0
  0
SPLINE
  5
75
330
1F
100
AcDbEntity
  8
SLD-0
  6
Continuous
370
    15
100
AcDbSpline
210
0.0
220
0.0
230
1.0
 70
     8
 71
     3
 72
    15
 73
    11
 74
     0
 42
0.00000001
 43
0.00000001
 12
1.0
 22
0.0
 32
0.0
 13
1.0
 23
0.0
 33
0.0
 40
0.0
 40
0.0
 40
0.0
 40
0.0
 40
0.1249977386503626
 40
0.2499949901319571
 40
0.3749990873731812
 40
0.4999974243823141
 40
0.6249944890576364
 40
0.7499939731742783
 40
0.8749973456650958
 40
1.0
 40
1.0
 40
1.0
 40
1.0
 10
34.01849263547773
 20
2.803306312101243
 30
0.0
 10
34.01587441716446
 20
2.803487233569271
 30
0.0
 10
34.01063799074225
 20
2.803849075800202
 30
0.0
 10
34.00312384761807
 20
2.8067390697196
 30
0.0
 10
33.99627452644574
 20
2.811229780354617
 30
0.0
 10
33.99039804729475
 20
2.817321326160166
 30
0.0
 10
33.98574337573007
 20
2.824730874875763
 30
0.0
 10
33.98257128161592
 20
2.833187810699657
 30
0.0
 10
33.98088542976149
 20
2.842363632379242
 30
0.0
 10
33.98121158641126
 20
2.848725477330657
 30
0.0
 10
33.9813746642677
 20
2.851906390668988
 30
0.0
  0
SPLINE
  5
76
330
1F
100
AcDbEntity
  8
SLD-0
  6
Continuous
370
    15
100
AcDbSpline
210
0.0
220
0.0
230
1.0
 70
     8
 71
     3
 72
    15
 73
    11
 74
     0
 42
0.00000001
 43
0.00000001
 12
1.0
 22
0.0
 32
0.0
 13
1.0
 23
0.0
 33
0.0
 40
0.0
 40
0.0
 40
0.0
 40
0.0
 40
0.1250026543349042
 40
0.2500060268257217
 40
0.3750055109423636
 40
0.5000025756176859
 40
0.6250009126268189
 40
0.7500050098680429
 40
0.8750022613496374
 40
1.0
 40
1.0
 40
1.0
 40
1.0
 10
61.05561123370985
 20
2.851906390668988
 30
0.0
 10
61.05577431156627
 20
2.848725477330657
 30
0.0
 10
61.05610046821606
 20
2.842363632379242
 30
0.0
 10
61.05441461636163
 20
2.83318781069966
 30
0.0
 10
61.05124252224747
 20
2.824730874875763
 30
0.0
 10
61.04658785068278
 20
2.817321326160166
 30
0.0
 10
61.04071137153181
 20
2.811229780354615
 30
0.0
 10
61.03386205035947
 20
2.806739069719602
 30
0.0
 10
61.0263479072353
 20
2.8038490758002
 30
0.0
 10
61.02111148081308
 20
2.803487233569271
 30
0.0
 10
61.01849326249982
 20
2.803306312101243
 30
0.0
  0
SPLINE
  5
77
330
1F
100
AcDbEntity
  8
SLD-0
  6
Continuous
370
    15
100
AcDbSpline
210
0.0
220
0.0
230
1.0
 70
     8
 71
     3
 72
    11
 73
     7
 74
     0
 42
0.00000001
 43
0.00000001
 12
1.0
 22
0.0
 32
0.0
 13
1.0
 23
0.0
 33
0.0
 40
0.0
 40
0.0
 40
0.0
 40
0.0
 40
0.2500005082792955
 40
0.5000001125402398
 40
0.7500130195644825
 40
0.9999999999999999
 40
0.9999999999999999
 40
0.9999999999999999
 40
0.9999999999999999
 10
61.02445842025648
 20
2.851906390668988
 30
0.0
 10
61.02491117419876
 20
2.849940740273857
 30
0.0
 10
61.02581668044613
 20
2.846009446591514
 30
0.0
 10
61.02458689289604
 20
2.841051322718732
 30
0.0
 10
61.0219736498314
 20
2.837582344480189
 30
0.0
 10
61.01965335150539
 20
2.837131496336628
 30
0.0
 10
61.01849326249982
 20
2.836906083953811
 30
0.0
  0
LINE
  5
78
330
1F
100
AcDbEntity
  8
SLD-0
  6
Continuous
370
    15
100
AcDbLine
 10
33.6434925942
 20
7.3519062996
 30
0.0
 11
32.8934925116
 21
7.3519062996
 31
0.0
  0
LINE
  5
79
330
1F
100
AcDbEntity
  8
SLD-0
  6
Continuous
370
    15
100
AcDbLine
 10
33.6434925942
 20
8.8459062541
 30
0.0
 11
33.6434925942
 21
7.3519062996
 31
0.0
  0
LINE
  5
7A
330
1F
100
AcDbEntity
  8
SLD-0
  6
Continuous
370
    15
100
AcDbLine
 10
32.8934925116
 20
20.8519060265
 30
0.0
 11
32.8934925116
 21
8.8519061715
 31
0.0
  0
LINE
  5
7B
330
1F
100
AcDbEntity
  8
SLD-0
  6
Continuous
370
    15
100
AcDbLine
 10
34.0034929154
 20
20.8519060265
 30
0.0
 11
32.8934925116
 21
20.8519060265
 31
0.0
  0
LINE
  5
7C
330
1F
100
AcDbEntity
  8
SLD-0
  6
Continuous
370
    15
100
AcDbLine
 10
33.2684925529
 20
2.8519063907
 30
0.0
 11
34.0034929154
 21
2.8519063907
 31
0.0
  0
LINE
  5
7D
330
1F
100
AcDbEntity
  8
SLD-0
  6
Continuous
370
    15
100
AcDbLine
 10
32.8934925116
 20
3.226906432
 30
0.0
 11
33.2684925529
 21
2.8519063907
 31
0.0
  0
LINE
  5
7E
330
1F
100
AcDbEntity
  8
SLD-0
  6
Continuous
370
    15
100
AcDbLine
 10
32.8934925116
 20
7.3519062996
 30
0.0
 11
32.8934925116
 21
3.226906432
 31
0.0
  0
LINE
  5
7F
330
1F
100
AcDbEntity
  8
SLD-0
  6
Continuous
370
    15
100
AcDbLine
 10
62.1434933864
 20
3.226906432
 30
0.0
 11
61.7684933451
 21
2.8519063907
 31
0.0
  0
LINE
  5
80
330
1F
100
AcDbEntity
  8
SLD-0
  6
Continuous
370
    15
100
AcDbLine
 10
61.7684933451
 20
2.8519063907
 30
0.0
 11
61.0334929826
 21
2.8519063907
 31
0.0
  0
LINE
  5
81
330
1F
100
AcDbEntity
  8
SLD-0
  6
Continuous
370
    15
100
AcDbLine
 10
61.0334929826
 20
20.8519060265
 30
0.0
 11
62.1434933864
 21
20.8519060265
 31
0.0
  0
LINE
  5
82
330
1F
100
AcDbEntity
  8
SLD-0
  6
Continuous
370
    15
100
AcDbLine
 10
62.1434933864
 20
20.8519060265
 30
0.0
 11
62.1434933864
 21
8.8519061715
 31
0.0
  0
LINE
  5
83
330
1F
100
AcDbEntity
  8
SLD-0
  6
Continuous
370
    15
100
AcDbLine
 10
61.3934933038
 20
8.8459062541
 30
0.0
 11
61.3934933038
 21
7.3519062996
 31
0.0
  0
LINE
  5
84
330
1F
100
AcDbEntity
  8
SLD-0
  6
Continuous
370
    15
100
AcDbLine
 10
61.3934933038
 20
7.3519062996
 30
0.0
 11
62.1434933864
 21
7.3519062996
 31
0.0
  0
LINE
  5
85
330
1F
100
AcDbEntity
  8
SLD-0
  6
Continuous
370
    15
100
AcDbLine
 10
62.1434933864
 20
7.3519062996
 30
0.0
 11
62.1434933864
 21
3.226906432
 31
0.0
  0
LINE
  5
86
330
1F
100
AcDbEntity
  8
SLD-0
  6
Continuous
370
    15
100
AcDbLine
 10
34.0580933513
 20
2.8519063907
 30
0.0
 11
34.0034929154
 21
2.8519063907
 31
0.0
  0
LINE
  5
87
330
1F
100
AcDbEntity
  8
SLD-0
  6
Continuous
370
    15
100
AcDbLine
 10
34.0580933513
 20
20.8519060265
 30
0.0
 11
34.0580933513
 21
18.5320521856
 31
0.0
  0
LINE
  5
88
330
1F
100
AcDbEntity
  8
SLD-0
  6
Continuous
370
    15
100
AcDbLine
 10
34.0580933513
 20
5.8350525691
 30
0.0
 11
34.0580933513
 21
2.8519063907
 31
0.0
  0
LINE
  5
89
330
1F
100
AcDbEntity
  8
SLD-0
  6
Continuous
370
    15
100
AcDbLine
 10
34.0034929154
 20
20.8519060265
 30
0.0
 11
34.0580933513
 21
20.8519060265
 31
0.0
  0
LINE
  5
8A
330
1F
100
AcDbEntity
  8
SLD-0
  6
Continuous
370
    15
100
AcDbLine
 10
60.9788925466
 20
20.8519060265
 30
0.0
 11
60.9788925466
 21
18.5320521856
 31
0.0
  0
LINE
  5
8B
330
1F
100
AcDbEntity
  8
SLD-0
  6
Continuous
370
    15
100
AcDbLine
 10
60.9788925466
 20
5.8350525691
 30
0.0
 11
60.9788925466
 21
2.8519063907
 31
0.0
  0
LINE
  5
8C
330
1F
100
AcDbEntity
  8
SLD-0
  6
Continuous
370
    15
100
AcDbLine
 10
60.9788925466
 20
20.8519060265
 30
0.0
 11
61.0334929826
 21
20.8519060265
 31
0.0
  0
LINE
  5
8D
330
1F
100
AcDbEntity
  8
SLD-0
  6
Continuous
370
    15
100
AcDbLine
 10
61.0334929826
 20
2.8519063907
 30
0.0
 11
60.9788925466
 21
2.8519063907
 31
0.0
  0
LINE
  5
8E
330
1F
100
AcDbEntity
  8
SLD-0
  6
Continuous
370
    15
100
AcDbLine
 10
60.9778001859
 20
20.8519060265
 30
0.0
 11
60.9788925466
 21
20.8519060265
 31
0.0
  0
LINE
  5
8F
330
1F
100
AcDbEntity
  8
SLD-0
  6
Continuous
370
    15
100
AcDbLine
 10
60.9788925466
 20
2.8519063907
 30
0.0
 11
60.9778001859
 21
2.8519063907
 31
0.0
  0
LINE
  5
90
330
1F
100
AcDbEntity
  8
SLD-0
  6
Continuous
370
    15
100
AcDbLine
 10
34.0591857121
 20
2.8519063907
 30
0.0
 11
34.0580933513
 21
2.8519063907
 31
0.0
  0
LINE
  5
91
330
1F
100
AcDbEntity
  8
SLD-0
  6
Continuous
370
    15
100
AcDbLine
 10
34.0591857121
 20
2.8519063907
 30
0.0
 11
34.0622433834
 21
2.8519063907
 31
0.0
  0
LINE
  5
92
330
1F
100
AcDbEntity
  8
SLD-0
  6
Continuous
370
    15
100
AcDbLine
 10
60.9778001859
 20
2.8519063907
 30
0.0
 11
60.9747425146
 21
2.8519063907
 31
0.0
  0
LINE
  5
93
330
1F
100
AcDbEntity
  8
SLD-0
  6
Continuous
370
    15
100
AcDbLine
 10
35.2851664294
 20
5.8285564842
 30
0.0
 11
35.2851664294
 21
5.8350525691
 31
0.0
  0
LINE
  5
94
330
1F
100
AcDbEntity
  8
SLD-0
  6
Continuous
370
    15
100
AcDbLine
 10
35.2851664294
 20
5.8285564842
 30
0.0
 11
35.5310825219
 21
5.8285564842
 31
0.0
  0
LINE
  5
95
330
1F
100
AcDbEntity
  8
SLD-0
  6
Continuous
370
    15
100
AcDbLine
 10
34.4666151387
 20
5.8285564842
 30
0.0
 11
35.2851664294
 21
5.8285564842
 31
0.0
  0
LINE
  5
96
330
1F
100
AcDbEntity
  8
SLD-0
  6
Continuous
370
    15
100
AcDbLine
 10
59.7518194686
 20
5.8285564842
 30
0.0
 11
59.7518194686
 21
5.8350525691
 31
0.0
  0
LINE
  5
97
330
1F
100
AcDbEntity
  8
SLD-0
  6
Continuous
370
    15
100
AcDbLine
 10
59.7518194686
 20
5.8285564842
 30
0.0
 11
59.5059033761
 21
5.8285564842
 31
0.0
  0
LINE
  5
98
330
1F
100
AcDbEntity
  8
SLD-0
  6
Continuous
370
    15
100
AcDbLine
 10
60.5703707592
 20
5.8285564842
 30
0.0
 11
59.7518194686
 21
5.8285564842
 31
0.0
  0
ARC
  5
99
330
1F
100
AcDbEntity
  8
SLD-0
  6
Continuous
370
    15
100
AcDbCircle
 10
34.4667312748
 20
5.8763774873
 30
0.0
 40
0.0478211442030718
100
AcDbArc
 50
239.786445859
 51
269.8608541592
  0
ARC
  5
9A
330
1F
100
AcDbEntity
  8
SLD-0
  6
Continuous
370
    15
100
AcDbCircle
 10
60.5702546232
 20
5.8763774873
 30
0.0
 40
0.047821144203157
100
AcDbArc
 50
270.1391458408
 51
300.213554141
  0
LINE
  5
9B
330
1F
100
AcDbEntity
  8
SLD-0
  6
Continuous
370
    15
100
AcDbLine
 10
33.8434931638
 20
5.9100523427
 30
0.0
 11
61.1934927342
 21
5.9100523427
 31
0.0
  0
LINE
  5
9C
330
1F
100
AcDbEntity
  8
SLD-0
  6
Continuous
370
    15
100
AcDbLine
 10
33.8434931638
 20
18.457052412
 30
0.0
 11
33.8434931638
 21
5.9100523427
 31
0.0
  0
LINE
  5
9D
330
1F
100
AcDbEntity
  8
SLD-0
  6
Continuous
370
    15
100
AcDbLine
 10
61.1934927342
 20
18.457052412
 30
0.0
 11
33.8434931638
 21
18.457052412
 31
0.0
  0
LINE
  5
9E
330
1F
100
AcDbEntity
  8
SLD-0
  6
Continuous
370
    15
100
AcDbLine
 10
61.1934927342
 20
5.9100523427
 30
0.0
 11
61.1934927342
 21
18.457052412
 31
0.0
  0
LINE
  5
9F
330
1F
100
AcDbEntity
  8
SLD-0
  6
Continuous
370
    15
100
AcDbLine
 10
60.1434923839
 20
7.1475524203
 30
0.0
 11
60.1434923839
 21
17.2195526277
 31
0.0
  0
ARC
  5
A0
330
1F
100
AcDbEntity
  8
SLD-0
  6
Continuous
370
    15
100
AcDbCircle
 10
59.955992949
 20
17.2195523938
 30
0.0
 40
0.1875
100
AcDbArc
 50
0.0
 51
90.0
  0
LINE
  5
A1
330
1F
100
AcDbEntity
  8
SLD-0
  6
Continuous
370
    15
100
AcDbLine
 10
59.9559923633
 20
17.4070526484
 30
0.0
 11
35.0809935347
 21
17.4070526484
 31
0.0
  0
ARC
  5
A2
330
1F
100
AcDbEntity
  8
SLD-0
  6
Continuous
370
    15
100
AcDbCircle
 10
35.080992949
 20
17.2195523938
 30
0.0
 40
0.1875
100
AcDbArc
 50
90.0
 51
180.0
  0
LINE
  5
A3
330
1F
100
AcDbEntity
  8
SLD-0
  6
Continuous
370
    15
100
AcDbLine
 10
34.8934935141
 20
17.2195526277
 30
0.0
 11
34.8934935141
 21
7.1475524203
 31
0.0
  0
ARC
  5
A4
330
1F
100
AcDbEntity
  8
SLD-0
  6
Continuous
370
    15
100
AcDbCircle
 10
35.080992949
 20
7.1475523938
 30
0.0
 40
0.1875
100
AcDbArc
 50
180.0
 51
270.0
  0
LINE
  5
A5
330
1F
100
AcDbEntity
  8
SLD-0
  6
Continuous
370
    15
100
AcDbLine
 10
35.0809935347
 20
6.9600523997
 30
0.0
 11
59.9559923633
 21
6.9600523997
 31
0.0
  0
ARC
  5
A6
330
1F
100
AcDbEntity
  8
SLD-0
  6
Continuous
370
    15
100
AcDbCircle
 10
59.955992949
 20
7.1475523938
 30
0.0
 40
0.1875000000000027
100
AcDbArc
 50
270.0
 51
0.0
  0
LINE
  5
A7
330
1F
100
AcDbEntity
  8
SLD-0
  6
Continuous
370
    15
100
AcDbLine
 10
33.8434931638
 20
5.8350525691
 30
0.0
 11
61.1934927342
 21
5.8350525691
 31
0.0
  0
LINE
  5
A8
330
1F
100
AcDbEntity
  8
SLD-0
  6
Continuous
370
    15
100
AcDbLine
 10
61.1934927342
 20
5.9100523427
 30
0.0
 11
61.1934927342
 21
5.8350525691
 31
0.0
  0
LINE
  5
A9
330
1F
100
AcDbEntity
  8
SLD-0
  6
Continuous
370
    15
100
AcDbLine
 10
33.8434931638
 20
5.8350525691
 30
0.0
 11
33.8434931638
 21
5.9100523427
 31
0.0
  0
LINE
  5
AA
330
1F
100
AcDbEntity
  8
SLD-0
  6
Continuous
370
    15
100
AcDbLine
 10
61.1934927342
 20
18.457052412
 30
0.0
 11
61.2684925078
 21
18.457052412
 31
0.0
  0
LINE
  5
AB
330
1F
100
AcDbEntity
  8
SLD-0
  6
Continuous
370
    15
100
AcDbLine
 10
61.2684925078
 20
18.457052412
 30
0.0
 11
61.2684925078
 21
5.9100523427
 31
0.0
  0
LINE
  5
AC
330
1F
100
AcDbEntity
  8
SLD-0
  6
Continuous
370
    15
100
AcDbLine
 10
61.2684925078
 20
5.9100523427
 30
0.0
 11
61.1934927342
 21
5.9100523427
 31
0.0
  0
LINE
  5
AD
330
1F
100
AcDbEntity
  8
SLD-0
  6
Continuous
370
    15
100
AcDbLine
 10
33.8434931638
 20
18.457052412
 30
0.0
 11
33.8434931638
 21
18.5320521856
 31
0.0
  0
LINE
  5
AE
330
1F
100
AcDbEntity
  8
SLD-0
  6
Continuous
370
    15
100
AcDbLine
 10
61.1934927342
 20
18.5320521856
 30
0.0
 11
33.8434931638
 21
18.5320521856
 31
0.0
  0
LINE
  5
AF
330
1F
100
AcDbEntity
  8
SLD-0
  6
Continuous
370
    15
100
AcDbLine
 10
61.1934927342
 20
18.5320521856
 30
0.0
 11
61.1934927342
 21
18.457052412
 31
0.0
  0
LINE
  5
B0
330
1F
100
AcDbEntity
  8
SLD-0
  6
Continuous
370
    15
100
AcDbLine
 10
33.7684933902
 20
18.457052412
 30
0.0
 11
33.7684933902
 21
5.9100523427
 31
0.0
  0
LINE
  5
B1
330
1F
100
AcDbEntity
  8
SLD-0
  6
Continuous
370
    15
100
AcDbLine
 10
33.7684933902
 20
18.457052412
 30
0.0
 11
33.8434931638
 21
18.457052412
 31
0.0
  0
LINE
  5
B2
330
1F
100
AcDbEntity
  8
SLD-0
  6
Continuous
370
    15
100
AcDbLine
 10
33.8434931638
 20
5.9100523427
 30
0.0
 11
33.7684933902
 21
5.9100523427
 31
0.0
  0
LINE
  5
B3
330
1F
100
AcDbEntity
  8
SLD-0
  6
Continuous
370
    15
100
AcDbLine
 10
58.9624932269
 20
19.0033325013
 30
0.0
 11
59.4589471185
 21
18.5533919391
 31
0.0
  0
LINE
  5
B4
330
1F
100
AcDbEntity
  8
SLD-0
  6
Continuous
370
    15
100
AcDbLine
 10
58.9624932269
 20
19.0286897018
 30
0.0
 11
58.9624932269
 21
19.0033325013
 31
0.0
  0
LINE
  5
B5
330
1F
100
AcDbEntity
  8
SLD-0
  6
Continuous
370
    15
100
AcDbLine
 10
58.9624932269
 20
19.0286897018
 30
0.0
 11
59.4589471185
 21
18.5787485528
 31
0.0
  0
LINE
  5
B6
330
1F
100
AcDbEntity
  8
SLD-0
  6
Continuous
370
    15
100
AcDbLine
 10
59.4589471185
 20
18.5787485528
 30
0.0
 11
59.4589471185
 21
18.5533919391
 31
0.0
  0
LINE
  5
B7
330
1F
100
AcDbEntity
  8
SLD-0
  6
Continuous
370
    15
100
AcDbLine
 10
59.4589471185
 20
18.5533919391
 30
0.0
 11
35.5780387795
 21
18.5533919391
 31
0.0
  0
LINE
  5
B8
330
1F
100
AcDbEntity
  8
SLD-0
  6
Continuous
370
    15
100
AcDbLine
 10
35.5780387795
 20
18.5533919391
 30
0.0
 11
36.0744926711
 21
19.0033325013
 31
0.0
  0
LINE
  5
B9
330
1F
100
AcDbEntity
  8
SLD-0
  6
Continuous
370
    15
100
AcDbLine
 10
58.9624932269
 20
19.0033325013
 30
0.0
 11
36.0744926711
 21
19.0033325013
 31
0.0
  0
LINE
  5
BA
330
1F
100
AcDbEntity
  8
SLD-0
  6
Continuous
370
    15
100
AcDbLine
 10
35.5780387795
 20
18.5787485528
 30
0.0
 11
36.0744926711
 21
19.0286897018
 31
0.0
  0
LINE
  5
BB
330
1F
100
AcDbEntity
  8
SLD-0
  6
Continuous
370
    15
100
AcDbLine
 10
36.0744926711
 20
19.0286897018
 30
0.0
 11
36.0744926711
 21
19.0033325013
 31
0.0
  0
LINE
  5
BC
330
1F
100
AcDbEntity
  8
SLD-0
  6
Continuous
370
    15
100
AcDbLine
 10
35.5780387795
 20
18.5533919391
 30
0.0
 11
35.5780387795
 21
18.5787485528
 31
0.0
  0
LINE
  5
BD
330
1F
100
AcDbEntity
  8
SLD-0
  6
Continuous
370
    15
100
AcDbLine
 10
59.4589471185
 20
5.7883562019
 30
0.0
 11
58.9624932269
 21
5.338415053
 31
0.0
  0
LINE
  5
BE
330
1F
100
AcDbEntity
  8
SLD-0
  6
Continuous
370
    15
100
AcDbLine
 10
58.9624932269
 20
5.338415053
 30
0.0
 11
58.9624932269
 21
5.3637722534
 31
0.0
  0
LINE
  5
BF
330
1F
100
AcDbEntity
  8
SLD-0
  6
Continuous
370
    15
100
AcDbLine
 10
59.4589471185
 20
5.8137134023
 30
0.0
 11
58.9624932269
 21
5.3637722534
 31
0.0
  0
LINE
  5
C0
330
1F
100
AcDbEntity
  8
SLD-0
  6
Continuous
370
    15
100
AcDbLine
 10
59.4589471185
 20
5.8137134023
 30
0.0
 11
59.4589471185
 21
5.7883562019
 31
0.0
  0
LINE
  5
C1
330
1F
100
AcDbEntity
  8
SLD-0
  6
Continuous
370
    15
100
AcDbLine
 10
35.5780387795
 20
5.8137134023
 30
0.0
 11
59.4589471185
 21
5.8137134023
 31
0.0
  0
LINE
  5
C2
330
1F
100
AcDbEntity
  8
SLD-0
  6
Continuous
370
    15
100
AcDbLine
 10
58.9624932269
 20
5.3637722534
 30
0.0
 11
36.0744926711
 21
5.3637722534
 31
0.0
  0
LINE
  5
C3
330
1F
100
AcDbEntity
  8
SLD-0
  6
Continuous
370
    15
100
AcDbLine
 10
36.0744926711
 20
5.3637722534
 30
0.0
 11
35.5780387795
 21
5.8137134023
 31
0.0
  0
LINE
  5
C4
330
1F
100
AcDbEntity
  8
SLD-0
  6
Continuous
370
    15
100
AcDbLine
 10
36.0744926711
 20
5.338415053
 30
0.0
 11
36.0744926711
 21
5.3637722534
 31
0.0
  0
LINE
  5
C5
330
1F
100
AcDbEntity
  8
SLD-0
  6
Continuous
370
    15
100
AcDbLine
 10
36.0744926711
 20
5.338415053
 30
0.0
 11
35.5780387795
 21
5.7883562019
 31
0.0
  0
LINE
  5
C6
330
1F
100
AcDbEntity
  8
SLD-0
  6
Continuous
370
    15
100
AcDbLine
 10
35.5780387795
 20
5.7883562019
 30
0.0
 11
35.5780387795
 21
5.8137134023
 31
0.0
  0
LINE
  5
C7
330
1F
100
AcDbEntity
  8
SLD-0
  6
Continuous
370
    15
100
AcDbLine
 10
58.9624932269
 20
19.0286897018
 30
0.0
 11
36.0744926711
 21
19.0286897018
 31
0.0
  0
LINE
  5
C8
330
1F
100
AcDbEntity
  8
SLD-0
  6
Continuous
370
    15
100
AcDbLine
 10
58.9624932269
 20
5.338415053
 30
0.0
 11
36.0744926711
 21
5.338415053
 31
0.0
  0
SPLINE
  5
C9
330
1F
100
AcDbEntity
  8
SLD-0
  6
Continuous
370
    15
100
AcDbSpline
210
0.0
220
0.0
230
1.0
 70
     8
 71
     3
 72
    10
 73
     6
 74
     0
 42
0.00000001
 43
0.00000001
 12
1.0
 22
0.0
 32
0.0
 13
1.0
 23
0.0
 33
0.0
 40
0.0
 40
0.0
 40
0.0
 40
0.0
 40
0.4694342061755872
 40
0.8887760967769814
 40
0.9999999999999999
 40
0.9999999999999999
 40
0.9999999999999999
 40
0.9999999999999999
 10
35.57803877946759
 20
5.788356201883525
 30
0.0
 10
35.57510292621962
 20
5.793059725775759
 30
0.0
 10
35.56954449831617
 20
5.801964870631081
 30
0.0
 10
35.56326931907472
 20
5.812707530644106
 30
0.0
 10
35.55991294845647
 20
5.81838510339214
 30
0.0
 10
35.5592093436535
 20
5.819575307904414
 30
0.0
  0
SPLINE
  5
CA
330
1F
100
AcDbEntity
  8
SLD-0
  6
Continuous
370
    15
100
AcDbSpline
210
0.0
220
0.0
230
1.0
 70
     8
 71
     3
 72
    10
 73
     6
 74
     0
 42
0.00000001
 43
0.00000001
 12
1.0
 22
0.0
 32
0.0
 13
1.0
 23
0.0
 33
0.0
 40
0.0
 40
0.0
 40
0.0
 40
0.0
 40
0.1112239032230185
 40
0.5305657938244127
 40
0.9999999999999999
 40
0.9999999999999999
 40
0.9999999999999999
 40
0.9999999999999999
 10
59.47777655432404
 20
5.819575307904415
 30
0.0
 10
59.47707294952107
 20
5.81838510339214
 30
0.0
 10
59.47371657890282
 20
5.81270753064411
 30
0.0
 10
59.46744139966138
 20
5.801964870631076
 30
0.0
 10
59.46188297175792
 20
5.793059725775758
 30
0.0
 10
59.45894711850996
 20
5.788356201883525
 30
0.0
  0
SPLINE
  5
CB
330
1F
100
AcDbEntity
  8
SLD-0
  6
Continuous
370
    15
100
AcDbSpline
210
0.0
220
0.0
230
1.0
 70
     8
 71
     3
 72
    15
 73
    11
 74
     0
 42
0.00000001
 43
0.00000001
 12
1.0
 22
0.0
 32
0.0
 13
1.0
 23
0.0
 33
0.0
 40
0.0
 40
0.0
 40
0.0
 40
0.0
 40
0.1856008318375286
 40
0.3308140252181205
 40
0.4356157835646849
 40
0.5000048468094385
 40
0.5643937533138383
 40
0.6691960996972164
 40
0.8144101109870734
 40
0.9999999999999999
 40
0.9999999999999999
 40
0.9999999999999999
 40
0.9999999999999999
 10
35.57803877946759
 20
5.813713402288316
 30
0.0
 10
35.57246746979321
 20
5.815541159482374
 30
0.0
 10
35.56253719436896
 20
5.818798945067178
 30
0.0
 10
35.54943642222786
 20
5.823281222655859
 30
0.0
 10
35.53997269398801
 20
5.826258769740408
 30
0.0
 10
35.53287771266092
 20
5.828129382245319
 30
0.0
 10
35.52578266466087
 20
5.829872397074379
 30
0.0
 10
35.51631899577924
 20
5.832105553547486
 30
0.0
 10
35.50321854438516
 20
5.834458774859215
 30
0.0
 10
35.49328870389429
 20
5.834839161800588
 30
0.0
 10
35.48771779619663
 20
5.835052569109774
 30
0.0
  0
SPLINE
  5
CC
330
1F
100
AcDbEntity
  8
SLD-0
  6
Continuous
370
    15
100
AcDbSpline
210
0.0
220
0.0
230
1.0
 70
     8
 71
     3
 72
    15
 73
    11
 74
     0
 42
0.00000001
 43
0.00000001
 12
1.0
 22
0.0
 32
0.0
 13
1.0
 23
0.0
 33
0.0
 40
0.0
 40
0.0
 40
0.0
 40
0.0
 40
0.1855898890129265
 40
0.3308039003027835
 40
0.4356062466861617
 40
0.4999951531905614
 40
0.564384216435315
 40
0.6691859747818795
 40
0.8143991681624714
 40
0.9999999999999999
 40
0.9999999999999999
 40
0.9999999999999999
 40
0.9999999999999999
 10
59.54926810178092
 20
5.835052569109774
 30
0.0
 10
59.54369719408325
 20
5.834839161800588
 30
0.0
 10
59.53376735359238
 20
5.834458774859216
 30
0.0
 10
59.52066690219831
 20
5.832105553547485
 30
0.0
 10
59.51120323331667
 20
5.829872397074379
 30
0.0
 10
59.50410818531662
 20
5.828129382245319
 30
0.0
 10
59.49701320398954
 20
5.826258769740408
 30
0.0
 10
59.48754947574968
 20
5.823281222655859
 30
0.0
 10
59.47444870360858
 20
5.818798945067176
 30
0.0
 10
59.46451842818433
 20
5.815541159482374
 30
0.0
 10
59.45894711850996
 20
5.813713402288316
 30
0.0
  0
SPLINE
  5
CD
330
1F
100
AcDbEntity
  8
SLD-0
  6
Continuous
370
    15
100
AcDbSpline
210
0.0
220
0.0
230
1.0
 70
     8
 71
     3
 72
     9
 73
     5
 74
     0
 42
0.00000001
 43
0.00000001
 12
1.0
 22
0.0
 32
0.0
 13
1.0
 23
0.0
 33
0.0
 40
0.0
 40
0.0
 40
0.0
 40
0.0
 40
0.5761109027641599
 40
1.0
 40
1.0
 40
1.0
 40
1.0
 10
59.45894711850996
 20
18.57874855284631
 30
0.0
 10
59.46271079561701
 20
18.5728757628452
 30
0.0
 10
59.46924369941905
 20
18.56268190959069
 30
0.0
 10
59.47577607569633
 20
18.55173624128408
 30
0.0
 10
59.47854507877931
 20
18.54709649182695
 30
0.0
  0
SPLINE
  5
CE
330
1F
100
AcDbEntity
  8
SLD-0
  6
Continuous
370
    15
100
AcDbSpline
210
0.0
220
0.0
230
1.0
 70
     8
 71
     3
 72
    11
 73
     7
 74
     0
 42
0.00000001
 43
0.00000001
 12
1.0
 22
0.0
 32
0.0
 13
1.0
 23
0.0
 33
0.0
 40
0.0
 40
0.0
 40
0.0
 40
0.0
 40
0.2500026128759424
 40
0.500005693081187
 40
0.7500085366826519
 40
0.9999999999999999
 40
0.9999999999999999
 40
0.9999999999999999
 40
0.9999999999999999
 10
59.45894711850996
 20
18.55339193910141
 30
0.0
 10
59.46647397003582
 20
18.55095825262739
 30
0.0
 10
59.48152768715748
 20
18.54609087513009
 30
0.0
 10
59.5041081701718
 20
18.53867411262042
 30
0.0
 10
59.52668843456541
 20
18.53317052018097
 30
0.0
 10
59.54174166025037
 20
18.53242495815049
 30
0.0
 10
59.54926810178092
 20
18.53205218562006
 30
0.0
  0
SPLINE
  5
CF
330
1F
100
AcDbEntity
  8
SLD-0
  6
Continuous
370
    15
100
AcDbSpline
210
0.0
220
0.0
230
1.0
 70
     8
 71
     3
 72
     9
 73
     5
 74
     0
 42
0.00000001
 43
0.00000001
 12
1.0
 22
0.0
 32
0.0
 13
1.0
 23
0.0
 33
0.0
 40
0.0
 40
0.0
 40
0.0
 40
0.0
 40
0.4238890972358402
 40
1.0
 40
1.0
 40
1.0
 40
1.0
 10
35.55844081919823
 20
18.54709649182695
 30
0.0
 10
35.56120982228121
 20
18.55173624128408
 30
0.0
 10
35.56774219855849
 20
18.56268190959069
 30
0.0
 10
35.57427510236052
 20
18.5728757628452
 30
0.0
 10
35.57803877946759
 20
18.57874855284631
 30
0.0
  0
SPLINE
  5
D0
330
1F
100
AcDbEntity
  8
SLD-0
  6
Continuous
370
    15
100
AcDbSpline
210
0.0
220
0.0
230
1.0
 70
     8
 71
     3
 72
    11
 73
     7
 74
     0
 42
0.00000001
 43
0.00000001
 12
1.0
 22
0.0
 32
0.0
 13
1.0
 23
0.0
 33
0.0
 40
0.0
 40
0.0
 40
0.0
 40
0.0
 40
0.249991463317348
 40
0.4999943069188128
 40
0.7499973871240574
 40
0.9999999999999999
 40
0.9999999999999999
 40
0.9999999999999999
 40
0.9999999999999999
 10
35.48771779619663
 20
18.53205218562006
 30
0.0
 10
35.49524423772717
 20
18.53242495815049
 30
0.0
 10
35.51029746341214
 20
18.53317052018097
 30
0.0
 10
35.53287772780574
 20
18.53867411262042
 30
0.0
 10
35.55545821082006
 20
18.54609087513009
 30
0.0
 10
35.57051192794172
 20
18.5509582526274
 30
0.0
 10
35.57803877946759
 20
18.55339193910141
 30
0.0
  0
LINE
  5
D1
330
1F
100
AcDbEntity
  8
SLD-0
  6
Continuous
370
    15
100
AcDbLine
 10
32.89824211
 20
17.5724526043
 30
0.0
 11
33.7684933902
 21
17.5724526043
 31
0.0
  0
LINE
  5
D2
330
1F
100
AcDbEntity
  8
SLD-0
  6
Continuous
370
    15
100
AcDbLine
 10
32.89824211
 20
18.4174522828
 30
0.0
 11
32.89824211
 21
17.5724526043
 31
0.0
  0
LINE
  5
D3
330
1F
100
AcDbEntity
  8
SLD-0
  6
Continuous
370
    15
100
AcDbLine
 10
33.7684933902
 20
18.4174522828
 30
0.0
 11
32.89824211
 21
18.4174522828
 31
0.0
  0
LINE
  5
D4
330
1F
100
AcDbEntity
  8
SLD-0
  6
Continuous
370
    15
100
AcDbLine
 10
62.1387437879
 20
18.4174522828
 30
0.0
 11
61.2684925078
 21
18.4174522828
 31
0.0
  0
LINE
  5
D5
330
1F
100
AcDbEntity
  8
SLD-0
  6
Continuous
370
    15
100
AcDbLine
 10
62.1387437879
 20
17.5724526043
 30
0.0
 11
62.1387437879
 21
18.4174522828
 31
0.0
  0
LINE
  5
D6
330
1F
100
AcDbEntity
  8
SLD-0
  6
Continuous
370
    15
100
AcDbLine
 10
61.2684925078
 20
17.5724526043
 30
0.0
 11
62.1387437879
 21
17.5724526043
 31
0.0
  0
LINE
  5
D7
330
1F
100
AcDbEntity
  8
SLD-0
  6
Continuous
370
    15
100
AcDbLine
 10
32.8982245102
 20
7.3459062356
 30
0.0
 11
32.8982245102
 21
6.7938798127
 31
0.0
  0
LINE
  5
D8
330
1F
100
AcDbEntity
  8
SLD-0
  6
Continuous
370
    15
100
AcDbLine
 10
32.8982245102
 20
6.1515045401
 30
0.0
 11
32.8982245102
 21
6.1283021415
 31
0.0
  0
LINE
  5
D9
330
1F
100
AcDbEntity
  8
SLD-0
  6
Continuous
370
    15
100
AcDbLine
 10
33.6482245928
 20
7.3459062356
 30
0.0
 11
32.8982245102
 21
7.3459062356
 31
0.0
  0
LINE
  5
DA
330
1F
100
AcDbEntity
  8
SLD-0
  6
Continuous
370
    15
100
AcDbLine
 10
33.6482245928
 20
8.8459062541
 30
0.0
 11
33.6482245928
 21
7.3459062356
 31
0.0
  0
LINE
  5
DB
330
1F
100
AcDbEntity
  8
SLD-0
  6
Continuous
370
    15
100
AcDbLine
 10
32.8982245102
 20
8.8459062541
 30
0.0
 11
33.6482245928
 21
8.8459062541
 31
0.0
  0
LINE
  5
DC
330
1F
100
AcDbEntity
  8
SLD-0
  6
Continuous
370
    15
100
AcDbLine
 10
32.8982245102
 20
18.4324525895
 30
0.0
 11
32.8982245102
 21
8.8459062541
 31
0.0
  0
LINE
  5
DD
330
1F
100
AcDbEntity
  8
SLD-0
  6
Continuous
370
    15
100
AcDbLine
 10
33.7684933902
 20
18.4324525895
 30
0.0
 11
32.8982245102
 21
18.4324525895
 31
0.0
  0
LINE
  5
DE
330
1F
100
AcDbEntity
  8
SLD-0
  6
Continuous
370
    15
100
AcDbLine
 10
33.6482245928
 20
6.1515045401
 30
0.0
 11
33.6482245928
 21
6.1283021415
 31
0.0
  0
LINE
  5
DF
330
1F
100
AcDbEntity
  8
SLD-0
  6
Continuous
370
    15
100
AcDbLine
 10
33.6482245928
 20
6.1283021415
 30
0.0
 11
32.8982245102
 21
6.1283021415
 31
0.0
  0
LINE
  5
E0
330
1F
100
AcDbEntity
  8
SLD-0
  6
Continuous
370
    15
100
AcDbLine
 10
61.2684925078
 20
18.4324525895
 30
0.0
 11
62.1387613877
 21
18.4324525895
 31
0.0
  0
LINE
  5
E1
330
1F
100
AcDbEntity
  8
SLD-0
  6
Continuous
370
    15
100
AcDbLine
 10
62.1387613877
 20
18.4324525895
 30
0.0
 11
62.1387613877
 21
8.8459062541
 31
0.0
  0
LINE
  5
E2
330
1F
100
AcDbEntity
  8
SLD-0
  6
Continuous
370
    15
100
AcDbLine
 10
61.3887613051
 20
8.8459062541
 30
0.0
 11
62.1387613877
 21
8.8459062541
 31
0.0
  0
LINE
  5
E3
330
1F
100
AcDbEntity
  8
SLD-0
  6
Continuous
370
    15
100
AcDbLine
 10
61.3887613051
 20
7.3459062356
 30
0.0
 11
61.3887613051
 21
8.8459062541
 31
0.0
  0
LINE
  5
E4
330
1F
100
AcDbEntity
  8
SLD-0
  6
Continuous
370
    15
100
AcDbLine
 10
62.1387613877
 20
7.3459062356
 30
0.0
 11
61.3887613051
 21
7.3459062356
 31
0.0
  0
LINE
  5
E5
330
1F
100
AcDbEntity
  8
SLD-0
  6
Continuous
370
    15
100
AcDbLine
 10
62.1387613877
 20
7.3459062356
 30
0.0
 11
62.1387613877
 21
6.7938798127
 31
0.0
  0
LINE
  5
E6
330
1F
100
AcDbEntity
  8
SLD-0
  6
Continuous
370
    15
100
AcDbLine
 10
62.1387613877
 20
6.1515045401
 30
0.0
 11
62.1387613877
 21
6.1283021415
 31
0.0
  0
LINE
  5
E7
330
1F
100
AcDbEntity
  8
SLD-0
  6
Continuous
370
    15
100
AcDbLine
 10
62.1387613877
 20
6.1283021415
 30
0.0
 11
61.3887613051
 21
6.1283021415
 31
0.0
  0
LINE
  5
E8
330
1F
100
AcDbEntity
  8
SLD-0
  6
Continuous
370
    15
100
AcDbLine
 10
61.3887613051
 20
6.1283021415
 30
0.0
 11
61.3887613051
 21
6.1515045401
 31
0.0
  0
LINE
  5
E9
330
1F
100
AcDbEntity
  8
SLD-0
  6
Continuous
370
    15
100
AcDbLine
 10
32.8977317159
 20
6.1515045401
 30
0.0
 11
33.7684933902
 21
6.1515045401
 31
0.0
  0
LINE
  5
EA
330
1F
100
AcDbEntity
  8
SLD-0
  6
Continuous
370
    15
100
AcDbLine
 10
32.8977317159
 20
6.7938798127
 30
0.0
 11
32.8977317159
 21
6.1515045401
 31
0.0
  0
LINE
  5
EB
330
1F
100
AcDbEntity
  8
SLD-0
  6
Continuous
370
    15
100
AcDbLine
 10
32.8977317159
 20
6.7938798127
 30
0.0
 11
33.7684933902
 21
6.7938798127
 31
0.0
  0
LINE
  5
EC
330
1F
100
AcDbEntity
  8
SLD-0
  6
Continuous
370
    15
100
AcDbLine
 10
61.2684925078
 20
6.7938798127
 30
0.0
 11
62.139254182
 21
6.7938798127
 31
0.0
  0
LINE
  5
ED
330
1F
100
AcDbEntity
  8
SLD-0
  6
Continuous
370
    15
100
AcDbLine
 10
62.139254182
 20
6.1515045401
 30
0.0
 11
62.139254182
 21
6.7938798127
 31
0.0
  0
LINE
  5
EE
330
1F
100
AcDbEntity
  8
SLD-0
  6
Continuous
370
    15
100
AcDbLine
 10
61.2684925078
 20
6.1515045401
 30
0.0
 11
62.139254182
 21
6.1515045401
 31
0.0
  0
LINE
  5
EF
330
1F
100
AcDbEntity
  8
SLD-0
  6
Continuous
370
    15
100
AcDbLine
 10
34.0034929154
 20
20.8519060265
 30
0.0
 11
34.0034929154
 21
18.5320521856
 31
0.0
  0
LINE
  5
F0
330
1F
100
AcDbEntity
  8
SLD-0
  6
Continuous
370
    15
100
AcDbLine
 10
34.0034929154
 20
5.8350525691
 30
0.0
 11
34.0034929154
 21
2.8519063907
 31
0.0
  0
LINE
  5
F1
330
1F
100
AcDbEntity
  8
SLD-0
  6
Continuous
370
    15
100
AcDbLine
 10
60.9778001859
 20
20.8519060265
 30
0.0
 11
60.9778001859
 21
18.5320521856
 31
0.0
  0
LINE
  5
F2
330
1F
100
AcDbEntity
  8
SLD-0
  6
Continuous
370
    15
100
AcDbLine
 10
60.9778001859
 20
5.8350525691
 30
0.0
 11
60.9778001859
 21
2.8519063907
 31
0.0
  0
LINE
  5
F3
330
1F
100
AcDbEntity
  8
SLD-0
  6
Continuous
370
    15
100
AcDbLine
 10
34.4666151387
 20
5.8285564842
 30
0.0
 11
34.4666151387
 21
5.8350525691
 31
0.0
  0
LINE
  5
F4
330
1F
100
AcDbEntity
  8
SLD-0
  6
Continuous
370
    15
100
AcDbLine
 10
60.5703707592
 20
5.8285564842
 30
0.0
 11
60.5703707592
 21
5.8350525691
 31
0.0
  0
DIMENSION
  5
F5
330
1F
100
AcDbEntity
  8
DIM
100
AcDbDimension
  2
_D
 10
66.5899598484
 20
5.8350523938
 30
0.0
 11
66.5899598484
 21
12.1835523938
 31
0.0
 70
   160
  1
<>
 71
     2
 42
-1.0
  3
SLDDIMSTYLE0
100
AcDbAlignedDimension
 13
61.193492949
 23
18.5320523938
 33
0.0
 14
61.193492949
 24
5.8350523938
 34
0.0
 50
90.0
100
AcDbRotatedDimension
  0
DIMENSION
  5
105
330
1F
100
AcDbEntity
  8
DIM
100
AcDbDimension
  2
_D_1
 10
61.268492949
 20
12.5186335839
 30
0.0
 11
47.518492949
 21
12.5186335839
 31
0.0
 70
   160
  1
<>
 71
     2
 42
-1.0
  3
SLDDIMSTYLE0
100
AcDbAlignedDimension
 13
33.768492949
 23
18.4570523938
 33
0.0
 14
61.268492949
 24
18.4570523938
 34
0.0
 50
0.0
100
AcDbRotatedDimension
  0
DIMENSION
  5
112
330
1F
100
AcDbEntity
  8
DIM
100
AcDbDimension
  2
_D_2
 10
66.5899598484
 20
22.5275548706
 30
0.0
 11
66.5899598484
 21
20.5298036322
 31
0.0
 70
   160
  1
<>
 71
     2
 42
-1.0
  3
SLDDIMSTYLE1
100
AcDbAlignedDimension
 13
61.193492949
 23
18.5320523938
 33
0.0
 14
61.761492949
 24
22.5275548706
 34
0.0
 50
90.0
100
AcDbRotatedDimension
  0
DIMENSION
  5
11E
330
1F
100
AcDbEntity
  8
DIM
100
AcDbDimension
  2
_D_3
 10
66.5899598484
 20
5.8350523938
 30
0.0
 11
66.5899598484
 21
4.1418455736
 31
0.0
 70
   160
  1
<>
 71
     2
 42
-1.0
  3
SLDDIMSTYLE1
100
AcDbAlignedDimension
 13
60.974742949
 23
2.8033061938
 33
0.0
 14
61.193492949
 24
5.8350523938
 34
0.0
 50
90.0
100
AcDbRotatedDimension
  0
DIMENSION
  5
12D
330
1F
100
AcDbEntity
  8
DIM
100
AcDbDimension
  2
_D_4
 10
29.893492949
 20
22.6930799007
 30
0.0
 11
29.893492949
 21
12.7481930472
 31
0.0
 70
   160
  1
<>
 71
     2
 42
-1.0
  3
SLDDIMSTYLE0
100
AcDbAlignedDimension
 13
34.062242949
 23
2.8033061938
 33
0.0
 14
43.1577494289
 24
22.6930799007
 34
0.0
 50
90.0
100
AcDbRotatedDimension
  0
CIRCLE
  5
13C
330
1F
100
AcDbEntity
  8
SLD-0
  6
Continuous
370
    15
100
AcDbCircle
 10
44.5228230829
 20
47.6428434983
 30
0.0
 40
1.500428725075388
  0
CIRCLE
  5
13D
330
1F
100
AcDbEntity
  8
SLD-0
  6
Continuous
370
    15
100
AcDbCircle
 10
44.5228230829
 20
47.6428434983
 30
0.0
 40
1.365073654039456
  0
CIRCLE
  5
13E
330
1F
100
AcDbEntity
  8
SLD-0
  6
Continuous
370
    15
100
AcDbCircle
 10
44.5228230829
 20
47.6428434983
 30
0.0
 40
2.124999999999993
  0
CIRCLE
  5
13F
330
1F
100
AcDbEntity
  8
SLD-0
  6
Continuous
370
    15
100
AcDbCircle
 10
50.5228230829
 20
45.4298434983
 30
0.0
 40
1.36507365403947
  0
CIRCLE
  5
140
330
1F
100
AcDbEntity
  8
SLD-0
  6
Continuous
370
    15
100
AcDbCircle
 10
50.5228230829
 20
45.4298434983
 30
0.0
 40
1.500428725075395
  0
CIRCLE
  5
141
330
1F
100
AcDbEntity
  8
SLD-0
  6
Continuous
370
    15
100
AcDbCircle
 10
50.5228230829
 20
45.4298434983
 30
0.0
 40
2.125000000000007
  0
LINE
  5
142
330
1F
100
AcDbEntity
  8
SLD-0
  6
Continuous
370
    15
100
AcDbLine
 10
43.5184929973
 20
37.831213406
 30
0.0
 11
43.5184929973
 21
37.7812134103
 31
0.0
  0
LINE
  5
143
330
1F
100
AcDbEntity
  8
SLD-0
  6
Continuous
370
    15
100
AcDbLine
 10
43.5184929973
 20
37.7812134103
 30
0.0
 11
42.7997428204
 21
37.7812134103
 31
0.0
  0
LINE
  5
144
330
1F
100
AcDbEntity
  8
SLD-0
  6
Continuous
370
    15
100
AcDbLine
 10
42.7997428204
 20
37.831213406
 30
0.0
 11
42.7997428204
 21
37.7812134103
 31
0.0
  0
LINE
  5
145
330
1F
100
AcDbEntity
  8
SLD-0
  6
Continuous
370
    15
100
AcDbLine
 10
43.5184929973
 20
37.831213406
 30
0.0
 11
42.7997428204
 21
37.831213406
 31
0.0
  0
LINE
  5
146
330
1F
100
AcDbEntity
  8
SLD-0
  6
Continuous
370
    15
100
AcDbLine
 10
52.2372430776
 20
37.831213406
 30
0.0
 11
51.5184929006
 21
37.831213406
 31
0.0
  0
LINE
  5
147
330
1F
100
AcDbEntity
  8
SLD-0
  6
Continuous
370
    15
100
AcDbLine
 10
52.2372430776
 20
37.7812134103
 30
0.0
 11
52.2372430776
 21
37.831213406
 31
0.0
  0
LINE
  5
148
330
1F
100
AcDbEntity
  8
SLD-0
  6
Continuous
370
    15
100
AcDbLine
 10
52.2372430776
 20
37.7812134103
 30
0.0
 11
51.5184929006
 21
37.7812134103
 31
0.0
  0
LINE
  5
149
330
1F
100
AcDbEntity
  8
SLD-0
  6
Continuous
370
    15
100
AcDbLine
 10
51.5184929006
 20
37.7812134103
 30
0.0
 11
51.5184929006
 21
37.831213406
 31
0.0
  0
LINE
  5
14A
330
1F
100
AcDbEntity
  8
SLD-0
  6
Continuous
370
    15
100
AcDbLine
 10
51.5184929006
 20
37.7812134103
 30
0.0
 11
43.5184929973
 21
37.7812134103
 31
0.0
  0
LINE
  5
14B
330
1F
100
AcDbEntity
  8
SLD-0
  6
Continuous
370
    15
100
AcDbLine
 10
51.5184929006
 20
37.831213406
 30
0.0
 11
43.5184929973
 21
37.831213406
 31
0.0
  0
SPLINE
  5
14C
330
1F
100
AcDbEntity
  8
SLD-0
  6
Continuous
370
    15
100
AcDbSpline
210
0.0
220
0.0
230
1.0
 70
     8
 71
     3
 72
    11
 73
     7
 74
     0
 42
0.00000001
 43
0.00000001
 12
1.0
 22
0.0
 32
0.0
 13
1.0
 23
0.0
 33
0.0
 40
0.0
 40
0.0
 40
0.0
 40
0.0
 40
0.2500004422719904
 40
0.5000012221706419
 40
0.7500042204135403
 40
1.0
 40
1.0
 40
1.0
 40
1.0
 10
42.7244781698566
 20
37.86246331169452
 30
0.0
 10
42.73075024531774
 20
37.85836843995423
 30
0.0
 10
42.7432944047105
 20
37.85017869094349
 30
0.0
 10
42.76211076118827
 20
37.83984911740775
 30
0.0
 10
42.78092661822288
 20
37.83262268434959
 30
0.0
 10
42.79347081337121
 20
37.83168316094807
 30
0.0
 10
42.79974282039293
 20
37.83121340602943
 30
0.0
  0
LINE
  5
14D
330
1F
100
AcDbEntity
  8
SLD-0
  6
Continuous
370
    15
100
AcDbLine
 10
52.3125077281
 20
37.8624633117
 30
0.0
 11
42.7244781699
 21
37.8624633117
 31
0.0
  0
SPLINE
  5
14E
330
1F
100
AcDbEntity
  8
SLD-0
  6
Continuous
370
    15
100
AcDbSpline
210
0.0
220
0.0
230
1.0
 70
     8
 71
     3
 72
    11
 73
     7
 74
     0
 42
0.00000001
 43
0.00000001
 12
1.0
 22
0.0
 32
0.0
 13
1.0
 23
0.0
 33
0.0
 40
0.0
 40
0.0
 40
0.0
 40
0.0
 40
0.2499957795864597
 40
0.499998777829358
 40
0.7499995577280096
 40
1.0
 40
1.0
 40
1.0
 40
1.0
 10
52.23724307758462
 20
37.83121340602943
 30
0.0
 10
52.24351508460633
 20
37.83168316094807
 30
0.0
 10
52.25605927975467
 20
37.83262268434959
 30
0.0
 10
52.27487513678927
 20
37.83984911740775
 30
0.0
 10
52.29369149326704
 20
37.85017869094349
 30
0.0
 10
52.30623565265981
 20
37.85836843995423
 30
0.0
 10
52.31250772812096
 20
37.86246331169452
 30
0.0
  0
SPLINE
  5
14F
330
1F
100
AcDbEntity
  8
SLD-0
  6
Continuous
370
    15
100
AcDbSpline
210
0.0
220
0.0
230
1.0
 70
     8
 71
     3
 72
    15
 73
    11
 74
     0
 42
0.00000001
 43
0.00000001
 12
1.0
 22
0.0
 32
0.0
 13
1.0
 23
0.0
 33
0.0
 40
0.0
 40
0.0
 40
0.0
 40
0.0
 40
0.12499882314546
 40
0.249998851959515
 40
0.3749992775637511
 40
0.5000010189793139
 40
0.6250001656173334
 40
0.7500003876859918
 40
0.8750001688016673
 40
0.9999999999999999
 40
0.9999999999999999
 40
0.9999999999999999
 40
0.9999999999999999
 10
52.23724307758462
 20
37.78121341030031
 30
0.0
 10
52.24037908595708
 20
37.78151576423245
 30
0.0
 10
52.24665113295018
 20
37.78212047501308
 30
0.0
 10
52.25605890572032
 20
37.78695183293144
 30
0.0
 10
52.26546749844002
 20
37.7944610339682
 30
0.0
 10
52.2748749856753
 20
37.80464313865154
 30
0.0
 10
52.28428370028933
 20
37.81703178839857
 30
0.0
 10
52.29369145088638
 20
37.83116999059783
 30
0.0
 10
52.30309939989043
 20
37.8465101957836
 30
0.0
 10
52.30937161829194
 20
37.85714560568068
 30
0.0
 10
52.31250772812096
 20
37.86246331169452
 30
0.0
  0
SPLINE
  5
150
330
1F
100
AcDbEntity
  8
SLD-0
  6
Continuous
370
    15
100
AcDbSpline
210
0.0
220
0.0
230
1.0
 70
     8
 71
     3
 72
    15
 73
    11
 74
     0
 42
0.00000001
 43
0.00000001
 12
1.0
 22
0.0
 32
0.0
 13
1.0
 23
0.0
 33
0.0
 40
0.0
 40
0.0
 40
0.0
 40
0.0
 40
0.1249998311983325
 40
0.2499996123140081
 40
0.3749998343826665
 40
0.4999989810206861
 40
0.6250007224362488
 40
0.750001148040485
 40
0.87500117685454
 40
1.0
 40
1.0
 40
1.0
 40
1.0
 10
42.72447816985658
 20
37.86246331169452
 30
0.0
 10
42.7276142796856
 20
37.85714560568068
 30
0.0
 10
42.7338864980871
 20
37.8465101957836
 30
0.0
 10
42.74329444709117
 20
37.83116999059783
 30
0.0
 10
42.75270219768822
 20
37.81703178839857
 30
0.0
 10
42.76211091230223
 20
37.80464313865155
 30
0.0
 10
42.77151839953753
 20
37.7944610339682
 30
0.0
 10
42.78092699225722
 20
37.78695183293144
 30
0.0
 10
42.79033476502736
 20
37.78212047501308
 30
0.0
 10
42.79660681202046
 20
37.78151576423245
 30
0.0
 10
42.79974282039293
 20
37.78121341030031
 30
0.0
  0
LINE
  5
151
330
1F
100
AcDbEntity
  8
SLD-0
  6
Continuous
370
    15
100
AcDbLine
 10
53.4872428241
 20
39.0371987011
 30
0.0
 11
53.4872428241
 21
39.1527134999
 31
0.0
  0
LINE
  5
152
330
1F
100
AcDbEntity
  8
SLD-0
  6
Continuous
370
    15
100
AcDbLine
 10
42.7244781699
 20
37.8624633117
 30
0.0
 11
41.5497430738
 21
39.0371987011
 31
0.0
  0
LINE
  5
153
330
1F
100
AcDbEntity
  8
SLD-0
  6
Continuous
370
    15
100
AcDbLine
 10
41.5497430738
 20
39.0371987011
 30
0.0
 11
41.5497430738
 21
39.1527134999
 31
0.0
  0
LINE
  5
154
330
1F
100
AcDbEntity
  8
SLD-0
  6
Continuous
370
    15
100
AcDbLine
 10
53.4872428241
 20
39.0371987011
 30
0.0
 11
52.3125077281
 21
37.8624633117
 31
0.0
  0
LINE
  5
155
330
1F
100
AcDbEntity
  8
SLD-0
  6
Continuous
370
    15
100
AcDbLine
 10
53.4872428241
 20
51.2308139194
 30
0.0
 11
41.5497430738
 21
51.2308139194
 31
0.0
  0
LINE
  5
156
330
1F
100
AcDbEntity
  8
SLD-0
  6
Continuous
370
    15
100
AcDbLine
 10
53.4872428241
 20
51.1531600964
 30
0.0
 11
53.4872428241
 21
51.2308139194
 31
0.0
  0
LINE
  5
157
330
1F
100
AcDbEntity
  8
SLD-0
  6
Continuous
370
    15
100
AcDbLine
 10
41.5497430738
 20
51.2308139194
 30
0.0
 11
41.5497430738
 21
51.1531600964
 31
0.0
  0
LINE
  5
158
330
1F
100
AcDbEntity
  8
SLD-0
  6
Continuous
370
    15
100
AcDbLine
 10
54.1538932029
 20
39.1527134999
 30
0.0
 11
54.1330931766
 21
39.1527134999
 31
0.0
  0
LINE
  5
159
330
1F
100
AcDbEntity
  8
SLD-0
  6
Continuous
370
    15
100
AcDbLine
 10
54.1330931766
 20
51.1527130616
 30
0.0
 11
54.1538932029
 21
51.1527130616
 31
0.0
  0
LINE
  5
15A
330
1F
100
AcDbEntity
  8
SLD-0
  6
Continuous
370
    15
100
AcDbLine
 10
54.1538932029
 20
51.1527130616
 30
0.0
 11
54.1538932029
 21
39.1527134999
 31
0.0
  0
LINE
  5
15B
330
1F
100
AcDbEntity
  8
SLD-0
  6
Continuous
370
    15
100
AcDbLine
 10
53.0860930049
 20
39.1527134999
 30
0.0
 11
53.5485481959
 21
39.1527134999
 31
0.0
  0
LINE
  5
15C
330
1F
100
AcDbEntity
  8
SLD-0
  6
Continuous
370
    15
100
AcDbLine
 10
53.0860930049
 20
51.1527130616
 30
0.0
 11
53.5485481959
 21
51.1527130616
 31
0.0
  0
LINE
  5
15D
330
1F
100
AcDbEntity
  8
SLD-0
  6
Continuous
370
    15
100
AcDbLine
 10
53.0860930049
 20
39.1527134999
 30
0.0
 11
53.0860930049
 21
51.1527130616
 31
0.0
  0
LINE
  5
15E
330
1F
100
AcDbEntity
  8
SLD-0
  6
Continuous
370
    15
100
AcDbLine
 10
53.5815965075
 20
39.1527134999
 30
0.0
 11
53.5815965075
 21
51.1527130616
 31
0.0
  0
LINE
  5
15F
330
1F
100
AcDbEntity
  8
SLD-0
  6
Continuous
370
    15
100
AcDbLine
 10
53.5485481959
 20
39.1527134999
 30
0.0
 11
53.5815965075
 21
39.1527134999
 31
0.0
  0
LINE
  5
160
330
1F
100
AcDbEntity
  8
SLD-0
  6
Continuous
370
    15
100
AcDbLine
 10
53.5485481959
 20
51.1527130616
 30
0.0
 11
53.5815965075
 21
51.1527130616
 31
0.0
  0
LINE
  5
161
330
1F
100
AcDbEntity
  8
SLD-0
  6
Continuous
370
    15
100
AcDbLine
 10
53.5815965075
 20
39.1527134999
 30
0.0
 11
53.7442855081
 21
39.1527134999
 31
0.0
  0
LINE
  5
162
330
1F
100
AcDbEntity
  8
SLD-0
  6
Continuous
370
    15
100
AcDbLine
 10
53.5815965075
 20
51.1527130616
 30
0.0
 11
53.7442855081
 21
51.1527130616
 31
0.0
  0
LINE
  5
163
330
1F
100
AcDbEntity
  8
SLD-0
  6
Continuous
370
    15
100
AcDbLine
 10
53.7587965405
 20
39.1527134999
 30
0.0
 11
53.7587965405
 21
51.1527130616
 31
0.0
  0
LINE
  5
164
330
1F
100
AcDbEntity
  8
SLD-0
  6
Continuous
370
    15
100
AcDbLine
 10
53.7442855081
 20
39.1527134999
 30
0.0
 11
53.7587965405
 21
39.1527134999
 31
0.0
  0
LINE
  5
165
330
1F
100
AcDbEntity
  8
SLD-0
  6
Continuous
370
    15
100
AcDbLine
 10
53.7442855081
 20
51.1527130616
 30
0.0
 11
53.7587965405
 21
51.1527130616
 31
0.0
  0
LINE
  5
166
330
1F
100
AcDbEntity
  8
SLD-0
  6
Continuous
370
    15
100
AcDbLine
 10
53.7587965405
 20
39.1527134999
 30
0.0
 11
54.1330931766
 21
39.1527134999
 31
0.0
  0
LINE
  5
167
330
1F
100
AcDbEntity
  8
SLD-0
  6
Continuous
370
    15
100
AcDbLine
 10
53.7587965405
 20
51.1527130616
 30
0.0
 11
54.1330931766
 21
51.1527130616
 31
0.0
  0
LINE
  5
168
330
1F
100
AcDbEntity
  8
SLD-0
  6
Continuous
370
    15
100
AcDbLine
 10
54.1330931766
 20
39.1527134999
 30
0.0
 11
54.1330931766
 21
51.1527130616
 31
0.0
  0
LINE
  5
169
330
1F
100
AcDbEntity
  8
SLD-0
  6
Continuous
370
    15
100
AcDbLine
 10
41.4553893905
 20
51.1527130616
 30
0.0
 11
41.4553893905
 21
39.1527134999
 31
0.0
  0
LINE
  5
16A
330
1F
100
AcDbEntity
  8
SLD-0
  6
Continuous
370
    15
100
AcDbLine
 10
41.488437702
 20
39.1527134999
 30
0.0
 11
41.4553893905
 21
39.1527134999
 31
0.0
  0
LINE
  5
16B
330
1F
100
AcDbEntity
  8
SLD-0
  6
Continuous
370
    15
100
AcDbLine
 10
41.488437702
 20
51.1527130616
 30
0.0
 11
41.4553893905
 21
51.1527130616
 31
0.0
  0
LINE
  5
16C
330
1F
100
AcDbEntity
  8
SLD-0
  6
Continuous
370
    15
100
AcDbLine
 10
41.950892893
 20
39.1527134999
 30
0.0
 11
41.488437702
 21
39.1527134999
 31
0.0
  0
LINE
  5
16D
330
1F
100
AcDbEntity
  8
SLD-0
  6
Continuous
370
    15
100
AcDbLine
 10
41.950892893
 20
51.1527130616
 30
0.0
 11
41.488437702
 21
51.1527130616
 31
0.0
  0
LINE
  5
16E
330
1F
100
AcDbEntity
  8
SLD-0
  6
Continuous
370
    15
100
AcDbLine
 10
41.950892893
 20
51.1527130616
 30
0.0
 11
41.950892893
 21
39.1527134999
 31
0.0
  0
LINE
  5
16F
330
1F
100
AcDbEntity
  8
SLD-0
  6
Continuous
370
    15
100
AcDbLine
 10
41.4553893905
 20
39.1527134999
 30
0.0
 11
41.2927003899
 21
39.1527134999
 31
0.0
  0
LINE
  5
170
330
1F
100
AcDbEntity
  8
SLD-0
  6
Continuous
370
    15
100
AcDbLine
 10
41.4553893905
 20
51.1527130616
 30
0.0
 11
41.2927003899
 21
51.1527130616
 31
0.0
  0
LINE
  5
171
330
1F
100
AcDbEntity
  8
SLD-0
  6
Continuous
370
    15
100
AcDbLine
 10
41.2781893575
 20
51.1527130616
 30
0.0
 11
41.2781893575
 21
39.1527134999
 31
0.0
  0
LINE
  5
172
330
1F
100
AcDbEntity
  8
SLD-0
  6
Continuous
370
    15
100
AcDbLine
 10
41.2927003899
 20
51.1527130616
 30
0.0
 11
41.2781893575
 21
51.1527130616
 31
0.0
  0
LINE
  5
173
330
1F
100
AcDbEntity
  8
SLD-0
  6
Continuous
370
    15
100
AcDbLine
 10
41.2927003899
 20
39.1527134999
 30
0.0
 11
41.2781893575
 21
39.1527134999
 31
0.0
  0
LINE
  5
174
330
1F
100
AcDbEntity
  8
SLD-0
  6
Continuous
370
    15
100
AcDbLine
 10
41.2781893575
 20
51.1527130616
 30
0.0
 11
40.9038927214
 21
51.1527130616
 31
0.0
  0
LINE
  5
175
330
1F
100
AcDbEntity
  8
SLD-0
  6
Continuous
370
    15
100
AcDbLine
 10
41.2781893575
 20
39.1527134999
 30
0.0
 11
40.9038927214
 21
39.1527134999
 31
0.0
  0
LINE
  5
176
330
1F
100
AcDbEntity
  8
SLD-0
  6
Continuous
370
    15
100
AcDbLine
 10
40.9038927214
 20
51.1527130616
 30
0.0
 11
40.9038927214
 21
39.1527134999
 31
0.0
  0
LINE
  5
177
330
1F
100
AcDbEntity
  8
SLD-0
  6
Continuous
370
    15
100
AcDbLine
 10
61.7614933193
 20
37.6811133933
 30
0.0
 11
61.7614933193
 21
37.7147133118
 31
0.0
  0
LINE
  5
178
330
1F
100
AcDbEntity
  8
SLD-0
  6
Continuous
370
    15
100
AcDbLine
 10
62.1364933606
 20
37.7147133118
 30
0.0
 11
62.1364933606
 21
37.6811133933
 31
0.0
  0
LINE
  5
179
330
1F
100
AcDbEntity
  8
SLD-0
  6
Continuous
370
    15
100
AcDbLine
 10
62.1364933606
 20
37.6811133933
 30
0.0
 11
61.7614933193
 21
37.6811133933
 31
0.0
  0
LINE
  5
17A
330
1F
100
AcDbEntity
  8
SLD-0
  6
Continuous
370
    15
100
AcDbLine
 10
61.7614933193
 20
37.7147133118
 30
0.0
 11
62.1364933606
 21
37.7147133118
 31
0.0
  0
LINE
  5
17B
330
1F
100
AcDbEntity
  8
SLD-0
  6
Continuous
370
    15
100
AcDbLine
 10
32.9004925374
 20
37.6811133933
 30
0.0
 11
32.9004925374
 21
37.7147133118
 31
0.0
  0
LINE
  5
17C
330
1F
100
AcDbEntity
  8
SLD-0
  6
Continuous
370
    15
100
AcDbLine
 10
33.2754925787
 20
37.7147133118
 30
0.0
 11
33.2754925787
 21
37.6811133933
 31
0.0
  0
LINE
  5
17D
330
1F
100
AcDbEntity
  8
SLD-0
  6
Continuous
370
    15
100
AcDbLine
 10
33.2754925787
 20
37.6811133933
 30
0.0
 11
32.9004925374
 21
37.6811133933
 31
0.0
  0
LINE
  5
17E
330
1F
100
AcDbEntity
  8
SLD-0
  6
Continuous
370
    15
100
AcDbLine
 10
32.9004925374
 20
37.7147133118
 30
0.0
 11
33.2754925787
 21
37.7147133118
 31
0.0
  0
LINE
  5
17F
330
1F
100
AcDbEntity
  8
SLD-0
  6
Continuous
370
    15
100
AcDbLine
 10
33.2754925787
 20
37.6811133933
 30
0.0
 11
61.7614933193
 21
37.6811133933
 31
0.0
  0
LINE
  5
180
330
1F
100
AcDbEntity
  8
SLD-0
  6
Continuous
370
    15
100
AcDbLine
 10
33.2754925787
 20
37.7147133118
 30
0.0
 11
61.7614933193
 21
37.7147133118
 31
0.0
  0
LINE
  5
181
330
1F
100
AcDbEntity
  8
SLD-0
  6
Continuous
370
    15
100
AcDbLine
 10
62.1364933606
 20
37.7147133118
 30
0.0
 11
62.1364933606
 21
37.7297133252
 31
0.0
  0
LINE
  5
182
330
1F
100
AcDbEntity
  8
SLD-0
  6
Continuous
370
    15
100
AcDbLine
 10
62.1364933606
 20
37.7297133252
 30
0.0
 11
32.9004925374
 21
37.7297133252
 31
0.0
  0
LINE
  5
183
330
1F
100
AcDbEntity
  8
SLD-0
  6
Continuous
370
    15
100
AcDbLine
 10
32.9004925374
 20
37.7297133252
 30
0.0
 11
32.9004925374
 21
37.7147133118
 31
0.0
  0
LINE
  5
184
330
1F
100
AcDbEntity
  8
SLD-0
  6
Continuous
370
    15
100
AcDbLine
 10
32.9004925374
 20
37.9497134238
 30
0.0
 11
32.9004925374
 21
37.7297133252
 31
0.0
  0
LINE
  5
185
330
1F
100
AcDbEntity
  8
SLD-0
  6
Continuous
370
    15
100
AcDbLine
 10
34.0254926613
 20
37.9497134238
 30
0.0
 11
32.9004925374
 21
37.9497134238
 31
0.0
  0
LINE
  5
186
330
1F
100
AcDbEntity
  8
SLD-0
  6
Continuous
370
    15
100
AcDbLine
 10
34.0254926613
 20
38.715213354
 30
0.0
 11
34.0254926613
 21
37.9497134238
 31
0.0
  0
LINE
  5
187
330
1F
100
AcDbEntity
  8
SLD-0
  6
Continuous
370
    15
100
AcDbLine
 10
38.9007789016
 20
50.7819698245
 30
0.0
 11
34.0254926613
 21
38.715213354
 31
0.0
  0
LINE
  5
188
330
1F
100
AcDbEntity
  8
SLD-0
  6
Continuous
370
    15
100
AcDbLine
 10
56.1362069964
 20
50.7819698245
 30
0.0
 11
61.0114932367
 21
38.715213354
 31
0.0
  0
LINE
  5
189
330
1F
100
AcDbEntity
  8
SLD-0
  6
Continuous
370
    15
100
AcDbLine
 10
61.0114932367
 20
37.9497134238
 30
0.0
 11
61.0114932367
 21
38.715213354
 31
0.0
  0
LINE
  5
18A
330
1F
100
AcDbEntity
  8
SLD-0
  6
Continuous
370
    15
100
AcDbLine
 10
62.1364933606
 20
37.9497134238
 30
0.0
 11
61.0114932367
 21
37.9497134238
 31
0.0
  0
LINE
  5
18B
330
1F
100
AcDbEntity
  8
SLD-0
  6
Continuous
370
    15
100
AcDbLine
 10
62.1364933606
 20
37.7297133252
 30
0.0
 11
62.1364933606
 21
37.9497134238
 31
0.0
  0
LINE
  5
18C
330
1F
100
AcDbEntity
  8
SLD-0
  6
Continuous
370
    15
100
AcDbLine
 10
39.0422865468
 20
51.1322128184
 30
0.0
 11
38.9007789016
 21
50.7819698245
 31
0.0
  0
LINE
  5
18D
330
1F
100
AcDbEntity
  8
SLD-0
  6
Continuous
370
    15
100
AcDbLine
 10
55.9946993511
 20
51.1322128184
 30
0.0
 11
56.1362069964
 21
50.7819698245
 31
0.0
  0
SPLINE
  5
18E
330
1F
100
AcDbEntity
  8
SLD-0
  6
Continuous
370
    15
100
AcDbSpline
210
0.0
220
0.0
230
1.0
 70
     8
 71
     3
 72
    15
 73
    11
 74
     0
 42
0.00000001
 43
0.00000001
 12
1.0
 22
0.0
 32
0.0
 13
1.0
 23
0.0
 33
0.0
 40
0.0
 40
0.0
 40
0.0
 40
0.0
 40
0.1250014589553586
 40
0.2500097498833897
 40
0.3750054512411055
 40
0.4999999135257646
 40
0.6250025942119369
 40
0.7500012489210687
 40
0.8749999503570802
 40
1.0
 40
1.0
 40
1.0
 40
1.0
 10
55.99469935112911
 20
51.13221281841587
 30
0.0
 10
55.99385845881247
 20
51.13539372557621
 30
0.0
 10
55.99217662822009
 20
51.14175571374984
 30
0.0
 10
55.98965418059982
 20
51.15093170541792
 30
0.0
 10
55.98713166103006
 20
51.15938923315183
 30
0.0
 10
55.98460789434058
 20
51.16679761585886
 30
0.0
 10
55.98208569618493
 20
51.17289033768807
 30
0.0
 10
55.97956291596603
 20
51.17737951940609
 30
0.0
 10
55.97704029168291
 20
51.18027206843245
 30
0.0
 10
55.97535854309723
 20
51.18063262015175
 30
0.0
 10
55.97451766426968
 20
51.18081289698361
 30
0.0
  0
LINE
  5
18F
330
1F
100
AcDbEntity
  8
SLD-0
  6
Continuous
370
    15
100
AcDbLine
 10
55.9745176643
 20
51.180812897
 30
0.0
 11
53.4872428241
 21
51.180812897
 31
0.0
  0
LINE
  5
190
330
1F
100
AcDbEntity
  8
SLD-0
  6
Continuous
370
    15
100
AcDbLine
 10
41.5497430738
 20
51.180812897
 30
0.0
 11
39.0624682337
 21
51.180812897
 31
0.0
  0
SPLINE
  5
191
330
1F
100
AcDbEntity
  8
SLD-0
  6
Continuous
370
    15
100
AcDbSpline
210
0.0
220
0.0
230
1.0
 70
     8
 71
     3
 72
    15
 73
    11
 74
     0
 42
0.00000001
 43
0.00000001
 12
1.0
 22
0.0
 32
0.0
 13
1.0
 23
0.0
 33
0.0
 40
0.0
 40
0.0
 40
0.0
 40
0.0
 40
0.1250000496429199
 40
0.2499987510789315
 40
0.3749974057880632
 40
0.5000000864742355
 40
0.6249945487588946
 40
0.7499902501166104
 40
0.8749985410446415
 40
1.0
 40
1.0
 40
1.0
 40
1.0
 10
39.06246823370786
 20
51.18081289698361
 30
0.0
 10
39.06162735488031
 20
51.18063262015175
 30
0.0
 10
39.05994560629463
 20
51.18027206843244
 30
0.0
 10
39.05742298201151
 20
51.17737951940609
 30
0.0
 10
39.05490020179262
 20
51.17289033768807
 30
0.0
 10
39.05237800363695
 20
51.16679761585886
 30
0.0
 10
39.04985423694748
 20
51.15938923315182
 30
0.0
 10
39.04733171737772
 20
51.15093170541792
 30
0.0
 10
39.04480926975745
 20
51.14175571374983
 30
0.0
 10
39.04312743916507
 20
51.1353937255762
 30
0.0
 10
39.04228654684843
 20
51.13221281841587
 30
0.0
  0
SPLINE
  5
192
330
1F
100
AcDbEntity
  8
SLD-0
  6
Continuous
370
    15
100
AcDbSpline
210
0.0
220
0.0
230
1.0
 70
     8
 71
     3
 72
    15
 73
    11
 74
     0
 42
0.00000001
 43
0.00000001
 12
1.0
 22
0.0
 32
0.0
 13
1.0
 23
0.0
 33
0.0
 40
0.0
 40
0.0
 40
0.0
 40
0.0
 40
0.1250027213314515
 40
0.2499993241998486
 40
0.3750051759696937
 40
0.5000023076385675
 40
0.6250007116419338
 40
0.7500048758804785
 40
0.8750021943557247
 40
1.0
 40
1.0
 40
1.0
 40
1.0
 10
33.98837469006947
 20
38.75307843656593
 30
0.0
 10
33.98821159334603
 20
38.75219161019395
 30
0.0
 10
33.98788540788217
 20
38.75041800085715
 30
0.0
 10
33.98957148084247
 20
38.74687744075946
 30
0.0
 10
33.99274326712939
 20
38.74273798328571
 30
0.0
 10
33.9973980881532
 20
38.73799889357966
 30
0.0
 10
34.00327454821424
 20
38.73276538408758
 30
0.0
 10
34.01012387449533
 20
38.72714038308336
 30
0.0
 10
34.01763801627515
 20
38.7212453459311
 30
0.0
 10
34.02287444287661
 20
38.71722402058023
 30
0.0
 10
34.02549266127949
 20
38.71521335398659
 30
0.0
  0
LINE
  5
193
330
1F
100
AcDbEntity
  8
SLD-0
  6
Continuous
370
    15
100
AcDbLine
 10
38.8370060383
 20
50.7538617758
 30
0.0
 11
33.9883746901
 21
38.7530784366
 31
0.0
  0
SPLINE
  5
194
330
1F
100
AcDbEntity
  8
SLD-0
  6
Continuous
370
    15
100
AcDbSpline
210
0.0
220
0.0
230
1.0
 70
     8
 71
     3
 72
    15
 73
    11
 74
     0
 42
0.00000001
 43
0.00000001
 12
1.0
 22
0.0
 32
0.0
 13
1.0
 23
0.0
 33
0.0
 40
0.0
 40
0.0
 40
0.0
 40
0.0
 40
0.1250015391540623
 40
0.250000903962171
 40
0.3749994513085378
 40
0.4999998958343349
 40
0.6249993841481637
 40
0.7500022014339577
 40
0.8749991524681944
 40
1.0
 40
1.0
 40
1.0
 40
1.0
 10
38.90077890155683
 20
50.78196982445282
 30
0.0
 10
38.89704997674033
 20
50.78123156433914
 30
0.0
 10
38.8895921919703
 20
50.77975505695349
 30
0.0
 10
38.87874554214504
 20
50.77740386732452
 30
0.0
 10
38.86856538009675
 20
50.77478157838767
 30
0.0
 10
38.85935659073576
 20
50.77176790220189
 30
0.0
 10
38.85136935924965
 20
50.76826088415741
 30
0.0
 10
38.84486646103584
 20
50.76415454163796
 30
0.0
 10
38.83984738521185
 20
50.7594477749438
 30
0.0
 10
38.83795316375606
 20
50.75572379487945
 30
0.0
 10
38.83700603826638
 20
50.75386177582606
 30
0.0
  0
SPLINE
  5
195
330
1F
100
AcDbEntity
  8
SLD-0
  6
Continuous
370
    15
100
AcDbSpline
210
0.0
220
0.0
230
1.0
 70
     8
 71
     3
 72
    15
 73
    11
 74
     0
 42
0.00000001
 43
0.00000001
 12
1.0
 22
0.0
 32
0.0
 13
1.0
 23
0.0
 33
0.0
 40
0.0
 40
0.0
 40
0.0
 40
0.0
 40
0.1249978056442753
 40
0.2499951241195215
 40
0.3749992883580661
 40
0.4999976923614325
 40
0.6249948240303063
 40
0.7500006758001514
 40
0.8749972786685485
 40
1.0
 40
1.0
 40
1.0
 40
1.0
 10
61.01149323669805
 20
38.71521335398659
 30
0.0
 10
61.01411145510093
 20
38.71722402058023
 30
0.0
 10
61.01934788170239
 20
38.7212453459311
 30
0.0
 10
61.02686202348222
 20
38.72714038308336
 30
0.0
 10
61.0337113497633
 20
38.73276538408758
 30
0.0
 10
61.03958780982433
 20
38.73799889357966
 30
0.0
 10
61.04424263084815
 20
38.74273798328571
 30
0.0
 10
61.04741441713506
 20
38.74687744075946
 30
0.0
 10
61.04910049009538
 20
38.75041800085715
 30
0.0
 10
61.04877430463152
 20
38.75219161019395
 30
0.0
 10
61.04861120790808
 20
38.75307843656593
 30
0.0
  0
LINE
  5
196
330
1F
100
AcDbEntity
  8
SLD-0
  6
Continuous
370
    15
100
AcDbLine
 10
56.1999798597
 20
50.7538617758
 30
0.0
 11
61.0486112079
 21
38.7530784366
 31
0.0
  0
SPLINE
  5
197
330
1F
100
AcDbEntity
  8
SLD-0
  6
Continuous
370
    15
100
AcDbSpline
210
0.0
220
0.0
230
1.0
 70
     8
 71
     3
 72
    15
 73
    11
 74
     0
 42
0.00000001
 43
0.00000001
 12
1.0
 22
0.0
 32
0.0
 13
1.0
 23
0.0
 33
0.0
 40
0.0
 40
0.0
 40
0.0
 40
0.0
 40
0.1250008475318056
 40
0.2499977985660424
 40
0.3750006158518364
 40
0.500000104165665
 40
0.6250005486914622
 40
0.7499990960378289
 40
0.8749984608459377
 40
0.9999999999999999
 40
0.9999999999999999
 40
0.9999999999999999
 40
0.9999999999999999
 10
56.19997985971116
 20
50.75386177582606
 30
0.0
 10
56.19903273422148
 20
50.75572379487945
 30
0.0
 10
56.1971385127657
 20
50.75944777494379
 30
0.0
 10
56.1921194369417
 20
50.76415454163798
 30
0.0
 10
56.1856165387279
 20
50.76826088415741
 30
0.0
 10
56.17762930724179
 20
50.77176790220189
 30
0.0
 10
56.1684205178808
 20
50.77478157838768
 30
0.0
 10
56.1582403558325
 20
50.77740386732452
 30
0.0
 10
56.14739370600724
 20
50.77975505695349
 30
0.0
 10
56.13993592123722
 20
50.78123156433914
 30
0.0
 10
56.13620699642073
 20
50.78196982445282
 30
0.0
  0
LINE
  5
198
330
1F
100
AcDbEntity
  8
SLD-0
  6
Continuous
370
    15
100
AcDbLine
 10
55.7571766017
 20
51.1867592816
 30
0.0
 11
55.5612239853
 21
51.1867592816
 31
0.0
  0
LINE
  5
199
330
1F
100
AcDbEntity
  8
SLD-0
  6
Continuous
370
    15
100
AcDbLine
 10
55.7571766017
 20
51.180812897
 30
0.0
 11
55.7571766017
 21
51.1867592816
 31
0.0
  0
LINE
  5
19A
330
1F
100
AcDbEntity
  8
SLD-0
  6
Continuous
370
    15
100
AcDbLine
 10
55.5612239853
 20
51.180812897
 30
0.0
 11
55.5612239853
 21
51.1867592816
 31
0.0
  0
LINE
  5
19B
330
1F
100
AcDbEntity
  8
SLD-0
  6
Continuous
370
    15
100
AcDbLine
 10
60.9731866926
 20
38.93976124
 30
0.0
 11
60.9784912713
 21
38.9419046019
 31
0.0
  0
LINE
  5
19C
330
1F
100
AcDbEntity
  8
SLD-0
  6
Continuous
370
    15
100
AcDbLine
 10
61.0476256193
 20
38.7477984976
 30
0.0
 11
61.0556112337
 21
38.7510248336
 31
0.0
  0
LINE
  5
19D
330
1F
100
AcDbEntity
  8
SLD-0
  6
Continuous
370
    15
100
AcDbLine
 10
60.9784912713
 20
38.9419046019
 30
0.0
 11
61.0556112337
 21
38.7510248336
 31
0.0
  0
LINE
  5
19E
330
1F
100
AcDbEntity
  8
SLD-0
  6
Continuous
370
    15
100
AcDbLine
 10
39.4757619126
 20
51.180812897
 30
0.0
 11
39.4757619126
 21
51.1867592816
 31
0.0
  0
LINE
  5
19F
330
1F
100
AcDbEntity
  8
SLD-0
  6
Continuous
370
    15
100
AcDbLine
 10
39.2798092963
 20
51.180812897
 30
0.0
 11
39.2798092963
 21
51.1867592816
 31
0.0
  0
LINE
  5
1A0
330
1F
100
AcDbEntity
  8
SLD-0
  6
Continuous
370
    15
100
AcDbLine
 10
39.4757619126
 20
51.1867592816
 30
0.0
 11
39.2798092963
 21
51.1867592816
 31
0.0
  0
LINE
  5
1A1
330
1F
100
AcDbEntity
  8
SLD-0
  6
Continuous
370
    15
100
AcDbLine
 10
33.9813746643
 20
38.7510248336
 30
0.0
 11
33.9893602787
 21
38.7477984976
 31
0.0
  0
LINE
  5
1A2
330
1F
100
AcDbEntity
  8
SLD-0
  6
Continuous
370
    15
100
AcDbLine
 10
34.0584946267
 20
38.9419046019
 30
0.0
 11
34.0637992054
 21
38.93976124
 31
0.0
  0
LINE
  5
1A3
330
1F
100
AcDbEntity
  8
SLD-0
  6
Continuous
370
    15
100
AcDbLine
 10
34.0584946267
 20
38.9419046019
 30
0.0
 11
33.9813746643
 21
38.7510248336
 31
0.0
  0
LINE
  5
1A4
330
1F
100
AcDbEntity
  8
SLD-0
  6
Continuous
370
    15
100
AcDbLine
 10
56.3790976839
 20
50.3105299372
 30
0.0
 11
56.3844022626
 21
50.3126735925
 31
0.0
  0
LINE
  5
1A5
330
1F
100
AcDbEntity
  8
SLD-0
  6
Continuous
370
    15
100
AcDbLine
 10
56.3844022626
 20
50.3126735925
 30
0.0
 11
60.9784912713
 21
38.9419046019
 31
0.0
  0
LINE
  5
1A6
330
1F
100
AcDbEntity
  8
SLD-0
  6
Continuous
370
    15
100
AcDbLine
 10
39.4757619126
 20
51.1867592816
 30
0.0
 11
41.5497430738
 21
51.1867592816
 31
0.0
  0
LINE
  5
1A7
330
1F
100
AcDbEntity
  8
SLD-0
  6
Continuous
370
    15
100
AcDbLine
 10
53.4872428241
 20
51.1867592816
 30
0.0
 11
55.5612239853
 21
51.1867592816
 31
0.0
  0
LINE
  5
1A8
330
1F
100
AcDbEntity
  8
SLD-0
  6
Continuous
370
    15
100
AcDbLine
 10
56.1970289605
 20
50.7588695046
 30
0.0
 11
56.20313081
 21
50.7613346495
 31
0.0
  0
LINE
  5
1A9
330
1F
100
AcDbEntity
  8
SLD-0
  6
Continuous
370
    15
100
AcDbLine
 10
56.20313081
 20
50.7613346495
 30
0.0
 11
56.3844022626
 21
50.3126735925
 31
0.0
  0
LINE
  5
1AA
330
1F
100
AcDbEntity
  8
SLD-0
  6
Continuous
370
    15
100
AcDbLine
 10
38.6578882141
 20
50.3105299372
 30
0.0
 11
38.6525836354
 21
50.3126735925
 31
0.0
  0
LINE
  5
1AB
330
1F
100
AcDbEntity
  8
SLD-0
  6
Continuous
370
    15
100
AcDbLine
 10
38.6525836354
 20
50.3126735925
 30
0.0
 11
34.0584946267
 21
38.9419046019
 31
0.0
  0
LINE
  5
1AC
330
1F
100
AcDbEntity
  8
SLD-0
  6
Continuous
370
    15
100
AcDbLine
 10
38.8399569375
 20
50.7588695046
 30
0.0
 11
38.833855088
 21
50.7613346495
 31
0.0
  0
LINE
  5
1AD
330
1F
100
AcDbEntity
  8
SLD-0
  6
Continuous
370
    15
100
AcDbLine
 10
38.6525836354
 20
50.3126735925
 30
0.0
 11
38.833855088
 21
50.7613346495
 31
0.0
  0
LINE
  5
1AE
330
1F
100
AcDbEntity
  8
SLD-0
  6
Continuous
370
    15
100
AcDbLine
 10
56.1968007498
 20
50.7592578735
 30
0.0
 11
56.2029641986
 21
50.7617488314
 31
0.0
  0
LINE
  5
1AF
330
1F
100
AcDbEntity
  8
SLD-0
  6
Continuous
370
    15
100
AcDbLine
 10
56.2029641986
 20
50.7617488314
 30
0.0
 11
56.20313081
 21
50.7613346495
 31
0.0
  0
LINE
  5
1B0
330
1F
100
AcDbEntity
  8
SLD-0
  6
Continuous
370
    15
100
AcDbLine
 10
38.8401851482
 20
50.7592578735
 30
0.0
 11
38.8340216994
 21
50.7617488314
 31
0.0
  0
LINE
  5
1B1
330
1F
100
AcDbEntity
  8
SLD-0
  6
Continuous
370
    15
100
AcDbLine
 10
38.833855088
 20
50.7613346495
 30
0.0
 11
38.8340216994
 21
50.7617488314
 31
0.0
  0
SPLINE
  5
1B2
330
1F
100
AcDbEntity
  8
SLD-0
  6
Continuous
370
    15
100
AcDbSpline
210
0.0
220
0.0
230
1.0
 70
     8
 71
     3
 72
    15
 73
    11
 74
     0
 42
0.00000001
 43
0.00000001
 12
1.0
 22
0.0
 32
0.0
 13
1.0
 23
0.0
 33
0.0
 40
0.0
 40
0.0
 40
0.0
 40
0.0
 40
0.1250026543349042
 40
0.2500060268257217
 40
0.3750055109423636
 40
0.5000025756176859
 40
0.6250009126268189
 40
0.7500050098680429
 40
0.8750022613496374
 40
1.0
 40
1.0
 40
1.0
 40
1.0
 10
61.05561123370985
 20
38.75102483362266
 30
0.0
 10
61.05577431156627
 20
38.75013797754756
 30
0.0
 10
61.05610046821606
 20
38.74836426030226
 30
0.0
 10
61.05441461636163
 20
38.74482411662197
 30
0.0
 10
61.05124252224747
 20
38.74068421031427
 30
0.0
 10
61.04658785068278
 20
38.73594531485936
 30
0.0
 10
61.04071137153181
 20
38.73071177465565
 30
0.0
 10
61.03386205035947
 20
38.72508678187033
 30
0.0
 10
61.0263479072353
 20
38.71919174255528
 30
0.0
 10
61.02111148081308
 20
38.71517041749278
 30
0.0
 10
61.01849326249982
 20
38.71315975104332
 30
0.0
  0
SPLINE
  5
1B3
330
1F
100
AcDbEntity
  8
SLD-0
  6
Continuous
370
    15
100
AcDbSpline
210
0.0
220
0.0
230
1.0
 70
     8
 71
     3
 72
    11
 73
     7
 74
     0
 42
0.00000001
 43
0.00000001
 12
1.0
 22
0.0
 32
0.0
 13
1.0
 23
0.0
 33
0.0
 40
0.0
 40
0.0
 40
0.0
 40
0.0
 40
0.1447070588556704
 40
0.429800364207752
 40
0.7149010639694263
 40
1.0
 40
1.0
 40
1.0
 40
1.0
 10
56.18921054411921
 20
50.7657345986702
 30
0.0
 10
56.19035373606037
 20
50.76573635535404
 30
0.0
 10
56.19374917728179
 20
50.76574157295271
 30
0.0
 10
56.19784798001173
 20
50.76512198742369
 30
0.0
 10
56.20152672330967
 20
50.76388871132912
 30
0.0
 10
56.20248504113741
 20
50.762462123226
 30
0.0
 10
56.20296419856916
 20
50.76174883138079
 30
0.0
  0
SPLINE
  5
1B4
330
1F
100
AcDbEntity
  8
SLD-0
  6
Continuous
370
    15
100
AcDbSpline
210
0.0
220
0.0
230
1.0
 70
     8
 71
     3
 72
     9
 73
     5
 74
     0
 42
0.00000001
 43
0.00000001
 12
1.0
 22
0.0
 32
0.0
 13
1.0
 23
0.0
 33
0.0
 40
0.0
 40
0.0
 40
0.0
 40
0.0
 40
0.3868449279275799
 40
1.0
 40
1.0
 40
1.0
 40
1.0
 10
61.02342355221136
 20
38.72447524699241
 30
0.0
 10
61.02292492089604
 20
38.72307181668218
 30
0.0
 10
61.02163595139091
 20
38.71944392806606
 30
0.0
 10
61.01968778847371
 20
38.71554834658631
 30
0.0
 10
61.01849326249982
 20
38.71315975104332
 30
0.0
  0
SPLINE
  5
1B5
330
1F
100
AcDbEntity
  8
SLD-0
  6
Continuous
370
    15
100
AcDbSpline
210
0.0
220
0.0
230
1.0
 70
     8
 71
     3
 72
    10
 73
     6
 74
     0
 42
0.00000001
 43
0.00000001
 12
1.0
 22
0.0
 32
0.0
 13
1.0
 23
0.0
 33
0.0
 40
0.0
 40
0.0
 40
0.0
 40
0.0
 40
0.2000872894254318
 40
0.6000524989497346
 40
1.0
 40
1.0
 40
1.0
 40
1.0
 10
39.27350152916656
 20
51.18081289698361
 30
0.0
 10
39.27392239181245
 20
51.18160027181927
 30
0.0
 10
39.27518453936367
 20
51.18396157242515
 30
0.0
 10
39.2772864978697
 20
51.18616982867487
 30
0.0
 10
39.27896837590018
 20
51.18656280020735
 30
0.0
 10
39.27980929629869
 20
51.1867592816238
 30
0.0
  0
SPLINE
  5
1B6
330
1F
100
AcDbEntity
  8
SLD-0
  6
Continuous
370
    15
100
AcDbSpline
210
0.0
220
0.0
230
1.0
 70
     8
 71
     3
 72
    10
 73
     6
 74
     0
 42
0.00000001
 43
0.00000001
 12
1.0
 22
0.0
 32
0.0
 13
1.0
 23
0.0
 33
0.0
 40
0.0
 40
0.0
 40
0.0
 40
0.0
 40
0.3999475010502653
 40
0.799912710574568
 40
1.0
 40
1.0
 40
1.0
 40
1.0
 10
55.75717660167885
 20
51.1867592816238
 30
0.0
 10
55.75801752207737
 20
51.18656280020736
 30
0.0
 10
55.75969940010784
 20
51.18616982867486
 30
0.0
 10
55.76180135861387
 20
51.18396157242515
 30
0.0
 10
55.7630635061651
 20
51.18160027181927
 30
0.0
 10
55.76348436881099
 20
51.18081289698361
 30
0.0
  0
SPLINE
  5
1B7
330
1F
100
AcDbEntity
  8
SLD-0
  6
Continuous
370
    15
100
AcDbSpline
210
0.0
220
0.0
230
1.0
 70
     8
 71
     3
 72
    11
 73
     7
 74
     0
 42
0.00000001
 43
0.00000001
 12
1.0
 22
0.0
 32
0.0
 13
1.0
 23
0.0
 33
0.0
 40
0.0
 40
0.0
 40
0.0
 40
0.0
 40
0.2850989360305736
 40
0.570199635792248
 40
0.8552929411443296
 40
1.0
 40
1.0
 40
1.0
 40
1.0
 10
38.83402169940839
 20
50.76174883138079
 30
0.0
 10
38.83450085684013
 20
50.762462123226
 30
0.0
 10
38.83545917466787
 20
50.76388871132912
 30
0.0
 10
38.83913791796581
 20
50.76512198742368
 30
0.0
 10
38.84323672069576
 20
50.76574157295271
 30
0.0
 10
38.84663216191717
 20
50.76573635535404
 30
0.0
 10
38.84777535385833
 20
50.7657345986702
 30
0.0
  0
SPLINE
  5
1B8
330
1F
100
AcDbEntity
  8
SLD-0
  6
Continuous
370
    15
100
AcDbSpline
210
0.0
220
0.0
230
1.0
 70
     8
 71
     3
 72
     9
 73
     5
 74
     0
 42
0.00000001
 43
0.00000001
 12
1.0
 22
0.0
 32
0.0
 13
1.0
 23
0.0
 33
0.0
 40
0.0
 40
0.0
 40
0.0
 40
0.0
 40
0.6131550720724201
 40
1.0
 40
1.0
 40
1.0
 40
1.0
 10
34.01849263547773
 20
38.71315975104332
 30
0.0
 10
34.01729810950383
 20
38.71554834658631
 30
0.0
 10
34.01534994658664
 20
38.71944392806606
 30
0.0
 10
34.0140609770815
 20
38.72307181668218
 30
0.0
 10
34.01356234576619
 20
38.72447524699241
 30
0.0
  0
SPLINE
  5
1B9
330
1F
100
AcDbEntity
  8
SLD-0
  6
Continuous
370
    15
100
AcDbSpline
210
0.0
220
0.0
230
1.0
 70
     8
 71
     3
 72
    15
 73
    11
 74
     0
 42
0.00000001
 43
0.00000001
 12
1.0
 22
0.0
 32
0.0
 13
1.0
 23
0.0
 33
0.0
 40
0.0
 40
0.0
 40
0.0
 40
0.0
 40
0.1249977386503626
 40
0.2499949901319571
 40
0.3749990873731812
 40
0.4999974243823141
 40
0.6249944890576364
 40
0.7499939731742783
 40
0.8749973456650958
 40
1.0
 40
1.0
 40
1.0
 40
1.0
 10
34.01849263547773
 20
38.71315975104332
 30
0.0
 10
34.01587441716446
 20
38.71517041749278
 30
0.0
 10
34.01063799074225
 20
38.71919174255528
 30
0.0
 10
34.00312384761807
 20
38.72508678187033
 30
0.0
 10
33.99627452644574
 20
38.73071177465565
 30
0.0
 10
33.99039804729475
 20
38.73594531485936
 30
0.0
 10
33.98574337573007
 20
38.74068421031427
 30
0.0
 10
33.98257128161592
 20
38.74482411662197
 30
0.0
 10
33.98088542976149
 20
38.74836426030226
 30
0.0
 10
33.98121158641126
 20
38.75013797754756
 30
0.0
 10
33.9813746642677
 20
38.75102483362266
 30
0.0
  0
LINE
  5
1BA
330
1F
100
AcDbEntity
  8
SLD-0
  6
Continuous
370
    15
100
AcDbLine
 10
56.1522861707
 20
50.7786434629
 30
0.0
 11
56.0175157276
 21
51.1122135828
 31
0.0
  0
ARC
  5
1BB
330
1F
100
AcDbEntity
  8
SLD-0
  6
Continuous
370
    15
100
AcDbCircle
 10
39.0700946291
 20
51.0917598156
 30
0.0
 40
0.0546000000000022
100
AcDbArc
 50
118.5420771921
 51
158.0
  0
LINE
  5
1BC
330
1F
100
AcDbEntity
  8
SLD-0
  6
Continuous
370
    15
100
AcDbLine
 10
38.8846997273
 20
50.7786434629
 30
0.0
 11
39.0194701704
 21
51.1122135828
 31
0.0
  0
ARC
  5
1BD
330
1F
100
AcDbEntity
  8
SLD-0
  6
Continuous
370
    15
100
AcDbCircle
 10
55.9668912689
 20
51.0917598156
 30
0.0
 40
0.0546000000000089
100
AcDbArc
 50
22.0
 51
60.9575176373
  0
LINE
  5
1BE
330
1F
100
AcDbEntity
  8
SLD-0
  6
Continuous
370
    15
100
AcDbLine
 10
61.0184932625
 20
37.9497134238
 30
0.0
 11
61.0184932625
 21
38.7206073983
 31
0.0
  0
LINE
  5
1BF
330
1F
100
AcDbEntity
  8
SLD-0
  6
Continuous
370
    15
100
AcDbLine
 10
34.0184926355
 20
37.9497134238
 30
0.0
 11
34.0184926355
 21
38.7206073983
 31
0.0
  0
LINE
  5
1C0
330
1F
100
AcDbEntity
  8
SLD-0
  6
Continuous
370
    15
100
AcDbLine
 10
34.0034929154
 20
37.6797598223
 30
0.0
 11
32.8934925116
 21
37.6797598223
 31
0.0
  0
LINE
  5
1C1
330
1F
100
AcDbEntity
  8
SLD-0
  6
Continuous
370
    15
100
AcDbLine
 10
32.8934925116
 20
37.6797598223
 30
0.0
 11
32.8934925116
 21
37.7193598048
 31
0.0
  0
LINE
  5
1C2
330
1F
100
AcDbEntity
  8
SLD-0
  6
Continuous
370
    15
100
AcDbLine
 10
32.9004925374
 20
37.7193598048
 30
0.0
 11
32.8934925116
 21
37.7193598048
 31
0.0
  0
LWPOLYLINE
  5
1C3
330
1F
100
AcDbEntity
  8
SLD-0
  6
Continuous
370
    15
100
AcDbPolyline
 90
        3
 70
   128
 43
0.0
 10
61.0214113088
 20
37.6811133933
 10
61.0228415856
 20
37.6808089168
 10
61.0334929826
 20
37.6797598223
  0
LWPOLYLINE
  5
1C4
330
1F
100
AcDbEntity
  8
SLD-0
  6
Continuous
370
    15
100
AcDbPolyline
 90
        3
 70
   128
 43
0.0
 10
34.0034929154
 20
37.6797598223
 10
34.0141443124
 20
37.6808089168
 10
34.0155745892
 20
37.6811133933
  0
LINE
  5
1C5
330
1F
100
AcDbEntity
  8
SLD-0
  6
Continuous
370
    15
100
AcDbLine
 10
62.1434933864
 20
37.6797598223
 30
0.0
 11
62.1434933864
 21
37.7193598048
 31
0.0
  0
LINE
  5
1C6
330
1F
100
AcDbEntity
  8
SLD-0
  6
Continuous
370
    15
100
AcDbLine
 10
62.1364933606
 20
37.7193598048
 30
0.0
 11
62.1434933864
 21
37.7193598048
 31
0.0
  0
LINE
  5
1C7
330
1F
100
AcDbEntity
  8
SLD-0
  6
Continuous
370
    15
100
AcDbLine
 10
61.0334929826
 20
37.6797598223
 30
0.0
 11
62.1434933864
 21
37.6797598223
 31
0.0
  0
ARC
  5
1C8
330
1F
100
AcDbEntity
  8
SLD-0
  6
Continuous
370
    15
100
AcDbCircle
 10
33.986992949
 20
37.4734447205
 30
0.0
 40
0.0625
100
AcDbArc
 50
90.0
 51
121.6575711521
  0
LINE
  5
1C9
330
1F
100
AcDbEntity
  8
SLD-0
  6
Continuous
370
    15
100
AcDbLine
 10
33.9869925194
 20
37.535944697
 30
0.0
 11
34.9494925472
 21
37.535944697
 31
0.0
  0
LINE
  5
1CA
330
1F
100
AcDbEntity
  8
SLD-0
  6
Continuous
370
    15
100
AcDbLine
 10
60.0874933508
 20
37.535944697
 30
0.0
 11
61.0499933786
 21
37.535944697
 31
0.0
  0
ARC
  5
1CB
330
1F
100
AcDbEntity
  8
SLD-0
  6
Continuous
370
    15
100
AcDbCircle
 10
61.049992949
 20
37.4734447205
 30
0.0
 40
0.062500000000006
100
AcDbArc
 50
58.3424288479
 51
90.0
  0
LINE
  5
1CC
330
1F
100
AcDbEntity
  8
SLD-0
  6
Continuous
370
    15
100
AcDbLine
 10
60.0874933508
 20
37.5266446711
 30
0.0
 11
61.1934927342
 21
37.5266446711
 31
0.0
  0
LINE
  5
1CD
330
1F
100
AcDbEntity
  8
SLD-0
  6
Continuous
370
    15
100
AcDbLine
 10
61.1934927342
 20
37.1666447165
 30
0.0
 11
61.1934927342
 21
37.5266446711
 31
0.0
  0
LINE
  5
1CE
330
1F
100
AcDbEntity
  8
SLD-0
  6
Continuous
370
    15
100
AcDbLine
 10
61.1934927342
 20
37.1666447165
 30
0.0
 11
33.8434931638
 21
37.1666447165
 31
0.0
  0
LINE
  5
1CF
330
1F
100
AcDbEntity
  8
SLD-0
  6
Continuous
370
    15
100
AcDbLine
 10
33.8434931638
 20
37.1666447165
 30
0.0
 11
33.8434931638
 21
37.5266446711
 31
0.0
  0
LINE
  5
1D0
330
1F
100
AcDbEntity
  8
SLD-0
  6
Continuous
370
    15
100
AcDbLine
 10
33.8434931638
 20
37.5266446711
 30
0.0
 11
34.9494925472
 21
37.5266446711
 31
0.0
  0
LINE
  5
1D1
330
1F
100
AcDbEntity
  8
SLD-0
  6
Continuous
370
    15
100
AcDbLine
 10
34.9494925472
 20
37.5266446711
 30
0.0
 11
34.9494925472
 21
37.6811133933
 31
0.0
  0
LINE
  5
1D2
330
1F
100
AcDbEntity
  8
SLD-0
  6
Continuous
370
    15
100
AcDbLine
 10
60.0874933508
 20
37.6811133933
 30
0.0
 11
60.0874933508
 21
37.5266446711
 31
0.0
  0
LINE
  5
1D3
330
1F
100
AcDbEntity
  8
SLD-0
  6
Continuous
370
    15
100
AcDbLine
 10
61.1934927342
 20
37.0916447229
 30
0.0
 11
33.8434931638
 21
37.0916447229
 31
0.0
  0
LINE
  5
1D4
330
1F
100
AcDbEntity
  8
SLD-0
  6
Continuous
370
    15
100
AcDbLine
 10
61.1934927342
 20
37.1666447165
 30
0.0
 11
61.1934927342
 21
37.0916447229
 31
0.0
  0
LINE
  5
1D5
330
1F
100
AcDbEntity
  8
SLD-0
  6
Continuous
370
    15
100
AcDbLine
 10
33.8434931638
 20
37.0916447229
 30
0.0
 11
33.8434931638
 21
37.1666447165
 31
0.0
  0
LINE
  5
1D6
330
1F
100
AcDbEntity
  8
SLD-0
  6
Continuous
370
    15
100
AcDbLine
 10
61.2084924543
 20
37.1666447165
 30
0.0
 11
61.2084924543
 21
37.6516447338
 31
0.0
  0
LINE
  5
1D7
330
1F
100
AcDbEntity
  8
SLD-0
  6
Continuous
370
    15
100
AcDbLine
 10
61.2084924543
 20
37.6516447338
 30
0.0
 11
61.2684925078
 21
37.6516447338
 31
0.0
  0
LINE
  5
1D8
330
1F
100
AcDbEntity
  8
SLD-0
  6
Continuous
370
    15
100
AcDbLine
 10
61.2684925078
 20
37.1666447165
 30
0.0
 11
61.2684925078
 21
37.6516447338
 31
0.0
  0
LINE
  5
1D9
330
1F
100
AcDbEntity
  8
SLD-0
  6
Continuous
370
    15
100
AcDbLine
 10
61.2684925078
 20
37.1666447165
 30
0.0
 11
61.2084924543
 21
37.1666447165
 31
0.0
  0
ARC
  5
1DA
330
1F
100
AcDbEntity
  8
SLD-0
  6
Continuous
370
    15
100
AcDbCircle
 10
61.193492949
 20
37.1666447205
 30
0.0
 40
0.0150000000000006
100
AcDbArc
 50
270.0
 51
0.0
  0
ARC
  5
1DB
330
1F
100
AcDbEntity
  8
SLD-0
  6
Continuous
370
    15
100
AcDbCircle
 10
61.193492949
 20
37.1666447205
 30
0.0
 40
0.0750000000000028
100
AcDbArc
 50
270.0
 51
0.0
  0
ARC
  5
1DC
330
1F
100
AcDbEntity
  8
SLD-0
  6
Continuous
370
    15
100
AcDbCircle
 10
33.843492949
 20
37.1666447205
 30
0.0
 40
0.0749999999999957
100
AcDbArc
 50
180.0
 51
270.0
  0
LINE
  5
1DD
330
1F
100
AcDbEntity
  8
SLD-0
  6
Continuous
370
    15
100
AcDbLine
 10
33.8284934437
 20
37.1666447165
 30
0.0
 11
33.7684933902
 21
37.1666447165
 31
0.0
  0
ARC
  5
1DE
330
1F
100
AcDbEntity
  8
SLD-0
  6
Continuous
370
    15
100
AcDbCircle
 10
33.843492949
 20
37.1666447205
 30
0.0
 40
0.0149999999999935
100
AcDbArc
 50
180.0
 51
270.0
  0
LINE
  5
1DF
330
1F
100
AcDbEntity
  8
SLD-0
  6
Continuous
370
    15
100
AcDbLine
 10
33.7684933902
 20
37.6516447338
 30
0.0
 11
33.7684933902
 21
37.1666447165
 31
0.0
  0
LINE
  5
1E0
330
1F
100
AcDbEntity
  8
SLD-0
  6
Continuous
370
    15
100
AcDbLine
 10
33.8284934437
 20
37.6516447338
 30
0.0
 11
33.8284934437
 21
37.1666447165
 31
0.0
  0
LINE
  5
1E1
330
1F
100
AcDbEntity
  8
SLD-0
  6
Continuous
370
    15
100
AcDbLine
 10
33.8284934437
 20
37.6516447338
 30
0.0
 11
33.7684933902
 21
37.6516447338
 31
0.0
  0
CIRCLE
  5
1E2
330
1F
100
AcDbEntity
  8
SLD-0
  6
Continuous
370
    15
100
AcDbCircle
 10
50.518492949
 20
45.4276598156
 30
0.0
 40
1.125
  0
LINE
  5
1E3
330
1F
100
AcDbEntity
  8
SLD-0
  6
Continuous
370
    15
100
AcDbLine
 10
34.3322418644
 20
37.6811133933
 30
0.0
 11
34.3322418644
 21
37.6611597705
 31
0.0
  0
LINE
  5
1E4
330
1F
100
AcDbEntity
  8
SLD-0
  6
Continuous
370
    15
100
AcDbLine
 10
60.7047440336
 20
37.6611597705
 30
0.0
 11
60.7047440336
 21
37.6811133933
 31
0.0
  0
LINE
  5
1E5
330
1F
100
AcDbEntity
  8
SLD-0
  6
Continuous
370
    15
100
AcDbLine
 10
34.3322418644
 20
37.6065597746
 30
0.0
 11
34.9494925472
 21
37.6065597746
 31
0.0
  0
LINE
  5
1E6
330
1F
100
AcDbEntity
  8
SLD-0
  6
Continuous
370
    15
100
AcDbLine
 10
60.0874933508
 20
37.6065597746
 30
0.0
 11
60.7047440336
 21
37.6065597746
 31
0.0
  0
LINE
  5
1E7
330
1F
100
AcDbEntity
  8
SLD-0
  6
Continuous
370
    15
100
AcDbLine
 10
34.3322418644
 20
37.6611597705
 30
0.0
 11
34.3322418644
 21
37.6065597746
 31
0.0
  0
LINE
  5
1E8
330
1F
100
AcDbEntity
  8
SLD-0
  6
Continuous
370
    15
100
AcDbLine
 10
60.7047440336
 20
37.6611597705
 30
0.0
 11
60.7047440336
 21
37.6065597746
 31
0.0
  0
LINE
  5
1E9
330
1F
100
AcDbEntity
  8
SLD-0
  6
Continuous
370
    15
100
AcDbLine
 10
62.1387437879
 20
37.6401598398
 30
0.0
 11
62.1387437879
 21
37.6065597746
 31
0.0
  0
LINE
  5
1EA
330
1F
100
AcDbEntity
  8
SLD-0
  6
Continuous
370
    15
100
AcDbLine
 10
62.1387437879
 20
37.6065597746
 30
0.0
 11
61.2684925078
 21
37.6065597746
 31
0.0
  0
LINE
  5
1EB
330
1F
100
AcDbEntity
  8
SLD-0
  6
Continuous
370
    15
100
AcDbLine
 10
61.2084924543
 20
37.6065597746
 30
0.0
 11
60.7047440336
 21
37.6065597746
 31
0.0
  0
LINE
  5
1EC
330
1F
100
AcDbEntity
  8
SLD-0
  6
Continuous
370
    15
100
AcDbLine
 10
32.89824211
 20
37.6401598398
 30
0.0
 11
32.89824211
 21
37.6065597746
 31
0.0
  0
LINE
  5
1ED
330
1F
100
AcDbEntity
  8
SLD-0
  6
Continuous
370
    15
100
AcDbLine
 10
34.3322418644
 20
37.6065597746
 30
0.0
 11
33.8284934437
 21
37.6065597746
 31
0.0
  0
LINE
  5
1EE
330
1F
100
AcDbEntity
  8
SLD-0
  6
Continuous
370
    15
100
AcDbLine
 10
33.7684933902
 20
37.6065597746
 30
0.0
 11
32.89824211
 21
37.6065597746
 31
0.0
  0
LINE
  5
1EF
330
1F
100
AcDbEntity
  8
SLD-0
  6
Continuous
370
    15
100
AcDbLine
 10
62.1387613877
 20
37.6401598398
 30
0.0
 11
62.1387613877
 21
37.6797598223
 31
0.0
  0
LINE
  5
1F0
330
1F
100
AcDbEntity
  8
SLD-0
  6
Continuous
370
    15
100
AcDbLine
 10
60.7047440336
 20
37.6797598223
 30
0.0
 11
61.0334929826
 21
37.6797598223
 31
0.0
  0
LINE
  5
1F1
330
1F
100
AcDbEntity
  8
SLD-0
  6
Continuous
370
    15
100
AcDbLine
 10
60.7047440336
 20
37.6401598398
 30
0.0
 11
61.2084924543
 21
37.6401598398
 31
0.0
  0
LINE
  5
1F2
330
1F
100
AcDbEntity
  8
SLD-0
  6
Continuous
370
    15
100
AcDbLine
 10
61.2684925078
 20
37.6401598398
 30
0.0
 11
62.1387613877
 21
37.6401598398
 31
0.0
  0
LINE
  5
1F3
330
1F
100
AcDbEntity
  8
SLD-0
  6
Continuous
370
    15
100
AcDbLine
 10
32.8982245102
 20
37.6401598398
 30
0.0
 11
32.8982245102
 21
37.6797598223
 31
0.0
  0
LINE
  5
1F4
330
1F
100
AcDbEntity
  8
SLD-0
  6
Continuous
370
    15
100
AcDbLine
 10
34.3322418644
 20
37.6797598223
 30
0.0
 11
34.0034929154
 21
37.6797598223
 31
0.0
  0
LINE
  5
1F5
330
1F
100
AcDbEntity
  8
SLD-0
  6
Continuous
370
    15
100
AcDbLine
 10
34.3322418644
 20
37.6401598398
 30
0.0
 11
33.8284934437
 21
37.6401598398
 31
0.0
  0
LINE
  5
1F6
330
1F
100
AcDbEntity
  8
SLD-0
  6
Continuous
370
    15
100
AcDbLine
 10
33.7684933902
 20
37.6401598398
 30
0.0
 11
32.8982245102
 21
37.6401598398
 31
0.0
  0
LINE
  5
1F7
330
1F
100
AcDbEntity
  8
SLD-0
  6
Continuous
370
    15
100
AcDbLine
 10
60.2383963542
 20
37.604159749
 30
0.0
 11
60.0874933508
 21
37.604159749
 31
0.0
  0
LINE
  5
1F8
330
1F
100
AcDbEntity
  8
SLD-0
  6
Continuous
370
    15
100
AcDbLine
 10
34.9494925472
 20
37.604159749
 30
0.0
 11
34.7985895437
 21
37.604159749
 31
0.0
  0
SPLINE
  5
1F9
330
1F
100
AcDbEntity
  8
SLD-0
  6
Continuous
370
    15
100
AcDbSpline
210
0.0
220
0.0
230
1.0
 70
     8
 71
     3
 72
     9
 73
     5
 74
     0
 42
0.00000001
 43
0.00000001
 12
1.0
 22
0.0
 32
0.0
 13
1.0
 23
0.0
 33
0.0
 40
0.0
 40
0.0
 40
0.0
 40
0.0
 40
0.1783487109182448
 40
1.0
 40
1.0
 40
1.0
 40
1.0
 10
34.797865605428
 20
37.60655977458068
 30
0.0
 10
34.79797105713181
 20
37.60623600405792
 30
0.0
 10
34.79856232411247
 20
37.6044206249554
 30
0.0
 10
34.79857726639004
 20
37.60427741643667
 30
0.0
 10
34.79858954373167
 20
37.60415974897265
 30
0.0
  0
SPLINE
  5
1FA
330
1F
100
AcDbEntity
  8
SLD-0
  6
Continuous
370
    15
100
AcDbSpline
210
0.0
220
0.0
230
1.0
 70
     8
 71
     3
 72
     9
 73
     5
 74
     0
 42
0.00000001
 43
0.00000001
 12
1.0
 22
0.0
 32
0.0
 13
1.0
 23
0.0
 33
0.0
 40
0.0
 40
0.0
 40
0.0
 40
0.0
 40
0.9077279319012013
 40
0.9999999999999999
 40
0.9999999999999999
 40
0.9999999999999999
 40
0.9999999999999999
 10
60.23839635424587
 20
37.60415974897265
 30
0.0
 10
60.23880787186797
 20
37.60426380170566
 30
0.0
 10
60.23926122094718
 20
37.60437843157365
 30
0.0
 10
60.2401258337351
 20
37.60637550086686
 30
0.0
 10
60.24020561334516
 20
37.60655977458068
 30
0.0
  0
LINE
  5
1FB
330
1F
100
AcDbEntity
  8
SLD-0
  6
Continuous
370
    15
100
AcDbLine
 10
60.3633959769
 20
37.604159749
 30
0.0
 11
60.3633959769
 21
37.6065597746
 31
0.0
  0
LINE
  5
1FC
330
1F
100
AcDbEntity
  8
SLD-0
  6
Continuous
370
    15
100
AcDbLine
 10
60.3633959769
 20
37.604159749
 30
0.0
 11
60.2383963542
 21
37.604159749
 31
0.0
  0
LINE
  5
1FD
330
1F
100
AcDbEntity
  8
SLD-0
  6
Continuous
370
    15
100
AcDbLine
 10
34.6735899211
 20
37.6065597746
 30
0.0
 11
34.6735899211
 21
37.604159749
 31
0.0
  0
LINE
  5
1FE
330
1F
100
AcDbEntity
  8
SLD-0
  6
Continuous
370
    15
100
AcDbLine
 10
34.7985895437
 20
37.604159749
 30
0.0
 11
34.6735899211
 21
37.604159749
 31
0.0
  0
LINE
  5
1FF
330
1F
100
AcDbEntity
  8
SLD-0
  6
Continuous
370
    15
100
AcDbLine
 10
62.139254182
 20
37.604159749
 30
0.0
 11
62.139254182
 21
37.6401598398
 31
0.0
  0
LINE
  5
200
330
1F
100
AcDbEntity
  8
SLD-0
  6
Continuous
370
    15
100
AcDbLine
 10
62.1387613877
 20
37.6401598398
 30
0.0
 11
62.139254182
 21
37.6401598398
 31
0.0
  0
LINE
  5
201
330
1F
100
AcDbEntity
  8
SLD-0
  6
Continuous
370
    15
100
AcDbLine
 10
60.3633959769
 20
37.604159749
 30
0.0
 11
61.2084924543
 21
37.604159749
 31
0.0
  0
LINE
  5
202
330
1F
100
AcDbEntity
  8
SLD-0
  6
Continuous
370
    15
100
AcDbLine
 10
61.2684925078
 20
37.604159749
 30
0.0
 11
62.139254182
 21
37.604159749
 31
0.0
  0
LINE
  5
203
330
1F
100
AcDbEntity
  8
SLD-0
  6
Continuous
370
    15
100
AcDbLine
 10
32.8977317159
 20
37.604159749
 30
0.0
 11
32.8977317159
 21
37.6401598398
 31
0.0
  0
LINE
  5
204
330
1F
100
AcDbEntity
  8
SLD-0
  6
Continuous
370
    15
100
AcDbLine
 10
32.8977317159
 20
37.6401598398
 30
0.0
 11
32.8982245102
 21
37.6401598398
 31
0.0
  0
LINE
  5
205
330
1F
100
AcDbEntity
  8
SLD-0
  6
Continuous
370
    15
100
AcDbLine
 10
32.8977317159
 20
37.604159749
 30
0.0
 11
33.7684933902
 21
37.604159749
 31
0.0
  0
LINE
  5
206
330
1F
100
AcDbEntity
  8
SLD-0
  6
Continuous
370
    15
100
AcDbLine
 10
33.8284934437
 20
37.604159749
 30
0.0
 11
34.6735899211
 21
37.604159749
 31
0.0
  0
LINE
  5
207
330
1F
100
AcDbEntity
  8
SLD-0
  6
Continuous
370
    15
100
AcDbLine
 10
34.0697315102
 20
37.6811133933
 30
0.0
 11
34.0697315102
 21
37.6797598223
 31
0.0
  0
LINE
  5
208
330
1F
100
AcDbEntity
  8
SLD-0
  6
Continuous
370
    15
100
AcDbLine
 10
60.9672543877
 20
37.6797598223
 30
0.0
 11
60.9672543877
 21
37.6811133933
 31
0.0
  0
LINE
  5
209
330
1F
100
AcDbEntity
  8
SLD-0
  6
Continuous
370
    15
100
AcDbLine
 10
53.0860930049
 20
51.1495638713
 30
0.0
 11
41.950892893
 21
51.1495638713
 31
0.0
  0
LINE
  5
20A
330
1F
100
AcDbEntity
  8
SLD-0
  6
Continuous
370
    15
100
AcDbLine
 10
55.9946993511
 20
51.1322128184
 30
0.0
 11
54.1538932029
 21
51.1322128184
 31
0.0
  0
LINE
  5
20B
330
1F
100
AcDbEntity
  8
SLD-0
  6
Continuous
370
    15
100
AcDbLine
 10
40.9038927214
 20
51.1322128184
 30
0.0
 11
39.0422865468
 21
51.1322128184
 31
0.0
  0
LINE
  5
20C
330
1F
100
AcDbEntity
  8
SLD-0
  6
Continuous
370
    15
100
AcDbLine
 10
56.0048479806
 20
51.1070955619
 30
0.0
 11
56.0175157276
 21
51.1122135828
 31
0.0
  0
LINE
  5
20D
330
1F
100
AcDbEntity
  8
SLD-0
  6
Continuous
370
    15
100
AcDbLine
 10
39.0321379174
 20
51.1070955619
 30
0.0
 11
39.0194701704
 21
51.1122135828
 31
0.0
  0
LINE
  5
20E
330
1F
100
AcDbEntity
  8
SLD-0
  6
Continuous
370
    15
100
AcDbLine
 10
34.0034929154
 20
37.6811133933
 30
0.0
 11
34.0034929154
 21
37.6797598223
 31
0.0
  0
LINE
  5
20F
330
1F
100
AcDbEntity
  8
SLD-0
  6
Continuous
370
    15
100
AcDbLine
 10
61.0334929826
 20
37.6811133933
 30
0.0
 11
61.0334929826
 21
37.6797598223
 31
0.0
  0
LINE
  5
210
330
1F
100
AcDbEntity
  8
SLD-0
  6
Continuous
370
    15
100
AcDbLine
 10
34.3322418644
 20
37.6611597705
 30
0.0
 11
34.9494925472
 21
37.6611597705
 31
0.0
  0
LINE
  5
211
330
1F
100
AcDbEntity
  8
SLD-0
  6
Continuous
370
    15
100
AcDbLine
 10
60.0874933508
 20
37.6611597705
 30
0.0
 11
60.7047440336
 21
37.6611597705
 31
0.0
  0
DIMENSION
  5
212
330
1F
100
AcDbEntity
  8
DIM
100
AcDbDimension
  2
_D_5
 10
55.9745176582
 20
57.7308133753
 30
0.0
 11
47.518492949
 21
57.7308133753
 31
0.0
 70
   160
  1
<>
 71
     2
 42
-1.0
  3
SLDDIMSTYLE0
100
AcDbAlignedDimension
 13
39.0624682398
 23
51.1808133683
 33
0.0
 14
55.9745176582
 24
51.1808133683
 34
0.0
100
AcDbRotatedDimension
  0
DIMENSION
  5
221
330
1F
100
AcDbEntity
  8
DIM
100
AcDbDimension
  2
_D_6
 10
44.5228230829
 20
54.2308133683
 30
0.0
 11
34.4562252994
 21
54.2308133683
 31
0.0
 70
   160
  1
<>
 71
     2
 42
-1.0
  3
SLDDIMSTYLE1
100
AcDbAlignedDimension
 13
39.0624682398
 23
51.1808133683
 33
0.0
 14
44.5228230829
 24
49.1063423492
 34
0.0
100
AcDbRotatedDimension
  0
DIMENSION
  5
230
330
1F
100
AcDbEntity
  8
DIM
100
AcDbDimension
  2
_D_7
 10
50.5228230829
 20
54.2308133753
 30
0.0
 11
60.9379548653
 21
54.2308133753
 31
0.0
 70
   160
  1
<>
 71
     2
 42
-1.0
  3
SLDDIMSTYLE1
100
AcDbAlignedDimension
 13
55.9745176582
 23
51.1808133683
 33
0.0
 14
50.5228230829
 24
46.8933423492
 34
0.0
100
AcDbRotatedDimension
  0
DIMENSION
  5
23F
330
1F
100
AcDbEntity
  8
DIM
100
AcDbDimension
  2
_D_8
 10
29.8934929464
 20
47.6428435034
 30
0.0
 11
29.893492949
 21
54.2308133683
 31
0.0
 70
   160
  1
<>
 71
     2
 42
-1.0
  3
SLDDIMSTYLE1
100
AcDbAlignedDimension
 13
41.549742949
 23
51.230813373
 33
0.0
 14
43.059324232
 24
47.6428434983
 34
0.0
 50
90.0
100
AcDbRotatedDimension
  0
DIMENSION
  5
24F
330
1F
100
AcDbEntity
  8
DIM
100
AcDbDimension
  2
_D_9
 10
29.893492949
 20
47.6428434983
 30
0.0
 11
29.893492949
 21
42.7962784333
 31
0.0
 70
   160
  1
<>
 71
     2
 42
-1.0
  3
SLDDIMSTYLE0
100
AcDbAlignedDimension
 13
32.900492949
 23
37.9497133683
 33
0.0
 14
43.059324232
 24
47.6428434983
 34
0.0
 50
90.0
100
AcDbRotatedDimension
  0
DIMENSION
  5
25E
330
1F
100
AcDbEntity
  8
DIM
100
AcDbDimension
  2
_D_10
 10
65.1434929445
 20
51.2308133638
 30
0.0
 11
65.1434929433
 21
48.3303284285
 31
0.0
 70
   160
  1
<>
 71
     2
 42
-1.0
  3
SLDDIMSTYLE1
100
AcDbAlignedDimension
 13
51.9863219338
 23
45.4298434983
 33
0.0
 14
53.487242949
 24
51.2308133683
 34
0.0
 50
90.0
100
AcDbRotatedDimension
  0
DIMENSION
  5
26D
330
1F
100
AcDbEntity
  8
DIM
100
AcDbDimension
  2
_D_11
 10
65.143492949
 20
45.4298434983
 30
0.0
 11
65.143492949
 21
41.6897784333
 31
0.0
 70
   160
  1
<>
 71
     2
 42
-1.0
  3
SLDDIMSTYLE0
100
AcDbAlignedDimension
 13
62.136492949
 23
37.9497133683
 33
0.0
 14
51.9863219338
 24
45.4298434983
 34
0.0
 50
90.0
100
AcDbRotatedDimension
  0
DIMENSION
  5
27C
330
1F
100
AcDbEntity
  8
DIM
100
AcDbDimension
  2
_D_12
 10
61.268492949
 20
34.0916447205
 30
0.0
 11
47.518492949
 21
34.0916447205
 31
0.0
 70
   160
  1
<>
 71
     2
 42
-1.0
  3
SLDDIMSTYLE0
100
AcDbAlignedDimension
 13
33.768492949
 23
37.1666447205
 33
0.0
 14
61.268492949
 24
37.1666447205
 34
0.0
 50
0.0
100
AcDbRotatedDimension
  0
DIMENSION
  5
28B
330
1F
100
AcDbEntity
  8
DIM
100
AcDbDimension
  2
_D_13
 10
65.143492949
 20
37.9497133683
 30
0.0
 11
65.143492949
 21
34.0916447205
 31
0.0
 70
   160
  1
<>
 71
     2
 42
-1.0
  3
SLDDIMSTYLE1
100
AcDbAlignedDimension
 13
61.193492949
 23
37.0916447205
 33
0.0
 14
62.136492949
 24
37.9497133683
 34
0.0
 50
90.0
100
AcDbRotatedDimension
  0
DIMENSION
  5
29A
330
1F
100
AcDbEntity
  8
DIM
100
AcDbDimension
  2
_D_14
 10
62.136492949
 20
30.5916447205
 30
0.0
 11
47.3829366926
 21
30.5916447205
 31
0.0
 70
   160
  1
<>
 71
     2
 42
-1.0
  3
SLDDIMSTYLE0
100
AcDbAlignedDimension
 13
32.900492949
 23
37.6811133683
 33
0.0
 14
62.136492949
 24
37.6811133683
 34
0.0
100
AcDbRotatedDimension
  0
DIMENSION
  5
2A9
330
1F
100
AcDbEntity
  8
DIM
100
AcDbDimension
  2
_D_15
 10
45.1758559547
 20
48.9937078244
 30
0.0
 11
45.3291658038
 21
42.6185741703
 31
0.0
 70
   163
  1
<>
 71
     1
 42
-1.0
  3
SLDDIMSTYLE2
100
AcDbDiametricDimension
 15
43.8697902111
 25
46.2919791723
 35
0.0
 40
0.0
  0
DIMENSION
  5
2B3
330
1F
100
AcDbEntity
  8
DIM
100
AcDbDimension
  2
_D_16
 10
50.0087557134
 20
46.8394608573
 30
0.0
 11
48.7949959995
 21
40.1804062797
 31
0.0
 70
   163
  1
<>
 71
     1
 42
-1.0
  3
SLDDIMSTYLE2
100
AcDbDiametricDimension
 15
51.0368904524
 25
44.0202261394
 35
0.0
 40
0.0
  0
INSERT
  5
2C7
330
1F
100
AcDbEntity
  8
DIM
100
AcDbBlockReference
  2
SW_CENTERMARKSYMBOL_0
 10
50.5228230829
 20
45.4298434983
 30
0.0
  0
INSERT
  5
2D3
330
1F
100
AcDbEntity
  8
DIM
100
AcDbBlockReference
  2
SW_CENTERMARKSYMBOL_1
 10
44.5228230829
 20
47.6428434983
 30
0.0
  0
LINE
  5
2D4
330
1F
100
AcDbEntity
  8
SLD-0
  6
Continuous
370
    15
100
AcDbLine
 10
88.3654346347
 20
21.1631056315
 30
0.0
 11
88.2723117638
 21
22.695505849
 31
0.0
  0
LINE
  5
2D5
330
1F
100
AcDbEntity
  8
SLD-0
  6
Continuous
370
    15
100
AcDbLine
 10
86.1524350262
 20
21.1631056315
 30
0.0
 11
86.0593121553
 21
22.695505849
 31
0.0
  0
LINE
  5
2D6
330
1F
100
AcDbEntity
  8
SLD-0
  6
Continuous
370
    15
100
AcDbLine
 10
83.24931219
 20
22.695505849
 30
0.0
 11
83.1561893191
 21
21.1631056315
 31
0.0
  0
LINE
  5
2D7
330
1F
100
AcDbEntity
  8
SLD-0
  6
Continuous
370
    15
100
AcDbLine
 10
88.2723117638
 20
22.695505849
 30
0.0
 11
86.0593121553
 21
22.695505849
 31
0.0
  0
LINE
  5
2D8
330
1F
100
AcDbEntity
  8
SLD-0
  6
Continuous
370
    15
100
AcDbLine
 10
86.0593121553
 20
22.695505849
 30
0.0
 11
83.24931219
 21
22.695505849
 31
0.0
  0
LINE
  5
2D9
330
1F
100
AcDbEntity
  8
SLD-0
  6
Continuous
370
    15
100
AcDbLine
 10
78.261667381
 20
21.0705060612
 30
0.0
 11
78.261667381
 21
21.0205062121
 31
0.0
  0
LINE
  5
2DA
330
1F
100
AcDbEntity
  8
SLD-0
  6
Continuous
370
    15
100
AcDbLine
 10
77.0869319916
 20
21.0705060612
 30
0.0
 11
77.0869319916
 21
21.0205062121
 31
0.0
  0
LINE
  5
2DB
330
1F
100
AcDbEntity
  8
SLD-0
  6
Continuous
370
    15
100
AcDbLine
 10
78.261667381
 20
21.0205062121
 30
0.0
 11
77.0869319916
 21
21.0205062121
 31
0.0
  0
LINE
  5
2DC
330
1F
100
AcDbEntity
  8
SLD-0
  6
Continuous
370
    15
100
AcDbLine
 10
78.261667381
 20
21.0705060612
 30
0.0
 11
77.0869319916
 21
21.0705060612
 31
0.0
  0
LINE
  5
2DD
330
1F
100
AcDbEntity
  8
SLD-0
  6
Continuous
370
    15
100
AcDbLine
 10
78.261667381
 20
21.0205062121
 30
0.0
 11
78.3771821799
 21
21.0205062121
 31
0.0
  0
LINE
  5
2DE
330
1F
100
AcDbEntity
  8
SLD-0
  6
Continuous
370
    15
100
AcDbLine
 10
78.261667381
 20
21.0705060612
 30
0.0
 11
78.3771821799
 21
21.0705060612
 31
0.0
  0
ARC
  5
2DF
330
1F
100
AcDbEntity
  8
SLD-0
  6
Continuous
370
    15
100
AcDbCircle
 10
90.3740320483
 20
20.9892561891
 30
0.0
 40
0.0812500069494067
100
AcDbArc
 50
0.000003267
 51
87.7781300567
  0
LINE
  5
2E0
330
1F
100
AcDbEntity
  8
SLD-0
  6
Continuous
370
    15
100
AcDbLine
 10
90.4552825993
 20
20.9892560131
 30
0.0
 11
90.4052815769
 21
20.9892560131
 31
0.0
  0
ARC
  5
2E1
330
1F
100
AcDbEntity
  8
SLD-0
  6
Continuous
370
    15
100
AcDbCircle
 10
90.3740320483
 20
20.9892561938
 30
0.0
 40
0.0312500046329383
100
AcDbArc
 50
0.0
 51
84.2147609766
  0
LINE
  5
2E2
330
1F
100
AcDbEntity
  8
SLD-0
  6
Continuous
370
    15
100
AcDbLine
 10
90.4552825993
 20
20.114506225
 30
0.0
 11
90.4052815769
 21
20.114506225
 31
0.0
  0
LINE
  5
2E3
330
1F
100
AcDbEntity
  8
SLD-0
  6
Continuous
370
    15
100
AcDbLine
 10
90.4552825993
 20
20.9892560131
 30
0.0
 11
90.4552825993
 21
20.114506225
 31
0.0
  0
LINE
  5
2E4
330
1F
100
AcDbEntity
  8
SLD-0
  6
Continuous
370
    15
100
AcDbLine
 10
90.4052815769
 20
20.9892560131
 30
0.0
 11
90.4052815769
 21
20.8519060265
 31
0.0
  0
LINE
  5
2E5
330
1F
100
AcDbEntity
  8
SLD-0
  6
Continuous
370
    15
100
AcDbLine
 10
90.4052815769
 20
20.3669060826
 30
0.0
 11
90.4052815769
 21
20.114506225
 31
0.0
  0
LINE
  5
2E6
330
1F
100
AcDbEntity
  8
SLD-0
  6
Continuous
370
    15
100
AcDbLine
 10
77.0056820902
 20
21.1017562602
 30
0.0
 11
77.055682086
 21
21.1017562602
 31
0.0
  0
SPLINE
  5
2E7
330
1F
100
AcDbEntity
  8
SLD-0
  6
Continuous
370
    15
100
AcDbSpline
210
0.0
220
0.0
230
1.0
 70
     8
 71
     3
 72
    11
 73
     7
 74
     0
 42
0.00000001
 43
0.00000001
 12
1.0
 22
0.0
 32
0.0
 13
1.0
 23
0.0
 33
0.0
 40
0.0
 40
0.0
 40
0.0
 40
0.0
 40
0.2499957795864597
 40
0.499998777829358
 40
0.7499995577280096
 40
1.0
 40
1.0
 40
1.0
 40
1.0
 10
77.05568208597585
 20
21.10175626017931
 30
0.0
 10
77.05615184089449
 20
21.09766153501101
 30
0.0
 10
77.05709136429601
 20
21.08947196643874
 30
0.0
 10
77.06431779735416
 20
21.07914185275131
 30
0.0
 10
77.0746473708899
 20
21.07191548081563
 30
0.0
 10
77.08283711990065
 20
21.07097586751657
 30
0.0
 10
77.08693199164094
 20
21.07050606118428
 30
0.0
  0
SPLINE
  5
2E8
330
1F
100
AcDbEntity
  8
SLD-0
  6
Continuous
370
    15
100
AcDbSpline
210
0.0
220
0.0
230
1.0
 70
     8
 71
     3
 72
    15
 73
    11
 74
     0
 42
0.00000001
 43
0.00000001
 12
1.0
 22
0.0
 32
0.0
 13
1.0
 23
0.0
 33
0.0
 40
0.0
 40
0.0
 40
0.0
 40
0.0
 40
0.12499882314546
 40
0.249998851959515
 40
0.3749992775637511
 40
0.5000010189793139
 40
0.6250001656173334
 40
0.7500003876859918
 40
0.8750001688016673
 40
0.9999999999999999
 40
0.9999999999999999
 40
0.9999999999999999
 40
0.9999999999999999
 10
77.00568209024674
 20
21.10175626017931
 30
0.0
 10
77.00598444417888
 20
21.0964385427726
 30
0.0
 10
77.0065891549595
 20
21.08580305666745
 30
0.0
 10
77.01142051287786
 20
21.07046292452286
 30
0.0
 10
77.01892971391463
 20
21.05632475335153
 30
0.0
 10
77.02911181859797
 20
21.04393561689849
 30
0.0
 10
77.04150046834499
 20
21.03375415626789
 30
0.0
 10
77.05563867054424
 20
21.02624430334492
 30
0.0
 10
77.07097887573002
 20
21.02141334301256
 30
0.0
 10
77.0816142856271
 20
21.02080858912466
 30
0.0
 10
77.08693199164094
 20
21.02050621212013
 30
0.0
  0
LINE
  5
2E9
330
1F
100
AcDbEntity
  8
SLD-0
  6
Continuous
370
    15
100
AcDbLine
 10
77.055682086
 20
21.1017562602
 30
0.0
 11
77.055682086
 21
21.8205061438
 31
0.0
  0
LINE
  5
2EA
330
1F
100
AcDbEntity
  8
SLD-0
  6
Continuous
370
    15
100
AcDbLine
 10
77.0056820902
 20
21.8205061438
 30
0.0
 11
77.055682086
 21
21.8205061438
 31
0.0
  0
LINE
  5
2EB
330
1F
100
AcDbEntity
  8
SLD-0
  6
Continuous
370
    15
100
AcDbLine
 10
77.0056820902
 20
21.1017562602
 30
0.0
 11
77.0056820902
 21
21.8205061438
 31
0.0
  0
LINE
  5
2EC
330
1F
100
AcDbEntity
  8
SLD-0
  6
Continuous
370
    15
100
AcDbLine
 10
78.3771821799
 20
20.900506105
 30
0.0
 11
78.3771821799
 21
21.0255063144
 31
0.0
  0
LINE
  5
2ED
330
1F
100
AcDbEntity
  8
SLD-0
  6
Continuous
370
    15
100
AcDbLine
 10
90.3771817415
 20
20.900506105
 30
0.0
 11
90.3771817415
 21
21.0255063144
 31
0.0
  0
LINE
  5
2EE
330
1F
100
AcDbEntity
  8
SLD-0
  6
Continuous
370
    15
100
AcDbLine
 10
90.3771817415
 20
21.0255063144
 30
0.0
 11
78.3771821799
 21
21.0255063144
 31
0.0
  0
LINE
  5
2EF
330
1F
100
AcDbEntity
  8
SLD-0
  6
Continuous
370
    15
100
AcDbLine
 10
90.3771817415
 20
20.900506105
 30
0.0
 11
90.3566814984
 21
20.900506105
 31
0.0
  0
LINE
  5
2F0
330
1F
100
AcDbEntity
  8
SLD-0
  6
Continuous
370
    15
100
AcDbLine
 10
78.3771821799
 20
21.0651064436
 30
0.0
 11
78.3771821799
 21
21.0255063144
 31
0.0
  0
LINE
  5
2F1
330
1F
100
AcDbEntity
  8
SLD-0
  6
Continuous
370
    15
100
AcDbLine
 10
90.3771817415
 20
21.0651064436
 30
0.0
 11
90.3771817415
 21
21.0255063144
 31
0.0
  0
LINE
  5
2F2
330
1F
100
AcDbEntity
  8
SLD-0
  6
Continuous
370
    15
100
AcDbLine
 10
78.3771821799
 20
21.0651064436
 30
0.0
 11
90.3771817415
 21
21.0651064436
 31
0.0
  0
LINE
  5
2F3
330
1F
100
AcDbEntity
  8
SLD-0
  6
Continuous
370
    15
100
AcDbLine
 10
78.3771821799
 20
21.0687126419
 30
0.0
 11
78.3771821799
 21
21.0651064436
 31
0.0
  0
LINE
  5
2F4
330
1F
100
AcDbEntity
  8
SLD-0
  6
Continuous
370
    15
100
AcDbLine
 10
78.3771821799
 20
21.0687126419
 30
0.0
 11
90.3771817415
 21
21.0687126419
 31
0.0
  0
LINE
  5
2F5
330
1F
100
AcDbEntity
  8
SLD-0
  6
Continuous
370
    15
100
AcDbLine
 10
90.3771817415
 20
21.0687126419
 30
0.0
 11
90.3771817415
 21
21.0651064436
 31
0.0
  0
LINE
  5
2F6
330
1F
100
AcDbEntity
  8
SLD-0
  6
Continuous
370
    15
100
AcDbLine
 10
78.3771821799
 20
21.1548935663
 30
0.0
 11
78.3771821799
 21
21.0687126419
 31
0.0
  0
LINE
  5
2F7
330
1F
100
AcDbEntity
  8
SLD-0
  6
Continuous
370
    15
100
AcDbLine
 10
78.3771821799
 20
21.1548935663
 30
0.0
 11
90.3771817415
 21
21.1548935663
 31
0.0
  0
LINE
  5
2F8
330
1F
100
AcDbEntity
  8
SLD-0
  6
Continuous
370
    15
100
AcDbLine
 10
90.3771817415
 20
21.1548935663
 30
0.0
 11
90.3771817415
 21
21.0687126419
 31
0.0
  0
LINE
  5
2F9
330
1F
100
AcDbEntity
  8
SLD-0
  6
Continuous
370
    15
100
AcDbLine
 10
78.3771821799
 20
21.1631056315
 30
0.0
 11
78.3771821799
 21
21.1548935663
 31
0.0
  0
LINE
  5
2FA
330
1F
100
AcDbEntity
  8
SLD-0
  6
Continuous
370
    15
100
AcDbLine
 10
78.3771821799
 20
21.1631056315
 30
0.0
 11
90.3771817415
 21
21.1631056315
 31
0.0
  0
LINE
  5
2FB
330
1F
100
AcDbEntity
  8
SLD-0
  6
Continuous
370
    15
100
AcDbLine
 10
90.3771817415
 20
21.1631056315
 30
0.0
 11
90.3771817415
 21
21.1548935663
 31
0.0
  0
LINE
  5
2FC
330
1F
100
AcDbEntity
  8
SLD-0
  6
Continuous
370
    15
100
AcDbLine
 10
76.9541820052
 20
20.900506105
 30
0.0
 11
76.9541820052
 21
20.8669063332
 31
0.0
  0
LINE
  5
2FD
330
1F
100
AcDbEntity
  8
SLD-0
  6
Continuous
370
    15
100
AcDbLine
 10
77.1741821037
 20
20.8669063332
 30
0.0
 11
77.1741821037
 21
20.900506105
 31
0.0
  0
LINE
  5
2FE
330
1F
100
AcDbEntity
  8
SLD-0
  6
Continuous
370
    15
100
AcDbLine
 10
76.9541820052
 20
20.8669063332
 30
0.0
 11
77.1741821037
 21
20.8669063332
 31
0.0
  0
LINE
  5
2FF
330
1F
100
AcDbEntity
  8
SLD-0
  6
Continuous
370
    15
100
AcDbLine
 10
76.9541820052
 20
20.900506105
 30
0.0
 11
77.1741821037
 21
20.900506105
 31
0.0
  0
ARC
  5
300
330
1F
100
AcDbEntity
  8
SLD-0
  6
Continuous
370
    15
100
AcDbCircle
 10
76.9541820483
 20
20.9155061938
 30
0.0
 40
0.0150000000000041
100
AcDbArc
 50
180.0
 51
270.0
  0
ARC
  5
301
330
1F
100
AcDbEntity
  8
SLD-0
  6
Continuous
370
    15
100
AcDbCircle
 10
76.9541820483
 20
20.9155061938
 30
0.0
 40
0.0486000000000075
100
AcDbArc
 50
180.0
 51
270.0
  0
LINE
  5
302
330
1F
100
AcDbEntity
  8
SLD-0
  6
Continuous
370
    15
100
AcDbLine
 10
76.9391819918
 20
20.9155064118
 30
0.0
 11
76.9055820733
 21
20.9155064118
 31
0.0
  0
LINE
  5
303
330
1F
100
AcDbEntity
  8
SLD-0
  6
Continuous
370
    15
100
AcDbLine
 10
76.9055820733
 20
22.1525544679
 30
0.0
 11
76.9055820733
 21
20.9155064118
 31
0.0
  0
LINE
  5
304
330
1F
100
AcDbEntity
  8
SLD-0
  6
Continuous
370
    15
100
AcDbLine
 10
76.9391819918
 20
22.1525544679
 30
0.0
 11
76.9055820733
 21
22.1525544679
 31
0.0
  0
LINE
  5
305
330
1F
100
AcDbEntity
  8
SLD-0
  6
Continuous
370
    15
100
AcDbLine
 10
76.9391819918
 20
22.1525544679
 30
0.0
 11
76.9391819918
 21
20.9155064118
 31
0.0
  0
LINE
  5
306
330
1F
100
AcDbEntity
  8
SLD-0
  6
Continuous
370
    15
100
AcDbLine
 10
76.9055820733
 20
22.5275545092
 30
0.0
 11
76.9391819918
 21
22.5275545092
 31
0.0
  0
LINE
  5
307
330
1F
100
AcDbEntity
  8
SLD-0
  6
Continuous
370
    15
100
AcDbLine
 10
76.9055820733
 20
22.1525544679
 30
0.0
 11
76.9055820733
 21
22.5275545092
 31
0.0
  0
LINE
  5
308
330
1F
100
AcDbEntity
  8
SLD-0
  6
Continuous
370
    15
100
AcDbLine
 10
76.9391819918
 20
22.5275545092
 30
0.0
 11
76.9391819918
 21
22.1525544679
 31
0.0
  0
SPLINE
  5
309
330
1F
100
AcDbEntity
  8
SLD-0
  6
Continuous
370
    15
100
AcDbSpline
210
0.0
220
0.0
230
1.0
 70
     8
 71
     3
 72
    15
 73
    11
 74
     0
 42
0.00000001
 43
0.00000001
 12
1.0
 22
0.0
 32
0.0
 13
1.0
 23
0.0
 33
0.0
 40
0.0
 40
0.0
 40
0.0
 40
0.0
 40
0.1249978056442753
 40
0.2499951241195215
 40
0.3749992883580661
 40
0.4999976923614325
 40
0.6249948240303063
 40
0.7500006758001514
 40
0.8749972786685485
 40
1.0
 40
1.0
 40
1.0
 40
1.0
 10
77.93968203393301
 20
20.90050610503828
 30
0.0
 10
77.94169270052664
 20
20.90032518366892
 30
0.0
 10
77.94571402587752
 20
20.89996334163535
 30
0.0
 10
77.95160906302978
 20
20.89707334623578
 30
0.0
 10
77.957234064034
 20
20.89258264122561
 30
0.0
 10
77.96246757352608
 20
20.88649107440166
 30
0.0
 10
77.96720666323213
 20
20.87908147964022
 30
0.0
 10
77.97134612070589
 20
20.87062423671808
 30
0.0
 10
77.97488668080358
 20
20.86144865895923
 30
0.0
 10
77.97666029014036
 20
20.85508695586537
 30
0.0
 10
77.97754711651235
 20
20.85190602647053
 30
0.0
  0
SPLINE
  5
30A
330
1F
100
AcDbEntity
  8
SLD-0
  6
Continuous
370
    15
100
AcDbSpline
210
0.0
220
0.0
230
1.0
 70
     8
 71
     3
 72
    15
 73
    11
 74
     0
 42
0.00000001
 43
0.00000001
 12
1.0
 22
0.0
 32
0.0
 13
1.0
 23
0.0
 33
0.0
 40
0.0
 40
0.0
 40
0.0
 40
0.0
 40
0.1250008475318056
 40
0.2499977985660424
 40
0.3750006158518364
 40
0.500000104165665
 40
0.6250005486914622
 40
0.7499990960378289
 40
0.8749984608459377
 40
0.9999999999999999
 40
0.9999999999999999
 40
0.9999999999999999
 40
0.9999999999999999
 10
89.97833045577248
 20
20.85190602647053
 30
0.0
 10
89.98019247482587
 20
20.8550869777383
 30
0.0
 10
89.98391645489022
 20
20.86144878111796
 30
0.0
 10
89.98862322158439
 20
20.87062405349423
 30
0.0
 10
89.99272956410383
 20
20.87908170964902
 30
0.0
 10
89.9962365821483
 20
20.88649105343064
 30
0.0
 10
89.9992502583341
 20
20.89258243739942
 30
0.0
 10
90.00187254727095
 20
20.8970735128339
 30
0.0
 10
90.0042237368999
 20
20.89996332826329
 30
0.0
 10
90.00570024428556
 20
20.90032517839757
 30
0.0
 10
90.00643850439924
 20
20.90050610503828
 30
0.0
  0
LINE
  5
30B
330
1F
100
AcDbEntity
  8
SLD-0
  6
Continuous
370
    15
100
AcDbLine
 10
89.9783304558
 20
20.8519060265
 30
0.0
 11
77.9775471165
 21
20.8519060265
 31
0.0
  0
LINE
  5
30C
330
1F
100
AcDbEntity
  8
SLD-0
  6
Continuous
370
    15
100
AcDbLine
 10
90.0064385044
 20
20.900506105
 30
0.0
 11
77.9396820339
 21
20.900506105
 31
0.0
  0
LINE
  5
30D
330
1F
100
AcDbEntity
  8
SLD-0
  6
Continuous
370
    15
100
AcDbLine
 10
77.9775471165
 20
20.8519060265
 30
0.0
 11
77.9649603286
 21
20.8519060265
 31
0.0
  0
SPLINE
  5
30E
330
1F
100
AcDbEntity
  8
SLD-0
  6
Continuous
370
    15
100
AcDbSpline
210
0.0
220
0.0
230
1.0
 70
     8
 71
     3
 72
    11
 73
     7
 74
     0
 42
0.00000001
 43
0.00000001
 12
1.0
 22
0.0
 32
0.0
 13
1.0
 23
0.0
 33
0.0
 40
0.0
 40
0.0
 40
0.0
 40
0.0
 40
0.2499909069707189
 40
0.4999974065566079
 40
0.7499982512668856
 40
0.9999999999999999
 40
0.9999999999999999
 40
0.9999999999999999
 40
0.9999999999999999
 10
77.93968203393301
 20
20.86690633318571
 30
0.0
 10
77.9420566559017
 20
20.86668062383318
 30
0.0
 10
77.9468060479507
 20
20.86622919105002
 30
0.0
 10
77.95357780824428
 20
20.86276126542999
 30
0.0
 10
77.95979233153234
 20
20.85780291515644
 30
0.0
 10
77.9632376608228
 20
20.85387165840179
 30
0.0
 10
77.96496032858266
 20
20.85190602647053
 30
0.0
  0
LINE
  5
30F
330
1F
100
AcDbEntity
  8
SLD-0
  6
Continuous
370
    15
100
AcDbLine
 10
77.9396820339
 20
20.900506105
 30
0.0
 11
77.9396820339
 21
20.8669063332
 31
0.0
  0
LINE
  5
310
330
1F
100
AcDbEntity
  8
SLD-0
  6
Continuous
370
    15
100
AcDbLine
 10
89.5286462639
 20
20.3669060826
 30
0.0
 11
89.9783304558
 21
20.8519060265
 31
0.0
  0
LINE
  5
311
330
1F
100
AcDbEntity
  8
SLD-0
  6
Continuous
370
    15
100
AcDbLine
 10
89.5286462639
 20
20.3669060826
 30
0.0
 11
78.1684265915
 21
20.3669060826
 31
0.0
  0
LINE
  5
312
330
1F
100
AcDbEntity
  8
SLD-0
  6
Continuous
370
    15
100
AcDbLine
 10
77.9775471165
 20
20.8519060265
 30
0.0
 11
78.1684265915
 21
20.3669060826
 31
0.0
  0
LINE
  5
313
330
1F
100
AcDbEntity
  8
SLD-0
  6
Continuous
370
    15
100
AcDbLine
 10
77.9649603286
 20
20.8519060265
 30
0.0
 11
78.1558398035
 21
20.3669060826
 31
0.0
  0
LINE
  5
314
330
1F
100
AcDbEntity
  8
SLD-0
  6
Continuous
370
    15
100
AcDbLine
 10
78.1684265915
 20
20.3669060826
 30
0.0
 11
78.1558398035
 21
20.3669060826
 31
0.0
  0
SPLINE
  5
315
330
1F
100
AcDbEntity
  8
SLD-0
  6
Continuous
370
    15
100
AcDbSpline
210
0.0
220
0.0
230
1.0
 70
     8
 71
     3
 72
    10
 73
     6
 74
     0
 42
0.00000001
 43
0.00000001
 12
1.0
 22
0.0
 32
0.0
 13
1.0
 23
0.0
 33
0.0
 40
0.0
 40
0.0
 40
0.0
 40
0.0
 40
0.1579640506658878
 40
0.5789687433705193
 40
1.0
 40
1.0
 40
1.0
 40
1.0
 10
89.98336751758391
 20
20.86068715169689
 30
0.0
 10
89.98467307833121
 20
20.86131611903391
 30
0.0
 10
89.989458210531
 20
20.86362140575709
 30
0.0
 10
89.9970392615603
 20
20.86618273083433
 30
0.0
 10
90.00330535756021
 20
20.86666512732915
 30
0.0
 10
90.00643850439924
 20
20.86690633318571
 30
0.0
  0
LINE
  5
316
330
1F
100
AcDbEntity
  8
SLD-0
  6
Continuous
370
    15
100
AcDbLine
 10
77.1741821037
 20
20.8669063332
 30
0.0
 11
77.9396820339
 21
20.8669063332
 31
0.0
  0
LINE
  5
317
330
1F
100
AcDbEntity
  8
SLD-0
  6
Continuous
370
    15
100
AcDbLine
 10
77.1741821037
 20
20.900506105
 30
0.0
 11
77.9396820339
 21
20.900506105
 31
0.0
  0
LINE
  5
318
330
1F
100
AcDbEntity
  8
SLD-0
  6
Continuous
370
    15
100
AcDbLine
 10
90.0064385044
 20
20.900506105
 30
0.0
 11
90.0064385044
 21
20.8669063332
 31
0.0
  0
LINE
  5
319
330
1F
100
AcDbEntity
  8
SLD-0
  6
Continuous
370
    15
100
AcDbLine
 10
90.3566814984
 20
20.900506105
 30
0.0
 11
90.3566814984
 21
20.8669063332
 31
0.0
  0
LINE
  5
31A
330
1F
100
AcDbEntity
  8
SLD-0
  6
Continuous
370
    15
100
AcDbLine
 10
90.3566814984
 20
20.8669063332
 30
0.0
 11
90.0064385044
 21
20.8669063332
 31
0.0
  0
LINE
  5
31B
330
1F
100
AcDbEntity
  8
SLD-0
  6
Continuous
370
    15
100
AcDbLine
 10
90.3566814984
 20
20.900506105
 30
0.0
 11
90.0064385044
 21
20.900506105
 31
0.0
  0
SPLINE
  5
31C
330
1F
100
AcDbEntity
  8
SLD-0
  6
Continuous
370
    15
100
AcDbSpline
210
0.0
220
0.0
230
1.0
 70
     8
 71
     3
 72
    15
 73
    11
 74
     0
 42
0.00000001
 43
0.00000001
 12
1.0
 22
0.0
 32
0.0
 13
1.0
 23
0.0
 33
0.0
 40
0.0
 40
0.0
 40
0.0
 40
0.0
 40
0.1250014589553586
 40
0.2500097498833897
 40
0.3750054512411055
 40
0.4999999135257646
 40
0.6250025942119369
 40
0.7500012489210687
 40
0.8749999503570802
 40
1.0
 40
1.0
 40
1.0
 40
1.0
 10
90.35668149836229
 20
20.90050610503828
 30
0.0
 10
90.35986240552262
 20
20.9003251504706
 30
0.0
 10
90.36622439369626
 20
20.89996323144515
 30
0.0
 10
90.37540038536434
 20
20.89707370229051
 30
0.0
 10
90.38385791309824
 20
20.89258255549014
 30
0.0
 10
90.39126629580528
 20
20.88649069333168
 30
0.0
 10
90.39735901763449
 20
20.87908207215564
 30
0.0
 10
90.40184819935251
 20
20.87062373815581
 30
0.0
 10
90.40474074837887
 20
20.8614489350823
 30
0.0
 10
90.40510130009818
 20
20.8550870074441
 30
0.0
 10
90.40528157693004
 20
20.85190602647053
 30
0.0
  0
LINE
  5
31D
330
1F
100
AcDbEntity
  8
SLD-0
  6
Continuous
370
    15
100
AcDbLine
 10
90.4052815769
 20
20.8519060265
 30
0.0
 11
90.3716823917
 21
20.8519060265
 31
0.0
  0
SPLINE
  5
31E
330
1F
100
AcDbEntity
  8
SLD-0
  6
Continuous
370
    15
100
AcDbSpline
210
0.0
220
0.0
230
1.0
 70
     8
 71
     3
 72
    11
 73
     7
 74
     0
 42
0.00000001
 43
0.00000001
 12
1.0
 22
0.0
 32
0.0
 13
1.0
 23
0.0
 33
0.0
 40
0.0
 40
0.0
 40
0.0
 40
0.0
 40
0.250013024440574
 40
0.500000685588166
 40
0.7500038802929484
 40
1.0
 40
1.0
 40
1.0
 40
1.0
 10
90.35668149836229
 20
20.86690633318571
 30
0.0
 10
90.35864743721898
 20
20.8666806891447
 30
0.0
 10
90.36257911549204
 20
20.86622942395379
 30
0.0
 10
90.36753616982071
 20
20.86276102809935
 30
0.0
 10
90.37100647074404
 20
20.85780304051962
 30
0.0
 10
90.371457086865
 20
20.85387167927729
 30
0.0
 10
90.37168239173735
 20
20.85190602647053
 30
0.0
  0
LINE
  5
31F
330
1F
100
AcDbEntity
  8
SLD-0
  6
Continuous
370
    15
100
AcDbLine
 10
90.3716823917
 20
20.8519060265
 30
0.0
 11
90.3716823917
 21
20.3669060826
 31
0.0
  0
LINE
  5
320
330
1F
100
AcDbEntity
  8
SLD-0
  6
Continuous
370
    15
100
AcDbLine
 10
90.4052815769
 20
20.8519060265
 30
0.0
 11
90.4052815769
 21
20.3669060826
 31
0.0
  0
LINE
  5
321
330
1F
100
AcDbEntity
  8
SLD-0
  6
Continuous
370
    15
100
AcDbLine
 10
90.4052815769
 20
20.3669060826
 30
0.0
 11
90.3716823917
 21
20.3669060826
 31
0.0
  0
SPLINE
  5
322
330
1F
100
AcDbEntity
  8
SLD-0
  6
Continuous
370
    15
100
AcDbSpline
210
0.0
220
0.0
230
1.0
 70
     8
 71
     3
 72
    15
 73
    11
 74
     0
 42
0.00000001
 43
0.00000001
 12
1.0
 22
0.0
 32
0.0
 13
1.0
 23
0.0
 33
0.0
 40
0.0
 40
0.0
 40
0.0
 40
0.0
 40
0.1250026543349042
 40
0.2500060268257217
 40
0.3750055109423636
 40
0.5000025756176859
 40
0.6250009126268189
 40
0.7500050098680429
 40
0.8750022613496374
 40
1.0
 40
1.0
 40
1.0
 40
1.0
 10
77.97549351356908
 20
2.851906390668988
 30
0.0
 10
77.97460665749398
 20
2.848725477330657
 30
0.0
 10
77.97283294024868
 20
2.842363632379242
 30
0.0
 10
77.9692927965684
 20
2.83318781069966
 30
0.0
 10
77.9651528902607
 20
2.824730874875763
 30
0.0
 10
77.96041399480578
 20
2.817321326160166
 30
0.0
 10
77.95518045460206
 20
2.811229780354615
 30
0.0
 10
77.94955546181674
 20
2.806739069719602
 30
0.0
 10
77.9436604225017
 20
2.8038490758002
 30
0.0
 10
77.9396390974392
 20
2.803487233569271
 30
0.0
 10
77.93762843098975
 20
2.803306312101243
 30
0.0
  0
LINE
  5
323
330
1F
100
AcDbEntity
  8
SLD-0
  6
Continuous
370
    15
100
AcDbLine
 10
89.9862175113
 20
2.8519063907
 30
0.0
 11
77.9754935136
 21
2.8519063907
 31
0.0
  0
SPLINE
  5
324
330
1F
100
AcDbEntity
  8
SLD-0
  6
Continuous
370
    15
100
AcDbSpline
210
0.0
220
0.0
230
1.0
 70
     8
 71
     3
 72
    15
 73
    11
 74
     0
 42
0.00000001
 43
0.00000001
 12
1.0
 22
0.0
 32
0.0
 13
1.0
 23
0.0
 33
0.0
 40
0.0
 40
0.0
 40
0.0
 40
0.0
 40
0.1250030604087858
 40
0.2500033411525909
 40
0.3750001354908334
 40
0.5000006848585621
 40
0.6249967601121766
 40
0.7499959364579079
 40
0.8749983548829559
 40
1.0
 40
1.0
 40
1.0
 40
1.0
 10
89.98672321215199
 20
2.803306312101243
 30
0.0
 10
89.98713532315408
 20
2.803487241058814
 30
0.0
 10
89.9879595359943
 20
2.803849094950669
 30
0.0
 10
89.98905712193822
 20
2.806738840050126
 30
0.0
 10
89.98988606797397
 20
2.811230064412578
 30
0.0
 10
89.99032329583042
 20
2.817321183666055
 30
0.0
 10
89.99026568585109
 20
2.824730925374165
 30
0.0
 10
89.98960832937779
 20
2.833187774306807
 30
0.0
 10
89.98835297575776
 20
2.842363635115079
 30
0.0
 10
89.9869293313362
 20
2.848725478710463
 30
0.0
 10
89.98621751132721
 20
2.851906390668988
 30
0.0
  0
LINE
  5
325
330
1F
100
AcDbEntity
  8
SLD-0
  6
Continuous
370
    15
100
AcDbLine
 10
89.9867232122
 20
2.8033063121
 30
0.0
 11
77.937628431
 21
2.8033063121
 31
0.0
  0
LINE
  5
326
330
1F
100
AcDbEntity
  8
SLD-0
  6
Continuous
370
    15
100
AcDbLine
 10
77.937628431
 20
2.836906084
 30
0.0
 11
77.937628431
 21
2.8033063121
 31
0.0
  0
SPLINE
  5
327
330
1F
100
AcDbEntity
  8
SLD-0
  6
Continuous
370
    15
100
AcDbSpline
210
0.0
220
0.0
230
1.0
 70
     8
 71
     3
 72
    11
 73
     7
 74
     0
 42
0.00000001
 43
0.00000001
 12
1.0
 22
0.0
 32
0.0
 13
1.0
 23
0.0
 33
0.0
 40
0.0
 40
0.0
 40
0.0
 40
0.0
 40
0.2500005082792955
 40
0.5000001125402398
 40
0.7500130195644825
 40
0.9999999999999999
 40
0.9999999999999999
 40
0.9999999999999999
 40
0.9999999999999999
 10
77.9629067256394
 20
2.851906390668988
 30
0.0
 10
77.96118406461277
 20
2.849940740273857
 30
0.0
 10
77.95773874878876
 20
2.846009446591514
 30
0.0
 10
77.95152406113041
 20
2.841051322718732
 30
0.0
 10
77.9447526313174
 20
2.837582344480189
 30
0.0
 10
77.9400030823392
 20
2.837131496336628
 30
0.0
 10
77.93762843098975
 20
2.836906083953811
 30
0.0
  0
LINE
  5
328
330
1F
100
AcDbEntity
  8
SLD-0
  6
Continuous
370
    15
100
AcDbLine
 10
77.9629067256
 20
2.8519063907
 30
0.0
 11
77.9754935136
 21
2.8519063907
 31
0.0
  0
LINE
  5
329
330
1F
100
AcDbEntity
  8
SLD-0
  6
Continuous
370
    15
100
AcDbLine
 10
89.5371422724
 20
3.3369063346
 30
0.0
 11
78.1663732818
 21
3.3369063346
 31
0.0
  0
LINE
  5
32A
330
1F
100
AcDbEntity
  8
SLD-0
  6
Continuous
370
    15
100
AcDbLine
 10
89.9858033294
 20
2.8530087246
 30
0.0
 11
89.5371422724
 21
3.3369063346
 31
0.0
  0
LINE
  5
32B
330
1F
100
AcDbEntity
  8
SLD-0
  6
Continuous
370
    15
100
AcDbLine
 10
89.9862175113
 20
2.8519063907
 30
0.0
 11
89.9858033294
 21
2.8530087246
 31
0.0
  0
LINE
  5
32C
330
1F
100
AcDbEntity
  8
SLD-0
  6
Continuous
370
    15
100
AcDbLine
 10
78.1663732818
 20
3.3369063346
 30
0.0
 11
77.9754935136
 21
2.8519063907
 31
0.0
  0
LINE
  5
32D
330
1F
100
AcDbEntity
  8
SLD-0
  6
Continuous
370
    15
100
AcDbLine
 10
78.1537864939
 20
3.3369063346
 30
0.0
 11
78.1663732818
 21
3.3369063346
 31
0.0
  0
LINE
  5
32E
330
1F
100
AcDbEntity
  8
SLD-0
  6
Continuous
370
    15
100
AcDbLine
 10
78.1537864939
 20
3.3369063346
 30
0.0
 11
77.9629067256
 21
2.8519063907
 31
0.0
  0
LINE
  5
32F
330
1F
100
AcDbEntity
  8
SLD-0
  6
Continuous
370
    15
100
AcDbLine
 10
77.937628431
 20
2.8033063121
 30
0.0
 11
77.8938785631
 21
2.8033063121
 31
0.0
  0
LINE
  5
330
330
1F
100
AcDbEntity
  8
SLD-0
  6
Continuous
370
    15
100
AcDbLine
 10
77.8938785631
 20
2.836906084
 30
0.0
 11
77.8938785631
 21
2.8033063121
 31
0.0
  0
LINE
  5
331
330
1F
100
AcDbEntity
  8
SLD-0
  6
Continuous
370
    15
100
AcDbLine
 10
77.937628431
 20
2.836906084
 30
0.0
 11
77.8938785631
 21
2.836906084
 31
0.0
  0
LINE
  5
332
330
1F
100
AcDbEntity
  8
SLD-0
  6
Continuous
370
    15
100
AcDbLine
 10
77.0018784809
 20
2.836906084
 30
0.0
 11
77.0018784809
 21
2.8033063121
 31
0.0
  0
LINE
  5
333
330
1F
100
AcDbEntity
  8
SLD-0
  6
Continuous
370
    15
100
AcDbLine
 10
77.8938785631
 20
2.8033063121
 30
0.0
 11
77.0018784809
 21
2.8033063121
 31
0.0
  0
LINE
  5
334
330
1F
100
AcDbEntity
  8
SLD-0
  6
Continuous
370
    15
100
AcDbLine
 10
77.8938785631
 20
2.836906084
 30
0.0
 11
77.0018784809
 21
2.836906084
 31
0.0
  0
ARC
  5
335
330
1F
100
AcDbEntity
  8
SLD-0
  6
Continuous
370
    15
100
AcDbCircle
 10
77.0018784956
 20
2.8519061938
 30
0.0
 40
0.0150000000000028
100
AcDbArc
 50
180.0
 51
270.0
  0
ARC
  5
336
330
1F
100
AcDbEntity
  8
SLD-0
  6
Continuous
370
    15
100
AcDbCircle
 10
77.0018784956
 20
2.8519061938
 30
0.0
 40
0.0486
100
AcDbArc
 50
180.0
 51
270.0
  0
LINE
  5
337
330
1F
100
AcDbEntity
  8
SLD-0
  6
Continuous
370
    15
100
AcDbLine
 10
90.3626290563
 20
2.836906084
 30
0.0
 11
90.3626290563
 21
2.8033063121
 31
0.0
  0
LINE
  5
338
330
1F
100
AcDbEntity
  8
SLD-0
  6
Continuous
370
    15
100
AcDbLine
 10
89.9867232122
 20
2.8033063121
 30
0.0
 11
90.3626290563
 21
2.8033063121
 31
0.0
  0
LINE
  5
339
330
1F
100
AcDbEntity
  8
SLD-0
  6
Continuous
370
    15
100
AcDbLine
 10
89.9889947592
 20
2.836906084
 30
0.0
 11
90.3626290563
 21
2.836906084
 31
0.0
  0
LINE
  5
33A
330
1F
100
AcDbEntity
  8
SLD-0
  6
Continuous
370
    15
100
AcDbLine
 10
90.3776287764
 20
2.8519063907
 30
0.0
 11
90.4112279616
 21
2.8519063907
 31
0.0
  0
SPLINE
  5
33B
330
1F
100
AcDbEntity
  8
SLD-0
  6
Continuous
370
    15
100
AcDbSpline
210
0.0
220
0.0
230
1.0
 70
     8
 71
     3
 72
    11
 73
     7
 74
     0
 42
0.00000001
 43
0.00000001
 12
1.0
 22
0.0
 32
0.0
 13
1.0
 23
0.0
 33
0.0
 40
0.0
 40
0.0
 40
0.0
 40
0.0
 40
0.2500018741319827
 40
0.500010823424549
 40
0.7500122256318745
 40
0.9999999999999999
 40
0.9999999999999999
 40
0.9999999999999999
 40
0.9999999999999999
 10
90.37762877637755
 20
2.851906390668988
 30
0.0
 10
90.37740347400614
 20
2.849940719649949
 30
0.0
 10
90.37695286288717
 20
2.846009321982535
 30
0.0
 10
90.37348248749308
 20
2.841051554796239
 30
0.0
 10
90.36852570410149
 20
2.837582251097846
 30
0.0
 10
90.36459456986597
 20
2.837131468906274
 30
0.0
 10
90.36262905632226
 20
2.836906083953809
 30
0.0
  0
SPLINE
  5
33C
330
1F
100
AcDbEntity
  8
SLD-0
  6
Continuous
370
    15
100
AcDbSpline
210
0.0
220
0.0
230
1.0
 70
     8
 71
     3
 72
    15
 73
    11
 74
     0
 42
0.00000001
 43
0.00000001
 12
1.0
 22
0.0
 32
0.0
 13
1.0
 23
0.0
 33
0.0
 40
0.0
 40
0.0
 40
0.0
 40
0.0
 40
0.1250015226809711
 40
0.2500085800539035
 40
0.3750023639862388
 40
0.4999973910139486
 40
0.6250044459509885
 40
0.750001620295514
 40
0.875011384358714
 40
1.0
 40
1.0
 40
1.0
 40
1.0
 10
90.41122796157022
 20
2.851906390668988
 30
0.0
 10
90.41104764916618
 20
2.848725430567674
 30
0.0
 10
90.41068701637438
 20
2.84236336952169
 30
0.0
 10
90.40779493203706
 20
2.833188250301291
 30
0.0
 10
90.40330501828083
 20
2.824730723399919
 30
0.0
 10
90.39721397270769
 20
2.817320949221272
 30
0.0
 10
90.38980426630681
 20
2.811230266013099
 30
0.0
 10
90.38134685016327
 20
2.806738641365649
 30
0.0
 10
90.37217109024616
 20
2.80384931872176
 30
0.0
 10
90.36580955491382
 20
2.803487304099965
 30
0.0
 10
90.36262905632226
 20
2.803306312101243
 30
0.0
  0
LINE
  5
33D
330
1F
100
AcDbEntity
  8
SLD-0
  6
Continuous
370
    15
100
AcDbLine
 10
90.3776287764
 20
2.8519063907
 30
0.0
 11
90.3776287764
 21
3.3369063346
 31
0.0
  0
LINE
  5
33E
330
1F
100
AcDbEntity
  8
SLD-0
  6
Continuous
370
    15
100
AcDbLine
 10
90.3776287764
 20
3.3369063346
 30
0.0
 11
90.4112279616
 21
3.3369063346
 31
0.0
  0
LINE
  5
33F
330
1F
100
AcDbEntity
  8
SLD-0
  6
Continuous
370
    15
100
AcDbLine
 10
90.4112279616
 20
2.8519063907
 30
0.0
 11
90.4112279616
 21
3.3369063346
 31
0.0
  0
SPLINE
  5
340
330
1F
100
AcDbEntity
  8
SLD-0
  6
Continuous
370
    15
100
AcDbSpline
210
0.0
220
0.0
230
1.0
 70
     8
 71
     3
 72
     9
 73
     5
 74
     0
 42
0.00000001
 43
0.00000001
 12
1.0
 22
0.0
 32
0.0
 13
1.0
 23
0.0
 33
0.0
 40
0.0
 40
0.0
 40
0.0
 40
0.0
 40
0.6229328720127776
 40
0.9999999999999999
 40
0.9999999999999999
 40
0.9999999999999999
 40
0.9999999999999999
 10
89.98621751132721
 20
2.851906390668988
 30
0.0
 10
89.98695167825542
 20
2.848708022822048
 30
0.0
 10
89.98813024333231
 20
2.843573652827087
 30
0.0
 10
89.98875803837173
 20
2.838731790917988
 30
0.0
 10
89.9889947592442
 20
2.836906083953811
 30
0.0
  0
LINE
  5
341
330
1F
100
AcDbEntity
  8
SLD-0
  6
Continuous
370
    15
100
AcDbLine
 10
76.9042285022
 20
20.8519060265
 30
0.0
 11
76.9042285022
 21
8.8519061715
 31
0.0
  0
LINE
  5
342
330
1F
100
AcDbEntity
  8
SLD-0
  6
Continuous
370
    15
100
AcDbLine
 10
76.9438284848
 20
20.8519060265
 30
0.0
 11
76.9438284848
 21
8.8519061715
 31
0.0
  0
LINE
  5
343
330
1F
100
AcDbEntity
  8
SLD-0
  6
Continuous
370
    15
100
AcDbLine
 10
76.9042285022
 20
8.8519061715
 30
0.0
 11
76.9438284848
 21
8.8519061715
 31
0.0
  0
LINE
  5
344
330
1F
100
AcDbEntity
  8
SLD-0
  6
Continuous
370
    15
100
AcDbLine
 10
76.9042285022
 20
20.8519060265
 30
0.0
 11
76.9438284848
 21
20.8519060265
 31
0.0
  0
LINE
  5
345
330
1F
100
AcDbEntity
  8
SLD-0
  6
Continuous
370
    15
100
AcDbLine
 10
76.9438284848
 20
3.226906432
 30
0.0
 11
76.9042285022
 21
3.226906432
 31
0.0
  0
LINE
  5
346
330
1F
100
AcDbEntity
  8
SLD-0
  6
Continuous
370
    15
100
AcDbLine
 10
76.9042285022
 20
7.3519062996
 30
0.0
 11
76.9042285022
 21
3.226906432
 31
0.0
  0
LINE
  5
347
330
1F
100
AcDbEntity
  8
SLD-0
  6
Continuous
370
    15
100
AcDbLine
 10
76.9438284848
 20
7.3519062996
 30
0.0
 11
76.9438284848
 21
3.226906432
 31
0.0
  0
LINE
  5
348
330
1F
100
AcDbEntity
  8
SLD-0
  6
Continuous
370
    15
100
AcDbLine
 10
76.9042285022
 20
7.3519062996
 30
0.0
 11
76.9438284848
 21
7.3519062996
 31
0.0
  0
LINE
  5
349
330
1F
100
AcDbEntity
  8
SLD-0
  6
Continuous
370
    15
100
AcDbLine
 10
76.9438284848
 20
2.8519063907
 30
0.0
 11
76.9438284848
 21
3.226906432
 31
0.0
  0
LINE
  5
34A
330
1F
100
AcDbEntity
  8
SLD-0
  6
Continuous
370
    15
100
AcDbLine
 10
76.9042285022
 20
2.8519063907
 30
0.0
 11
76.9438284848
 21
2.8519063907
 31
0.0
  0
LINE
  5
34B
330
1F
100
AcDbEntity
  8
SLD-0
  6
Continuous
370
    15
100
AcDbLine
 10
76.9042285022
 20
3.226906432
 30
0.0
 11
76.9042285022
 21
2.8519063907
 31
0.0
  0
LINE
  5
34C
330
1F
100
AcDbEntity
  8
SLD-0
  6
Continuous
370
    15
100
AcDbLine
 10
76.9438284848
 20
8.8519061715
 30
0.0
 11
76.9438284848
 21
7.3519062996
 31
0.0
  0
LINE
  5
34D
330
1F
100
AcDbEntity
  8
SLD-0
  6
Continuous
370
    15
100
AcDbLine
 10
76.9042285022
 20
8.8459062541
 30
0.0
 11
76.9042285022
 21
7.3519062996
 31
0.0
  0
LINE
  5
34E
330
1F
100
AcDbEntity
  8
SLD-0
  6
Continuous
370
    15
100
AcDbLine
 10
76.9588284982
 20
20.8519060265
 30
0.0
 11
76.9588284982
 21
2.8519063907
 31
0.0
  0
LINE
  5
34F
330
1F
100
AcDbEntity
  8
SLD-0
  6
Continuous
370
    15
100
AcDbLine
 10
76.9588284982
 20
20.8519060265
 30
0.0
 11
76.9438284848
 21
20.8519060265
 31
0.0
  0
LINE
  5
350
330
1F
100
AcDbEntity
  8
SLD-0
  6
Continuous
370
    15
100
AcDbLine
 10
76.9438284848
 20
2.8519063907
 30
0.0
 11
76.9588284982
 21
2.8519063907
 31
0.0
  0
LINE
  5
351
330
1F
100
AcDbEntity
  8
SLD-0
  6
Continuous
370
    15
100
AcDbLine
 10
76.9588284982
 20
20.8519060265
 30
0.0
 11
77.9482152954
 21
20.8519060265
 31
0.0
  0
LINE
  5
352
330
1F
100
AcDbEntity
  8
SLD-0
  6
Continuous
370
    15
100
AcDbLine
 10
77.9482152954
 20
20.8519060265
 30
0.0
 11
77.9482152954
 21
2.8519063907
 31
0.0
  0
LINE
  5
353
330
1F
100
AcDbEntity
  8
SLD-0
  6
Continuous
370
    15
100
AcDbLine
 10
76.9588284982
 20
2.8519063907
 30
0.0
 11
77.9482152954
 21
2.8519063907
 31
0.0
  0
LINE
  5
354
330
1F
100
AcDbEntity
  8
SLD-0
  6
Continuous
370
    15
100
AcDbLine
 10
77.9482152954
 20
2.8519063907
 30
0.0
 11
77.9630486973
 21
2.8519063907
 31
0.0
  0
LINE
  5
355
330
1F
100
AcDbEntity
  8
SLD-0
  6
Continuous
370
    15
100
AcDbLine
 10
77.9650929137
 20
20.8519060265
 30
0.0
 11
77.9482152954
 21
20.8519060265
 31
0.0
  0
LINE
  5
356
330
1F
100
AcDbEntity
  8
SLD-0
  6
Continuous
370
    15
100
AcDbLine
 10
89.9783304558
 20
20.8519060265
 30
0.0
 11
90.3366822627
 21
20.8519060265
 31
0.0
  0
LINE
  5
357
330
1F
100
AcDbEntity
  8
SLD-0
  6
Continuous
370
    15
100
AcDbLine
 10
90.3366822627
 20
20.8519060265
 30
0.0
 11
90.3366822627
 21
2.8519063907
 31
0.0
  0
LINE
  5
358
330
1F
100
AcDbEntity
  8
SLD-0
  6
Continuous
370
    15
100
AcDbLine
 10
89.9862175113
 20
2.8519063907
 30
0.0
 11
90.3366822627
 21
2.8519063907
 31
0.0
  0
LWPOLYLINE
  5
359
330
1F
100
AcDbEntity
  8
SLD-0
  6
Continuous
370
    15
100
AcDbPolyline
 90
      150
 70
   128
 43
0.0
 10
85.3426378744
 20
4.8519062198
 10
85.3434885312
 20
4.8953800643
 10
85.3460369818
 20
4.9387764696
 10
85.3502785328
 20
4.9820191701
 10
85.3562073176
 20
5.0250295532
 10
85.3638127764
 20
5.0677325266
 10
85.373079656
 20
5.1100518244
 10
85.3839927033
 20
5.1519123541
 10
85.3965319718
 20
5.1932396101
 10
85.4106763417
 20
5.233959673
 10
85.4263988267
 20
5.2740003838
 10
85.4436724405
 20
5.3132907565
 10
85.4624666767
 20
5.3517603921
 10
85.4827486825
 20
5.3893418247
 10
85.5044809114
 20
5.4259675882
 10
85.527624644
 20
5.4615725636
 10
85.5521399875
 20
5.4960933915
 10
85.577983529
 20
5.5294690592
 10
85.6051083356
 20
5.5616403143
 10
85.6334663013
 20
5.5925496639
 10
85.6630069734
 20
5.622141962
 10
85.6936775524
 20
5.650364996
 10
85.725425239
 20
5.677168313
 10
85.7581913672
 20
5.702503807
 10
85.7919196175
 20
5.7263274784
 10
85.8265489775
 20
5.7485965012
 10
85.8620172611
 20
5.769271569
 10
85.8982622824
 20
5.7883151357
 10
85.9352195088
 20
5.8056937616
 10
85.9728232344
 20
5.8213769404
 10
86.01100658
 20
5.8353359258
 10
86.049701493
 20
5.8475466648
 10
86.0888399208
 20
5.8579874508
 10
86.1283514644
 20
5.8666389242
 10
86.1681657245
 20
5.8734864185
 10
86.2082123018
 20
5.8785176137
 10
86.248419624
 20
5.88172371
 10
86.2887161185
 20
5.8830988407
 10
86.3290313861
 20
5.8826406594
 10
86.369292681
 20
5.8803497525
 10
86.4094284307
 20
5.8762296401
 10
86.449368236
 20
5.8702891221
 10
86.489039351
 20
5.8625375849
 10
86.52837255
 20
5.8529896952
 10
86.5672974337
 20
5.8416612928
 10
86.6057459495
 20
5.8285734973
 10
86.6436476983
 20
5.8137491885
 10
86.6809369742
 20
5.7972147662
 10
86.7175457246
 20
5.7789989766
 10
86.7534105903
 20
5.7591358461
 10
86.7884670387
 20
5.7376588142
 10
86.8226528838
 20
5.7146077738
 10
86.8559082863
 20
5.6900226178
 10
86.8881722335
 20
5.6639467591
 10
86.9193884063
 20
5.636427717
 10
86.9495004851
 20
5.6075135977
 10
86.9784568439
 20
5.5772560272
 10
87.0062046834
 20
5.5457089783
 10
87.0326935507
 20
5.5129281837
 10
87.0578788597
 20
5.4789723092
 10
87.0817136777
 20
5.4439017811
 10
87.1041569385
 20
5.4077781984
 10
87.1251687491
 20
5.3706666804
 10
87.14471039
 20
5.3326323464
 10
87.1627490083
 20
5.293743249
 10
87.1792505776
 20
5.2540692007
 10
87.1941869384
 20
5.2136800139
 10
87.2075322776
 20
5.1726472613
 10
87.2192607821
 20
5.1310442752
 10
87.2293536789
 20
5.0889449749
 10
87.2377910214
 20
5.0464244527
 10
87.2445599032
 20
5.0035578013
 10
87.2496462444
 20
4.9604218729
 10
87.2530430052
 20
4.9170929335
 10
87.2547419722
 20
4.8736478353
 10
87.2547419722
 20
4.8301646043
 10
87.2530430052
 20
4.7867195062
 10
87.2496462444
 20
4.7433905667
 10
87.2445599032
 20
4.7002540517
 10
87.2377910214
 20
4.6573879869
 10
87.2293536789
 20
4.6148674648
 10
87.2192607821
 20
4.5727681645
 10
87.2075322776
 20
4.5311651784
 10
87.1941869384
 20
4.4901324257
 10
87.1792505776
 20
4.449743239
 10
87.1627490083
 20
4.410068604
 10
87.14471039
 20
4.3711800932
 10
87.1251687491
 20
4.3331457593
 10
87.1041569385
 20
4.2960342413
 10
87.0817136777
 20
4.2599106586
 10
87.0578788597
 20
4.2248401304
 10
87.0326935507
 20
4.190884256
 10
87.0062046834
 20
4.1581034614
 10
86.9784568439
 20
4.1265564125
 10
86.9495004851
 20
4.096298842
 10
86.9193884063
 20
4.0673847227
 10
86.8881722335
 20
4.0398656806
 10
86.8559082863
 20
4.0137898218
 10
86.8226528838
 20
3.9892046658
 10
86.7884670387
 20
3.9661530388
 10
86.7534105903
 20
3.9446765936
 10
86.7175457246
 20
3.9248128764
 10
86.6809369742
 20
3.9065976735
 10
86.6436476983
 20
3.8900632511
 10
86.6057459495
 20
3.8752389424
 10
86.5672974337
 20
3.8621511469
 10
86.52837255
 20
3.8508227444
 10
86.489039351
 20
3.8412748547
 10
86.449368236
 20
3.8335233176
 10
86.4094284307
 20
3.8275822129
 10
86.369292681
 20
3.8234626872
 10
86.3290313861
 20
3.8211717803
 10
86.2887161185
 20
3.8207135989
 10
86.248419624
 20
3.8220887297
 10
86.2082123018
 20
3.8252942393
 10
86.1681657245
 20
3.8303260212
 10
86.1283514644
 20
3.8371735154
 10
86.0888399208
 20
3.8458249888
 10
86.049701493
 20
3.8562657749
 10
86.01100658
 20
3.8684765138
 10
85.9728232344
 20
3.8824354992
 10
85.9352195088
 20
3.8981186781
 10
85.8982622824
 20
3.915497304
 10
85.8620172611
 20
3.9345408706
 10
85.8265489775
 20
3.9552159385
 10
85.7919196175
 20
3.9774843746
 10
85.7581913672
 20
4.001308046
 10
85.725425239
 20
4.0266441267
 10
85.6936775524
 20
4.0534474437
 10
85.6630069734
 20
4.0816704777
 10
85.6334663013
 20
4.1112627758
 10
85.6051083356
 20
4.1421721254
 10
85.577983529
 20
4.1743427938
 10
85.5521399875
 20
4.2077190482
 10
85.527624644
 20
4.2422398761
 10
85.5044809114
 20
4.2778448514
 10
85.4827486825
 20
4.314470615
 10
85.4624666767
 20
4.3520520475
 10
85.4436724405
 20
4.3905216831
 10
85.4263988267
 20
4.4298120559
 10
85.4106763417
 20
4.4698527667
 10
85.3965319718
 20
4.5105728296
 10
85.3839927033
 20
4.5519000855
 10
85.373079656
 20
4.5937600286
 10
85.3638127764
 20
4.6360793264
 10
85.3562073176
 20
4.6787828864
 10
85.3502785328
 20
4.7217932696
 10
85.3460369818
 20
4.7650353834
 10
85.3434885312
 20
4.8084323754
 10
85.3426378744
 20
4.8519062198
  0
LWPOLYLINE
  5
35A
330
1F
100
AcDbEntity
  8
SLD-0
  6
Continuous
370
    15
100
AcDbPolyline
 90
       91
 70
   128
 43
0.0
 10
82.4880705306
 20
19.8519061119
 10
82.4889176674
 20
19.8780646897
 10
82.4914543848
 20
19.9040959623
 10
82.4956683628
 20
19.9298732112
 10
82.501539655
 20
19.9552703045
 10
82.5090389283
 20
19.9801634569
 10
82.5181303966
 20
20.0044324032
 10
82.5287688871
 20
20.0279580515
 10
82.5409033602
 20
20.0506260029
 10
82.5544745635
 20
20.0723253789
 10
82.5694156175
 20
20.092951754
 10
82.5856543633
 20
20.1124030493
 10
82.6031121883
 20
20.1305853992
 10
82.6217028535
 20
20.1474102182
 10
82.6413366
 20
20.1627953738
 10
82.6619178023
 20
20.1766657736
 10
82.6833455547
 20
20.1889539516
 10
82.7055160186
 20
20.1996000686
 10
82.7283212485
 20
20.2085524985
 10
82.751649779
 20
20.2157672419
 10
82.7753883848
 20
20.221209099
 10
82.7994209071
 20
20.2248516703
 10
82.8236300141
 20
20.2266779425
 10
82.8478989605
 20
20.2266779425
 10
82.8721086541
 20
20.2248516703
 10
82.8961411765
 20
20.221209099
 10
82.9198791956
 20
20.2157672419
 10
82.9432077261
 20
20.2085524985
 10
82.966012956
 20
20.1996000686
 10
82.9881834199
 20
20.1889539516
 10
83.009611759
 20
20.1766657736
 10
83.0301923746
 20
20.1627953738
 10
83.0498261211
 20
20.1474102182
 10
83.068417373
 20
20.1305853992
 10
83.0858746113
 20
20.1124030493
 10
83.1021133571
 20
20.092951754
 10
83.1170549978
 20
20.0723253789
 10
83.1306256144
 20
20.0506260029
 10
83.1427600875
 20
20.0279580515
 10
83.153398578
 20
20.0044324032
 10
83.1624900463
 20
19.9801634569
 10
83.1699893196
 20
19.9552703045
 10
83.1758606118
 20
19.9298732112
 10
83.1800745898
 20
19.9040959623
 10
83.1826118938
 20
19.8780646897
 10
83.183458444
 20
19.8519061119
 10
83.1826118938
 20
19.8257475341
 10
83.1800745898
 20
19.7997162615
 10
83.1758606118
 20
19.7739395992
 10
83.1699893196
 20
19.7485419193
 10
83.1624900463
 20
19.7236487669
 10
83.153398578
 20
19.6993798206
 10
83.1427600875
 20
19.6758541723
 10
83.1306256144
 20
19.6531862209
 10
83.1170549978
 20
19.6314868449
 10
83.1021133571
 20
19.6108610565
 10
83.0858746113
 20
19.5914091745
 10
83.068417373
 20
19.5732268245
 10
83.0498261211
 20
19.5564020056
 10
83.0301923746
 20
19.54101685
 10
83.009611759
 20
19.5271464502
 10
82.9881834199
 20
19.5148582722
 10
82.966012956
 20
19.5042121551
 10
82.9432077261
 20
19.4952597252
 10
82.9198791956
 20
19.4880455686
 10
82.8961411765
 20
19.4826031248
 10
82.8721086541
 20
19.4789605535
 10
82.8478989605
 20
19.4771348679
 10
82.8236300141
 20
19.4771348679
 10
82.7994209071
 20
19.4789605535
 10
82.7753883848
 20
19.4826031248
 10
82.751649779
 20
19.4880455686
 10
82.7283212485
 20
19.4952597252
 10
82.7055160186
 20
19.5042121551
 10
82.6833455547
 20
19.5148582722
 10
82.6619178023
 20
19.5271464502
 10
82.6413366
 20
19.54101685
 10
82.6217028535
 20
19.5564020056
 10
82.6031121883
 20
19.5732268245
 10
82.5856543633
 20
19.5914091745
 10
82.5694156175
 20
19.6108610565
 10
82.5544745635
 20
19.6314868449
 10
82.5409033602
 20
19.6531862209
 10
82.5287688871
 20
19.6758541723
 10
82.5181303966
 20
19.6993798206
 10
82.5090389283
 20
19.7236487669
 10
82.501539655
 20
19.7485419193
 10
82.4956683628
 20
19.7739395992
 10
82.4914543848
 20
19.7997162615
 10
82.4889176674
 20
19.8257475341
 10
82.4880705306
 20
19.8519061119
  0
LINE
  5
35B
330
1F
100
AcDbEntity
  8
SLD-0
  6
Continuous
370
    15
100
AcDbLine
 10
78.8555150275
 20
5.8831563334
 30
0.0
 11
78.942670394
 21
5.8831563334
 31
0.0
  0
LINE
  5
35C
330
1F
100
AcDbEntity
  8
SLD-0
  6
Continuous
370
    15
100
AcDbLine
 10
78.8555150275
 20
3.8206561063
 30
0.0
 11
78.8555150275
 21
5.8831563334
 31
0.0
  0
LINE
  5
35D
330
1F
100
AcDbEntity
  8
SLD-0
  6
Continuous
370
    15
100
AcDbLine
 10
84.8242610894
 20
3.8206561063
 30
0.0
 11
78.8555150275
 21
3.8206561063
 31
0.0
  0
LINE
  5
35E
330
1F
100
AcDbEntity
  8
SLD-0
  6
Continuous
370
    15
100
AcDbLine
 10
84.8242610894
 20
5.8831563334
 30
0.0
 11
84.8242610894
 21
3.8206561063
 31
0.0
  0
LINE
  5
35F
330
1F
100
AcDbEntity
  8
SLD-0
  6
Continuous
370
    15
100
AcDbLine
 10
84.7371057228
 20
5.8831563334
 30
0.0
 11
84.8242610894
 21
5.8831563334
 31
0.0
  0
LINE
  5
360
330
1F
100
AcDbEntity
  8
SLD-0
  6
Continuous
370
    15
100
AcDbLine
 10
84.6212075417
 20
5.8831563334
 30
0.0
 11
84.7371057228
 21
5.8831563334
 31
0.0
  0
LINE
  5
361
330
1F
100
AcDbEntity
  8
SLD-0
  6
Continuous
370
    15
100
AcDbLine
 10
84.6212075417
 20
5.8989063915
 30
0.0
 11
84.6212075417
 21
5.8831563334
 31
0.0
  0
LINE
  5
362
330
1F
100
AcDbEntity
  8
SLD-0
  6
Continuous
370
    15
100
AcDbLine
 10
83.4668638635
 20
5.8989063915
 30
0.0
 11
84.6212075417
 21
5.8989063915
 31
0.0
  0
LINE
  5
363
330
1F
100
AcDbEntity
  8
SLD-0
  6
Continuous
370
    15
100
AcDbLine
 10
83.4668638635
 20
5.8831563334
 30
0.0
 11
83.4668638635
 21
5.8989063915
 31
0.0
  0
LINE
  5
364
330
1F
100
AcDbEntity
  8
SLD-0
  6
Continuous
370
    15
100
AcDbLine
 10
83.3509656823
 20
5.8831563334
 30
0.0
 11
83.4668638635
 21
5.8831563334
 31
0.0
  0
LINE
  5
365
330
1F
100
AcDbEntity
  8
SLD-0
  6
Continuous
370
    15
100
AcDbLine
 10
83.3509656823
 20
5.8989063915
 30
0.0
 11
83.3509656823
 21
5.8831563334
 31
0.0
  0
LINE
  5
366
330
1F
100
AcDbEntity
  8
SLD-0
  6
Continuous
370
    15
100
AcDbLine
 10
80.3288101412
 20
5.8989063915
 30
0.0
 11
83.3509656823
 21
5.8989063915
 31
0.0
  0
LINE
  5
367
330
1F
100
AcDbEntity
  8
SLD-0
  6
Continuous
370
    15
100
AcDbLine
 10
80.3288101412
 20
5.8831563334
 30
0.0
 11
80.3288101412
 21
5.8989063915
 31
0.0
  0
LINE
  5
368
330
1F
100
AcDbEntity
  8
SLD-0
  6
Continuous
370
    15
100
AcDbLine
 10
80.2129119601
 20
5.8831563334
 30
0.0
 11
80.3288101412
 21
5.8831563334
 31
0.0
  0
LINE
  5
369
330
1F
100
AcDbEntity
  8
SLD-0
  6
Continuous
370
    15
100
AcDbLine
 10
80.2129119601
 20
5.8989063915
 30
0.0
 11
80.2129119601
 21
5.8831563334
 31
0.0
  0
LINE
  5
36A
330
1F
100
AcDbEntity
  8
SLD-0
  6
Continuous
370
    15
100
AcDbLine
 10
79.0585682818
 20
5.8989063915
 30
0.0
 11
80.2129119601
 21
5.8989063915
 31
0.0
  0
LINE
  5
36B
330
1F
100
AcDbEntity
  8
SLD-0
  6
Continuous
370
    15
100
AcDbLine
 10
79.0585682818
 20
5.8831563334
 30
0.0
 11
79.0585682818
 21
5.8989063915
 31
0.0
  0
LINE
  5
36C
330
1F
100
AcDbEntity
  8
SLD-0
  6
Continuous
370
    15
100
AcDbLine
 10
78.942670394
 20
5.8831563334
 30
0.0
 11
79.0585682818
 21
5.8831563334
 31
0.0
  0
LWPOLYLINE
  5
36D
330
1F
100
AcDbEntity
  8
SLD-0
  6
Continuous
370
    15
100
AcDbPolyline
 90
        9
 70
   128
 43
0.0
 10
79.0381146781
 20
5.8285564842
 10
79.0421051386
 20
5.829605432
 10
79.0459418943
 20
5.8327123828
 10
79.0494779868
 20
5.8377582445
 10
79.0525776043
 20
5.8445482461
 10
79.0551210683
 20
5.8528219105
 10
79.0570112865
 20
5.8622618548
 10
79.0581752197
 20
5.8725043498
 10
79.0585682818
 20
5.8831563334
  0
LINE
  5
36E
330
1F
100
AcDbEntity
  8
SLD-0
  6
Continuous
370
    15
100
AcDbLine
 10
78.9222167903
 20
5.8285564842
 30
0.0
 11
79.0381146781
 21
5.8285564842
 31
0.0
  0
LWPOLYLINE
  5
36F
330
1F
100
AcDbEntity
  8
SLD-0
  6
Continuous
370
    15
100
AcDbPolyline
 90
        9
 70
   128
 43
0.0
 10
78.942670394
 20
5.8831563334
 10
78.9422773319
 20
5.8725043498
 10
78.9411133986
 20
5.8622618548
 10
78.9392231805
 20
5.8528219105
 10
78.9366794232
 20
5.8445482461
 10
78.933580099
 20
5.8377582445
 10
78.9300440065
 20
5.8327123828
 10
78.9262069575
 20
5.829605432
 10
78.9222167903
 20
5.8285564842
  0
LINE
  5
370
330
1F
100
AcDbEntity
  8
SLD-0
  6
Continuous
370
    15
100
AcDbLine
 10
78.9222167903
 20
5.8285564842
 30
0.0
 11
78.9222167903
 21
5.8681560267
 31
0.0
  0
LWPOLYLINE
  5
371
330
1F
100
AcDbEntity
  8
SLD-0
  6
Continuous
370
    15
100
AcDbPolyline
 90
        9
 70
   128
 43
0.0
 10
78.9278358187
 20
5.8831563334
 10
78.9277278733
 20
5.8802300739
 10
78.9274081436
 20
5.8774158664
 10
78.9268889496
 20
5.8748228297
 10
78.9261899444
 20
5.8725495226
 10
78.9253384075
 20
5.8706839442
 10
78.9243671921
 20
5.8692982535
 10
78.9233129643
 20
5.8684446634
 10
78.9222167903
 20
5.8681560267
  0
LINE
  5
372
330
1F
100
AcDbEntity
  8
SLD-0
  6
Continuous
370
    15
100
AcDbLine
 10
78.9222167903
 20
5.8285564842
 30
0.0
 11
78.8555150275
 21
5.8285564842
 31
0.0
  0
LINE
  5
373
330
1F
100
AcDbEntity
  8
SLD-0
  6
Continuous
370
    15
100
AcDbLine
 10
78.8555150275
 20
5.8681560267
 30
0.0
 11
78.9222167903
 21
5.8681560267
 31
0.0
  0
LINE
  5
374
330
1F
100
AcDbEntity
  8
SLD-0
  6
Continuous
370
    15
100
AcDbLine
 10
80.1836229651
 20
5.8285564842
 30
0.0
 11
80.1836229651
 21
5.8681560267
 31
0.0
  0
LINE
  5
375
330
1F
100
AcDbEntity
  8
SLD-0
  6
Continuous
370
    15
100
AcDbLine
 10
80.1836229651
 20
5.8285564842
 30
0.0
 11
79.0381146781
 21
5.8285564842
 31
0.0
  0
LINE
  5
376
330
1F
100
AcDbEntity
  8
SLD-0
  6
Continuous
370
    15
100
AcDbLine
 10
79.0577812776
 20
5.8681560267
 30
0.0
 11
80.1836229651
 21
5.8681560267
 31
0.0
  0
LWPOLYLINE
  5
377
330
1F
100
AcDbEntity
  8
SLD-0
  6
Continuous
370
    15
100
AcDbPolyline
 90
        9
 70
   128
 43
0.0
 10
80.3083568308
 20
5.8285564842
 10
80.3123467047
 20
5.829605432
 10
80.316184047
 20
5.8327123828
 10
80.3197198462
 20
5.8377582445
 10
80.3228191704
 20
5.8445482461
 10
80.3253629277
 20
5.8528219105
 10
80.3272531458
 20
5.8622618548
 10
80.3284170791
 20
5.8725043498
 10
80.3288101412
 20
5.8831563334
  0
LWPOLYLINE
  5
378
330
1F
100
AcDbEntity
  8
SLD-0
  6
Continuous
370
    15
100
AcDbPolyline
 90
        9
 70
   128
 43
0.0
 10
80.2129119601
 20
5.8831563334
 10
80.2125188979
 20
5.8725043498
 10
80.2113549647
 20
5.8622618548
 10
80.2094653332
 20
5.8528219105
 10
80.2069215759
 20
5.8445482461
 10
80.2038222517
 20
5.8377582445
 10
80.2002858659
 20
5.8327123828
 10
80.1964488169
 20
5.829605432
 10
80.1924586497
 20
5.8285564842
  0
LINE
  5
379
330
1F
100
AcDbEntity
  8
SLD-0
  6
Continuous
370
    15
100
AcDbLine
 10
80.1924586497
 20
5.8285564842
 30
0.0
 11
80.3083568308
 21
5.8285564842
 31
0.0
  0
LINE
  5
37A
330
1F
100
AcDbEntity
  8
SLD-0
  6
Continuous
370
    15
100
AcDbLine
 10
80.2129119601
 20
5.8831563334
 30
0.0
 11
80.1980776781
 21
5.8831563334
 31
0.0
  0
LINE
  5
37B
330
1F
100
AcDbEntity
  8
SLD-0
  6
Continuous
370
    15
100
AcDbLine
 10
80.1924586497
 20
5.8285564842
 30
0.0
 11
80.1924586497
 21
5.8681560267
 31
0.0
  0
LWPOLYLINE
  5
37C
330
1F
100
AcDbEntity
  8
SLD-0
  6
Continuous
370
    15
100
AcDbPolyline
 90
        9
 70
   128
 43
0.0
 10
80.1980776781
 20
5.8831563334
 10
80.1979697327
 20
5.8802300739
 10
80.197650003
 20
5.8774158664
 10
80.197130809
 20
5.8748228297
 10
80.1964318038
 20
5.8725495226
 10
80.1955805603
 20
5.8706839442
 10
80.1946090515
 20
5.8692982535
 10
80.1935548237
 20
5.8684446634
 10
80.1924586497
 20
5.8681560267
  0
LINE
  5
37D
330
1F
100
AcDbEntity
  8
SLD-0
  6
Continuous
370
    15
100
AcDbLine
 10
80.1980776781
 20
5.8831563334
 30
0.0
 11
80.1980776781
 21
5.8989063915
 31
0.0
  0
LINE
  5
37E
330
1F
100
AcDbEntity
  8
SLD-0
  6
Continuous
370
    15
100
AcDbLine
 10
80.1924586497
 20
5.8285564842
 30
0.0
 11
80.1836229651
 21
5.8285564842
 31
0.0
  0
LINE
  5
37F
330
1F
100
AcDbEntity
  8
SLD-0
  6
Continuous
370
    15
100
AcDbLine
 10
80.1836229651
 20
5.8681560267
 30
0.0
 11
80.1924586497
 21
5.8681560267
 31
0.0
  0
LINE
  5
380
330
1F
100
AcDbEntity
  8
SLD-0
  6
Continuous
370
    15
100
AcDbLine
 10
83.3216766873
 20
5.8285564842
 30
0.0
 11
83.3216766873
 21
5.8681560267
 31
0.0
  0
LINE
  5
381
330
1F
100
AcDbEntity
  8
SLD-0
  6
Continuous
370
    15
100
AcDbLine
 10
83.3216766873
 20
5.8285564842
 30
0.0
 11
80.3083568308
 21
5.8285564842
 31
0.0
  0
LINE
  5
382
330
1F
100
AcDbEntity
  8
SLD-0
  6
Continuous
370
    15
100
AcDbLine
 10
80.3280228436
 20
5.8681560267
 30
0.0
 11
83.3216766873
 21
5.8681560267
 31
0.0
  0
ARC
  5
383
330
1F
100
AcDbEntity
  8
SLD-0
  6
Continuous
370
    15
100
AcDbCircle
 10
82.8072343568
 20
19.8657817992
 30
0.0
 40
0.361656088101585
100
AcDbArc
 50
357.8011886917
 51
86.6532476494
  0
ARC
  5
384
330
1F
100
AcDbEntity
  8
SLD-0
  6
Continuous
370
    15
100
AcDbCircle
 10
82.8059017646
 20
19.8392404663
 30
0.0
 40
0.3629434614887048
100
AcDbArc
 50
273.5456163636
 51
1.9998580594
  0
LINE
  5
385
330
1F
100
AcDbEntity
  8
SLD-0
  6
Continuous
370
    15
100
AcDbLine
 10
83.3509656823
 20
5.8831563334
 30
0.0
 11
83.3361314004
 21
5.8831563334
 31
0.0
  0
LWPOLYLINE
  5
386
330
1F
100
AcDbEntity
  8
SLD-0
  6
Continuous
370
    15
100
AcDbPolyline
 90
        9
 70
   128
 43
0.0
 10
83.3509656823
 20
5.8831563334
 10
83.3505726202
 20
5.8725043498
 10
83.349408687
 20
5.8622618548
 10
83.3475190555
 20
5.8528219105
 10
83.3449752982
 20
5.8445482461
 10
83.341875974
 20
5.8377582445
 10
83.3383395882
 20
5.8327123828
 10
83.3345028325
 20
5.829605432
 10
83.3305123719
 20
5.8285564842
  0
LINE
  5
387
330
1F
100
AcDbEntity
  8
SLD-0
  6
Continuous
370
    15
100
AcDbLine
 10
83.3305123719
 20
5.8285564842
 30
0.0
 11
83.3305123719
 21
5.8681560267
 31
0.0
  0
LWPOLYLINE
  5
388
330
1F
100
AcDbEntity
  8
SLD-0
  6
Continuous
370
    15
100
AcDbPolyline
 90
        9
 70
   128
 43
0.0
 10
83.3361314004
 20
5.8831563334
 10
83.3360234549
 20
5.8802300739
 10
83.3357037253
 20
5.8774158664
 10
83.3351845313
 20
5.8748228297
 10
83.3344858194
 20
5.8725495226
 10
83.3336339892
 20
5.8706839442
 10
83.3326624804
 20
5.8692982535
 10
83.3316088393
 20
5.8684446634
 10
83.3305123719
 20
5.8681560267
  0
LINE
  5
389
330
1F
100
AcDbEntity
  8
SLD-0
  6
Continuous
370
    15
100
AcDbLine
 10
83.3361314004
 20
5.8831563334
 30
0.0
 11
83.3361314004
 21
5.8989063915
 31
0.0
  0
LWPOLYLINE
  5
38A
330
1F
100
AcDbEntity
  8
SLD-0
  6
Continuous
370
    15
100
AcDbPolyline
 90
        9
 70
   128
 43
0.0
 10
83.4464105531
 20
5.8285564842
 10
83.450400427
 20
5.829605432
 10
83.4542377693
 20
5.8327123828
 10
83.4577735685
 20
5.8377582445
 10
83.4608734793
 20
5.8445482461
 10
83.4634166499
 20
5.8528219105
 10
83.4653068681
 20
5.8622618548
 10
83.4664708013
 20
5.8725043498
 10
83.4668638635
 20
5.8831563334
  0
LINE
  5
38B
330
1F
100
AcDbEntity
  8
SLD-0
  6
Continuous
370
    15
100
AcDbLine
 10
83.3305123719
 20
5.8285564842
 30
0.0
 11
83.4464105531
 21
5.8285564842
 31
0.0
  0
LINE
  5
38C
330
1F
100
AcDbEntity
  8
SLD-0
  6
Continuous
370
    15
100
AcDbLine
 10
83.3305123719
 20
5.8285564842
 30
0.0
 11
83.3216766873
 21
5.8285564842
 31
0.0
  0
LINE
  5
38D
330
1F
100
AcDbEntity
  8
SLD-0
  6
Continuous
370
    15
100
AcDbLine
 10
83.3216766873
 20
5.8681560267
 30
0.0
 11
83.3305123719
 21
5.8681560267
 31
0.0
  0
LINE
  5
38E
330
1F
100
AcDbEntity
  8
SLD-0
  6
Continuous
370
    15
100
AcDbLine
 10
84.5919185467
 20
5.8285564842
 30
0.0
 11
84.5919185467
 21
5.8681560267
 31
0.0
  0
LINE
  5
38F
330
1F
100
AcDbEntity
  8
SLD-0
  6
Continuous
370
    15
100
AcDbLine
 10
84.5919185467
 20
5.8285564842
 30
0.0
 11
83.4464105531
 21
5.8285564842
 31
0.0
  0
LINE
  5
390
330
1F
100
AcDbEntity
  8
SLD-0
  6
Continuous
370
    15
100
AcDbLine
 10
83.4660771525
 20
5.8681560267
 30
0.0
 11
84.5919185467
 21
5.8681560267
 31
0.0
  0
LINE
  5
391
330
1F
100
AcDbEntity
  8
SLD-0
  6
Continuous
370
    15
100
AcDbLine
 10
84.6212075417
 20
5.8831563334
 30
0.0
 11
84.6063732597
 21
5.8831563334
 31
0.0
  0
LWPOLYLINE
  5
392
330
1F
100
AcDbEntity
  8
SLD-0
  6
Continuous
370
    15
100
AcDbPolyline
 90
        9
 70
   128
 43
0.0
 10
84.6212075417
 20
5.8831563334
 10
84.6208150662
 20
5.8725043498
 10
84.619651133
 20
5.8622618548
 10
84.6177609149
 20
5.8528219105
 10
84.6152171576
 20
5.8445482461
 10
84.6121178334
 20
5.8377582445
 10
84.6085814476
 20
5.8327123828
 10
84.6047446919
 20
5.829605432
 10
84.6007542313
 20
5.8285564842
  0
LINE
  5
393
330
1F
100
AcDbEntity
  8
SLD-0
  6
Continuous
370
    15
100
AcDbLine
 10
84.6007542313
 20
5.8285564842
 30
0.0
 11
84.6007542313
 21
5.8681560267
 31
0.0
  0
LWPOLYLINE
  5
394
330
1F
100
AcDbEntity
  8
SLD-0
  6
Continuous
370
    15
100
AcDbPolyline
 90
        9
 70
   128
 43
0.0
 10
84.6063732597
 20
5.8831563334
 10
84.6062653143
 20
5.8802300739
 10
84.6059455847
 20
5.8774158664
 10
84.6054263907
 20
5.8748228297
 10
84.6047276788
 20
5.8725495226
 10
84.6038758486
 20
5.8706839442
 10
84.6029043398
 20
5.8692982535
 10
84.6018506987
 20
5.8684446634
 10
84.6007542313
 20
5.8681560267
  0
LWPOLYLINE
  5
395
330
1F
100
AcDbEntity
  8
SLD-0
  6
Continuous
370
    15
100
AcDbPolyline
 90
        9
 70
   128
 43
0.0
 10
84.7166524125
 20
5.8285564842
 10
84.7206422864
 20
5.829605432
 10
84.7244796287
 20
5.8327123828
 10
84.7280154279
 20
5.8377582445
 10
84.7311153387
 20
5.8445482461
 10
84.7336585093
 20
5.8528219105
 10
84.7355487275
 20
5.8622618548
 10
84.7367126607
 20
5.8725043498
 10
84.7371057228
 20
5.8831563334
  0
LINE
  5
396
330
1F
100
AcDbEntity
  8
SLD-0
  6
Continuous
370
    15
100
AcDbLine
 10
84.6007542313
 20
5.8285564842
 30
0.0
 11
84.7166524125
 21
5.8285564842
 31
0.0
  0
LINE
  5
397
330
1F
100
AcDbEntity
  8
SLD-0
  6
Continuous
370
    15
100
AcDbLine
 10
84.6063732597
 20
5.8831563334
 30
0.0
 11
84.6063732597
 21
5.8989063915
 31
0.0
  0
LINE
  5
398
330
1F
100
AcDbEntity
  8
SLD-0
  6
Continuous
370
    15
100
AcDbLine
 10
84.6007542313
 20
5.8285564842
 30
0.0
 11
84.5919185467
 21
5.8285564842
 31
0.0
  0
LINE
  5
399
330
1F
100
AcDbEntity
  8
SLD-0
  6
Continuous
370
    15
100
AcDbLine
 10
84.5919185467
 20
5.8681560267
 30
0.0
 11
84.6007542313
 21
5.8681560267
 31
0.0
  0
LINE
  5
39A
330
1F
100
AcDbEntity
  8
SLD-0
  6
Continuous
370
    15
100
AcDbLine
 10
84.8094268074
 20
3.8206561063
 30
0.0
 11
84.8094268074
 21
5.8831563334
 31
0.0
  0
LWPOLYLINE
  5
39B
330
1F
100
AcDbEntity
  8
SLD-0
  6
Continuous
370
    15
100
AcDbPolyline
 90
       39
 70
   128
 43
0.0
 10
87.2401200611
 20
4.8519062198
 10
87.2392705776
 20
4.8953800643
 10
87.2367221271
 20
4.9387764696
 10
87.2324794027
 20
4.9820191701
 10
87.2265506179
 20
5.0250295532
 10
87.2189451591
 20
5.0677325266
 10
87.2096782795
 20
5.1100518244
 10
87.1987652322
 20
5.1519123541
 10
87.1862259637
 20
5.1932396101
 10
87.1720815938
 20
5.233959673
 10
87.1563591088
 20
5.2740003838
 10
87.139085495
 20
5.3132907565
 10
87.1202912588
 20
5.3517603921
 10
87.1000104264
 20
5.3893418247
 10
87.0782781974
 20
5.4259675882
 10
87.0551332915
 20
5.4615725636
 10
87.030617948
 20
5.4960933915
 10
87.0047744065
 20
5.5294690592
 10
86.9776507732
 20
5.5616403143
 10
86.9492928075
 20
5.5925496639
 10
86.9197509621
 20
5.622141962
 10
86.8890803831
 20
5.650364996
 10
86.8573326965
 20
5.677168313
 10
86.8245665683
 20
5.702503807
 10
86.790838318
 20
5.7263274784
 10
86.7562101313
 20
5.7485965012
 10
86.7207406744
 20
5.769271569
 10
86.6844956531
 20
5.7883151357
 10
86.6475384267
 20
5.8056937616
 10
86.6099347011
 20
5.8213769404
 10
86.5717513555
 20
5.8353359258
 10
86.5330564425
 20
5.8475466648
 10
86.4939180147
 20
5.8579874508
 10
86.4544076444
 20
5.8666389242
 10
86.4145933844
 20
5.8734864185
 10
86.374546807
 20
5.8785176137
 10
86.3343394848
 20
5.88172371
 10
86.294041817
 20
5.8830988407
 10
86.2913795544
 20
5.8831252404
  0
LWPOLYLINE
  5
39C
330
1F
100
AcDbEntity
  8
SLD-0
  6
Continuous
370
    15
100
AcDbPolyline
 90
       39
 70
   128
 43
0.0
 10
86.2913795544
 20
3.8206871992
 10
86.294041817
 20
3.8207135989
 10
86.3343394848
 20
3.8220887297
 10
86.374546807
 20
3.8252942393
 10
86.4145933844
 20
3.8303260212
 10
86.4544076444
 20
3.8371735154
 10
86.4939180147
 20
3.8458249888
 10
86.5330564425
 20
3.8562657749
 10
86.5717513555
 20
3.8684765138
 10
86.6099347011
 20
3.8824354992
 10
86.6475384267
 20
3.8981186781
 10
86.6844956531
 20
3.915497304
 10
86.7207406744
 20
3.9345408706
 10
86.7562101313
 20
3.9552159385
 10
86.790838318
 20
3.9774843746
 10
86.8245665683
 20
4.001308046
 10
86.8573326965
 20
4.0266441267
 10
86.8890803831
 20
4.0534474437
 10
86.9197509621
 20
4.0816704777
 10
86.9492928075
 20
4.1112627758
 10
86.9776507732
 20
4.1421721254
 10
87.0047744065
 20
4.1743427938
 10
87.030617948
 20
4.2077190482
 10
87.0551332915
 20
4.2422398761
 10
87.0782781974
 20
4.2778448514
 10
87.1000104264
 20
4.314470615
 10
87.1202912588
 20
4.3520520475
 10
87.139085495
 20
4.3905216831
 10
87.1563591088
 20
4.4298120559
 10
87.1720815938
 20
4.4698527667
 10
87.1862259637
 20
4.5105728296
 10
87.1987652322
 20
4.5519000855
 10
87.2096782795
 20
4.5937600286
 10
87.2189451591
 20
4.6360793264
 10
87.2265506179
 20
4.6787828864
 10
87.2324794027
 20
4.7217932696
 10
87.2367221271
 20
4.7650353834
 10
87.2392705776
 20
4.8084323754
 10
87.2401200611
 20
4.8519062198
  0
LINE
  5
39D
330
1F
100
AcDbEntity
  8
SLD-0
  6
Continuous
370
    15
100
AcDbLine
 10
90.3708282149
 20
20.8519060265
 30
0.0
 11
90.3366822627
 21
20.8519060265
 31
0.0
  0
LINE
  5
39E
330
1F
100
AcDbEntity
  8
SLD-0
  6
Continuous
370
    15
100
AcDbLine
 10
90.3708282149
 20
20.8519060265
 30
0.0
 11
90.3708282149
 21
2.8519063907
 31
0.0
  0
LINE
  5
39F
330
1F
100
AcDbEntity
  8
SLD-0
  6
Continuous
370
    15
100
AcDbLine
 10
90.3366822627
 20
2.8519063907
 30
0.0
 11
90.3708282149
 21
2.8519063907
 31
0.0
  0
LINE
  5
3A0
330
1F
100
AcDbEntity
  8
SLD-0
  6
Continuous
370
    15
100
AcDbLine
 10
76.8761134137
 20
18.457052412
 30
0.0
 11
76.8761134137
 21
18.4324525895
 31
0.0
  0
LINE
  5
3A1
330
1F
100
AcDbEntity
  8
SLD-0
  6
Continuous
370
    15
100
AcDbLine
 10
76.8761134137
 20
6.1283021415
 30
0.0
 11
76.8761134137
 21
5.9100523427
 31
0.0
  0
LINE
  5
3A2
330
1F
100
AcDbEntity
  8
SLD-0
  6
Continuous
370
    15
100
AcDbLine
 10
76.3911133965
 20
18.457052412
 30
0.0
 11
76.3911133965
 21
5.9100523427
 31
0.0
  0
LINE
  5
3A3
330
1F
100
AcDbEntity
  8
SLD-0
  6
Continuous
370
    15
100
AcDbLine
 10
76.8761134137
 20
5.9100523427
 30
0.0
 11
76.3911133965
 21
5.9100523427
 31
0.0
  0
LINE
  5
3A4
330
1F
100
AcDbEntity
  8
SLD-0
  6
Continuous
370
    15
100
AcDbLine
 10
76.3911133965
 20
18.457052412
 30
0.0
 11
76.8761134137
 21
18.457052412
 31
0.0
  0
LINE
  5
3A5
330
1F
100
AcDbEntity
  8
SLD-0
  6
Continuous
370
    15
100
AcDbLine
 10
76.3161134029
 20
5.9100523427
 30
0.0
 11
76.3161134029
 21
18.457052412
 31
0.0
  0
LINE
  5
3A6
330
1F
100
AcDbEntity
  8
SLD-0
  6
Continuous
370
    15
100
AcDbLine
 10
76.3161134029
 20
18.457052412
 30
0.0
 11
76.3911133965
 21
18.457052412
 31
0.0
  0
LINE
  5
3A7
330
1F
100
AcDbEntity
  8
SLD-0
  6
Continuous
370
    15
100
AcDbLine
 10
76.3911133965
 20
5.9100523427
 30
0.0
 11
76.3161134029
 21
5.9100523427
 31
0.0
  0
LINE
  5
3A8
330
1F
100
AcDbEntity
  8
SLD-0
  6
Continuous
370
    15
100
AcDbLine
 10
76.751113351
 20
5.8950526227
 30
0.0
 11
76.751113351
 21
5.8350525691
 31
0.0
  0
LINE
  5
3A9
330
1F
100
AcDbEntity
  8
SLD-0
  6
Continuous
370
    15
100
AcDbLine
 10
76.751113351
 20
5.8350525691
 30
0.0
 11
76.3911133965
 21
5.8350525691
 31
0.0
  0
LINE
  5
3AA
330
1F
100
AcDbEntity
  8
SLD-0
  6
Continuous
370
    15
100
AcDbLine
 10
76.3911133965
 20
5.8350525691
 30
0.0
 11
76.3911133965
 21
5.8950526227
 31
0.0
  0
LINE
  5
3AB
330
1F
100
AcDbEntity
  8
SLD-0
  6
Continuous
370
    15
100
AcDbLine
 10
76.751113351
 20
5.8950526227
 30
0.0
 11
76.3911133965
 21
5.8950526227
 31
0.0
  0
ARC
  5
3AC
330
1F
100
AcDbEntity
  8
SLD-0
  6
Continuous
370
    15
100
AcDbCircle
 10
76.3911134004
 20
5.9100523938
 30
0.0
 40
0.0750000000000028
100
AcDbArc
 50
180.0
 51
270.0
  0
ARC
  5
3AD
330
1F
100
AcDbEntity
  8
SLD-0
  6
Continuous
370
    15
100
AcDbCircle
 10
76.3911134004
 20
5.9100523938
 30
0.0
 40
0.0150000000000006
100
AcDbArc
 50
180.0
 51
270.0
  0
ARC
  5
3AE
330
1F
100
AcDbEntity
  8
SLD-0
  6
Continuous
370
    15
100
AcDbCircle
 10
76.3911134004
 20
18.4570523938
 30
0.0
 40
0.0750000000000028
100
AcDbArc
 50
90.0
 51
180.0
  0
LINE
  5
3AF
330
1F
100
AcDbEntity
  8
SLD-0
  6
Continuous
370
    15
100
AcDbLine
 10
76.3911133965
 20
18.4720521321
 30
0.0
 11
76.3911133965
 21
18.5320521856
 31
0.0
  0
ARC
  5
3B0
330
1F
100
AcDbEntity
  8
SLD-0
  6
Continuous
370
    15
100
AcDbCircle
 10
76.3911134004
 20
18.4570523938
 30
0.0
 40
0.0150000000000006
100
AcDbArc
 50
90.0
 51
180.0
  0
LINE
  5
3B1
330
1F
100
AcDbEntity
  8
SLD-0
  6
Continuous
370
    15
100
AcDbLine
 10
76.751113351
 20
18.4720521321
 30
0.0
 11
76.751113351
 21
18.5320521856
 31
0.0
  0
LINE
  5
3B2
330
1F
100
AcDbEntity
  8
SLD-0
  6
Continuous
370
    15
100
AcDbLine
 10
76.3911133965
 20
18.5320521856
 30
0.0
 11
76.751113351
 21
18.5320521856
 31
0.0
  0
LINE
  5
3B3
330
1F
100
AcDbEntity
  8
SLD-0
  6
Continuous
370
    15
100
AcDbLine
 10
76.3911133965
 20
18.4720521321
 30
0.0
 11
76.751113351
 21
18.4720521321
 31
0.0
  0
LINE
  5
3B4
330
1F
100
AcDbEntity
  8
SLD-0
  6
Continuous
370
    15
100
AcDbLine
 10
76.751113351
 20
5.8350525691
 30
0.0
 11
76.9042285022
 21
5.8350525691
 31
0.0
  0
LINE
  5
3B5
330
1F
100
AcDbEntity
  8
SLD-0
  6
Continuous
370
    15
100
AcDbLine
 10
76.751113351
 20
5.8950526227
 30
0.0
 11
76.9042285022
 21
5.8950526227
 31
0.0
  0
LINE
  5
3B6
330
1F
100
AcDbEntity
  8
SLD-0
  6
Continuous
370
    15
100
AcDbLine
 10
76.9042285022
 20
18.5320521856
 30
0.0
 11
76.751113351
 21
18.5320521856
 31
0.0
  0
LINE
  5
3B7
330
1F
100
AcDbEntity
  8
SLD-0
  6
Continuous
370
    15
100
AcDbLine
 10
76.8856284504
 20
18.4720521321
 30
0.0
 11
76.751113351
 21
18.4720521321
 31
0.0
  0
LINE
  5
3B8
330
1F
100
AcDbEntity
  8
SLD-0
  6
Continuous
370
    15
100
AcDbLine
 10
76.8646285197
 20
17.5724526043
 30
0.0
 11
76.8310284545
 21
17.5724526043
 31
0.0
  0
LINE
  5
3B9
330
1F
100
AcDbEntity
  8
SLD-0
  6
Continuous
370
    15
100
AcDbLine
 10
76.8310284545
 20
17.5724526043
 30
0.0
 11
76.8310284545
 21
18.4174522828
 31
0.0
  0
LINE
  5
3BA
330
1F
100
AcDbEntity
  8
SLD-0
  6
Continuous
370
    15
100
AcDbLine
 10
76.8646285197
 20
18.4174522828
 30
0.0
 11
76.8310284545
 21
18.4174522828
 31
0.0
  0
ARC
  5
3BB
330
1F
100
AcDbEntity
  8
SLD-0
  6
Continuous
370
    15
100
AcDbCircle
 10
76.8856284956
 20
18.4174523938
 30
0.0
 40
0.0545999999999971
100
AcDbArc
 50
90.0
 51
133.508293465
  0
LINE
  5
3BC
330
1F
100
AcDbEntity
  8
SLD-0
  6
Continuous
370
    15
100
AcDbLine
 10
76.8856284504
 20
18.4720521321
 30
0.0
 11
76.9042285022
 21
18.4720521321
 31
0.0
  0
LINE
  5
3BD
330
1F
100
AcDbEntity
  8
SLD-0
  6
Continuous
370
    15
100
AcDbLine
 10
76.8646285197
 20
7.3459062356
 30
0.0
 11
76.8646285197
 21
6.7938798127
 31
0.0
  0
LINE
  5
3BE
330
1F
100
AcDbEntity
  8
SLD-0
  6
Continuous
370
    15
100
AcDbLine
 10
76.8646285197
 20
6.1515045401
 30
0.0
 11
76.8646285197
 21
6.1283021415
 31
0.0
  0
LINE
  5
3BF
330
1F
100
AcDbEntity
  8
SLD-0
  6
Continuous
370
    15
100
AcDbLine
 10
76.8646285197
 20
7.3459062356
 30
0.0
 11
76.9042285022
 21
7.3459062356
 31
0.0
  0
LINE
  5
3C0
330
1F
100
AcDbEntity
  8
SLD-0
  6
Continuous
370
    15
100
AcDbLine
 10
76.9042285022
 20
6.1283021415
 30
0.0
 11
76.8646285197
 21
6.1283021415
 31
0.0
  0
LINE
  5
3C1
330
1F
100
AcDbEntity
  8
SLD-0
  6
Continuous
370
    15
100
AcDbLine
 10
76.8646285197
 20
18.4324525895
 30
0.0
 11
76.9042285022
 21
18.4324525895
 31
0.0
  0
LINE
  5
3C2
330
1F
100
AcDbEntity
  8
SLD-0
  6
Continuous
370
    15
100
AcDbLine
 10
76.8646285197
 20
8.8459062541
 30
0.0
 11
76.9042285022
 21
8.8459062541
 31
0.0
  0
LINE
  5
3C3
330
1F
100
AcDbEntity
  8
SLD-0
  6
Continuous
370
    15
100
AcDbLine
 10
76.8646285197
 20
18.4324525895
 30
0.0
 11
76.8646285197
 21
8.8459062541
 31
0.0
  0
LINE
  5
3C4
330
1F
100
AcDbEntity
  8
SLD-0
  6
Continuous
370
    15
100
AcDbLine
 10
76.9042285022
 20
8.8519061715
 30
0.0
 11
76.9042285022
 21
8.8459062541
 31
0.0
  0
LINE
  5
3C5
330
1F
100
AcDbEntity
  8
SLD-0
  6
Continuous
370
    15
100
AcDbLine
 10
76.8646285197
 20
7.3459062356
 30
0.0
 11
76.8646285197
 21
8.8459062541
 31
0.0
  0
LINE
  5
3C6
330
1F
100
AcDbEntity
  8
SLD-0
  6
Continuous
370
    15
100
AcDbLine
 10
76.8286284289
 20
6.7938798127
 30
0.0
 11
76.8646285197
 21
6.7938798127
 31
0.0
  0
LINE
  5
3C7
330
1F
100
AcDbEntity
  8
SLD-0
  6
Continuous
370
    15
100
AcDbLine
 10
76.8646285197
 20
6.7938798127
 30
0.0
 11
76.8646285197
 21
6.1515045401
 31
0.0
  0
LINE
  5
3C8
330
1F
100
AcDbEntity
  8
SLD-0
  6
Continuous
370
    15
100
AcDbLine
 10
76.8286284289
 20
6.1515045401
 30
0.0
 11
76.8646285197
 21
6.1515045401
 31
0.0
  0
LINE
  5
3C9
330
1F
100
AcDbEntity
  8
SLD-0
  6
Continuous
370
    15
100
AcDbLine
 10
76.8286284289
 20
6.1515045401
 30
0.0
 11
76.8286284289
 21
6.7938798127
 31
0.0
  0
LINE
  5
3CA
330
1F
100
AcDbEntity
  8
SLD-0
  6
Continuous
370
    15
100
AcDbLine
 10
76.8802534725
 20
6.0970525291
 30
0.0
 11
76.8761134137
 21
6.0972185539
 31
0.0
  0
LINE
  5
3CB
330
1F
100
AcDbEntity
  8
SLD-0
  6
Continuous
370
    15
100
AcDbLine
 10
76.9042285022
 20
6.0970525291
 30
0.0
 11
76.8802534725
 21
6.0970525291
 31
0.0
  0
LINE
  5
3CC
330
1F
100
AcDbEntity
  8
SLD-0
  6
Continuous
370
    15
100
AcDbLine
 10
77.9686688991
 20
20.8424830953
 30
0.0
 11
77.9686688991
 21
2.8665470749
 31
0.0
  0
LINE
  5
3CD
330
1F
100
AcDbEntity
  8
SLD-0
  6
Continuous
370
    15
100
AcDbLine
 10
76.8802534725
 20
6.1283021415
 30
0.0
 11
76.8802534725
 21
6.0970525291
 31
0.0
  0
DIMENSION
  5
3CE
330
1F
100
AcDbEntity
  8
DIM
100
AcDbDimension
  2
_D_17
 10
90.4552820483
 20
25.6955061938
 30
0.0
 11
83.6804320483
 21
25.6955061938
 31
0.0
 70
   160
  1
<>
 71
     2
 42
-1.0
  3
SLDDIMSTYLE0
100
AcDbAlignedDimension
 13
76.9055820483
 23
22.5275548706
 33
0.0
 14
90.4552820483
 24
20.9892561938
 34
0.0
100
AcDbRotatedDimension
  0
DIMENSION
  5
3DD
330
1F
100
AcDbEntity
  8
DIM
100
AcDbDimension
  2
_D_18
 10
93.4552820552
 20
22.6930799007
 30
0.0
 11
93.4552820552
 21
25.6955061938
 31
0.0
 70
   160
  1
<>
 71
     2
 42
-1.0
  3
SLDDIMSTYLE1
100
AcDbAlignedDimension
 13
90.3771820483
 23
21.1631061938
 33
0.0
 14
88.2323858323
 24
22.6930799007
 34
0.0
 50
90.0
100
AcDbRotatedDimension
  0
DIMENSION
  5
3ED
330
1F
100
AcDbEntity
  8
DIM
100
AcDbDimension
  2
_D_19
 10
93.4552820552
 20
21.1631061938
 30
0.0
 11
93.4552820552
 21
11.9832061938
 31
0.0
 70
   160
  1
<>
 71
     2
 42
-1.0
  3
SLDDIMSTYLE0
100
AcDbAlignedDimension
 13
90.3626284956
 23
2.8033061938
 33
0.0
 14
90.3771820483
 24
21.1631061938
 34
0.0
 50
90.0
100
AcDbRotatedDimension
  0
LINE
  5
3FC
330
1F
100
AcDbEntity
  8
SLD-0
  6
Continuous
370
    15
100
AcDbLine
 10
8.2111884913
 20
21.1631056315
 30
0.0
 11
8.1180656204
 21
22.695505849
 31
0.0
  0
LINE
  5
3FD
330
1F
100
AcDbEntity
  8
SLD-0
  6
Continuous
370
    15
100
AcDbLine
 10
5.3080656551
 20
22.695505849
 30
0.0
 11
5.2149427842
 21
21.1631056315
 31
0.0
  0
LINE
  5
3FE
330
1F
100
AcDbEntity
  8
SLD-0
  6
Continuous
370
    15
100
AcDbLine
 10
10.4241880999
 20
21.1631056315
 30
0.0
 11
10.331065229
 21
22.695505849
 31
0.0
  0
LINE
  5
3FF
330
1F
100
AcDbEntity
  8
SLD-0
  6
Continuous
370
    15
100
AcDbLine
 10
8.1180656204
 20
22.695505849
 30
0.0
 11
5.3080656551
 21
22.695505849
 31
0.0
  0
LINE
  5
400
330
1F
100
AcDbEntity
  8
SLD-0
  6
Continuous
370
    15
100
AcDbLine
 10
10.331065229
 20
22.695505849
 30
0.0
 11
8.1180656204
 21
22.695505849
 31
0.0
  0
LINE
  5
401
330
1F
100
AcDbEntity
  8
SLD-0
  6
Continuous
370
    15
100
AcDbLine
 10
16.4934454273
 20
21.0205062121
 30
0.0
 11
16.4934454273
 21
21.0705060612
 31
0.0
  0
LINE
  5
402
330
1F
100
AcDbEntity
  8
SLD-0
  6
Continuous
370
    15
100
AcDbLine
 10
15.318710038
 20
21.0205062121
 30
0.0
 11
15.318710038
 21
21.0705060612
 31
0.0
  0
LINE
  5
403
330
1F
100
AcDbEntity
  8
SLD-0
  6
Continuous
370
    15
100
AcDbLine
 10
16.4934454273
 20
21.0205062121
 30
0.0
 11
15.318710038
 21
21.0205062121
 31
0.0
  0
LINE
  5
404
330
1F
100
AcDbEntity
  8
SLD-0
  6
Continuous
370
    15
100
AcDbLine
 10
16.4934454273
 20
21.0705060612
 30
0.0
 11
15.318710038
 21
21.0705060612
 31
0.0
  0
ARC
  5
405
330
1F
100
AcDbEntity
  8
SLD-0
  6
Continuous
370
    15
100
AcDbCircle
 10
3.2063453707
 20
20.9892561891
 30
0.0
 40
0.0812500069494078
100
AcDbArc
 50
92.2218699434
 51
179.999996733
  0
ARC
  5
406
330
1F
100
AcDbEntity
  8
SLD-0
  6
Continuous
370
    15
100
AcDbCircle
 10
3.2063453707
 20
20.9892561938
 30
0.0
 40
0.0312500046329373
100
AcDbArc
 50
95.7852390234
 51
180.0
  0
LINE
  5
407
330
1F
100
AcDbEntity
  8
SLD-0
  6
Continuous
370
    15
100
AcDbLine
 10
3.1750958421
 20
20.9892560131
 30
0.0
 11
3.1250948197
 21
20.9892560131
 31
0.0
  0
LINE
  5
408
330
1F
100
AcDbEntity
  8
SLD-0
  6
Continuous
370
    15
100
AcDbLine
 10
15.318710038
 20
21.0205062121
 30
0.0
 11
15.2031952391
 21
21.0205062121
 31
0.0
  0
LINE
  5
409
330
1F
100
AcDbEntity
  8
SLD-0
  6
Continuous
370
    15
100
AcDbLine
 10
15.318710038
 20
21.0705060612
 30
0.0
 11
15.2031952391
 21
21.0705060612
 31
0.0
  0
LINE
  5
40A
330
1F
100
AcDbEntity
  8
SLD-0
  6
Continuous
370
    15
100
AcDbLine
 10
3.1250948197
 20
20.114506225
 30
0.0
 11
3.1750958421
 21
20.114506225
 31
0.0
  0
LINE
  5
40B
330
1F
100
AcDbEntity
  8
SLD-0
  6
Continuous
370
    15
100
AcDbLine
 10
3.1250948197
 20
20.9892560131
 30
0.0
 11
3.1250948197
 21
20.114506225
 31
0.0
  0
LINE
  5
40C
330
1F
100
AcDbEntity
  8
SLD-0
  6
Continuous
370
    15
100
AcDbLine
 10
3.1750958421
 20
20.9892560131
 30
0.0
 11
3.1750958421
 21
20.8519060265
 31
0.0
  0
LINE
  5
40D
330
1F
100
AcDbEntity
  8
SLD-0
  6
Continuous
370
    15
100
AcDbLine
 10
3.1750958421
 20
20.3669060826
 30
0.0
 11
3.1750958421
 21
20.114506225
 31
0.0
  0
SPLINE
  5
40E
330
1F
100
AcDbEntity
  8
SLD-0
  6
Continuous
370
    15
100
AcDbSpline
210
0.0
220
0.0
230
1.0
 70
     8
 71
     3
 72
    11
 73
     7
 74
     0
 42
0.00000001
 43
0.00000001
 12
1.0
 22
0.0
 32
0.0
 13
1.0
 23
0.0
 33
0.0
 40
0.0
 40
0.0
 40
0.0
 40
0.0
 40
0.2500004422719904
 40
0.5000012221706419
 40
0.7500042204135403
 40
1.0
 40
1.0
 40
1.0
 40
1.0
 10
16.4934454273409
 20
21.07050606118428
 30
0.0
 10
16.49754029908119
 20
21.07097586751657
 30
0.0
 10
16.50573004809192
 20
21.07191548081563
 30
0.0
 10
16.51605962162767
 20
21.07914185275131
 30
0.0
 10
16.52328605468583
 20
21.08947196643874
 30
0.0
 10
16.52422557808735
 20
21.09766153501101
 30
0.0
 10
16.52469533300599
 20
21.10175626017931
 30
0.0
  0
LINE
  5
40F
330
1F
100
AcDbEntity
  8
SLD-0
  6
Continuous
370
    15
100
AcDbLine
 10
16.524695333
 20
21.1017562602
 30
0.0
 11
16.5746953287
 21
21.1017562602
 31
0.0
  0
SPLINE
  5
410
330
1F
100
AcDbEntity
  8
SLD-0
  6
Continuous
370
    15
100
AcDbSpline
210
0.0
220
0.0
230
1.0
 70
     8
 71
     3
 72
    15
 73
    11
 74
     0
 42
0.00000001
 43
0.00000001
 12
1.0
 22
0.0
 32
0.0
 13
1.0
 23
0.0
 33
0.0
 40
0.0
 40
0.0
 40
0.0
 40
0.0
 40
0.1249998311983325
 40
0.2499996123140081
 40
0.3749998343826665
 40
0.4999989810206861
 40
0.6250007224362488
 40
0.750001148040485
 40
0.87500117685454
 40
1.0
 40
1.0
 40
1.0
 40
1.0
 10
16.4934454273409
 20
21.02050621212013
 30
0.0
 10
16.49876313335474
 20
21.02080858912466
 30
0.0
 10
16.50939854325182
 20
21.02141334301256
 30
0.0
 10
16.52473874843759
 20
21.02624430334492
 30
0.0
 10
16.53887695063684
 20
21.03375415626789
 30
0.0
 10
16.55126560038387
 20
21.0439356168985
 30
0.0
 10
16.56144770506722
 20
21.05632475335153
 30
0.0
 10
16.56895690610397
 20
21.07046292452286
 30
0.0
 10
16.57378826402233
 20
21.08580305666745
 30
0.0
 10
16.57439297480296
 20
21.0964385427726
 30
0.0
 10
16.57469532873511
 20
21.10175626017931
 30
0.0
  0
LINE
  5
411
330
1F
100
AcDbEntity
  8
SLD-0
  6
Continuous
370
    15
100
AcDbLine
 10
16.524695333
 20
21.8205061438
 30
0.0
 11
16.5746953287
 21
21.8205061438
 31
0.0
  0
LINE
  5
412
330
1F
100
AcDbEntity
  8
SLD-0
  6
Continuous
370
    15
100
AcDbLine
 10
16.5746953287
 20
21.8205061438
 30
0.0
 11
16.5746953287
 21
21.1017562602
 31
0.0
  0
LINE
  5
413
330
1F
100
AcDbEntity
  8
SLD-0
  6
Continuous
370
    15
100
AcDbLine
 10
16.524695333
 20
21.8205061438
 30
0.0
 11
16.524695333
 21
21.1017562602
 31
0.0
  0
LINE
  5
414
330
1F
100
AcDbEntity
  8
SLD-0
  6
Continuous
370
    15
100
AcDbLine
 10
15.2031952391
 20
20.900506105
 30
0.0
 11
15.2031952391
 21
21.0255063144
 31
0.0
  0
LINE
  5
415
330
1F
100
AcDbEntity
  8
SLD-0
  6
Continuous
370
    15
100
AcDbLine
 10
3.2236959206
 20
20.900506105
 30
0.0
 11
3.2031956774
 21
20.900506105
 31
0.0
  0
LINE
  5
416
330
1F
100
AcDbEntity
  8
SLD-0
  6
Continuous
370
    15
100
AcDbLine
 10
15.2031952391
 20
21.0255063144
 30
0.0
 11
3.2031956774
 21
21.0255063144
 31
0.0
  0
LINE
  5
417
330
1F
100
AcDbEntity
  8
SLD-0
  6
Continuous
370
    15
100
AcDbLine
 10
3.2031956774
 20
20.900506105
 30
0.0
 11
3.2031956774
 21
21.0255063144
 31
0.0
  0
LINE
  5
418
330
1F
100
AcDbEntity
  8
SLD-0
  6
Continuous
370
    15
100
AcDbLine
 10
3.2031956774
 20
21.0651064436
 30
0.0
 11
3.2031956774
 21
21.0255063144
 31
0.0
  0
LINE
  5
419
330
1F
100
AcDbEntity
  8
SLD-0
  6
Continuous
370
    15
100
AcDbLine
 10
3.2031956774
 20
21.0651064436
 30
0.0
 11
15.2031952391
 21
21.0651064436
 31
0.0
  0
LINE
  5
41A
330
1F
100
AcDbEntity
  8
SLD-0
  6
Continuous
370
    15
100
AcDbLine
 10
15.2031952391
 20
21.0651064436
 30
0.0
 11
15.2031952391
 21
21.0255063144
 31
0.0
  0
LINE
  5
41B
330
1F
100
AcDbEntity
  8
SLD-0
  6
Continuous
370
    15
100
AcDbLine
 10
3.2031956774
 20
21.0687126419
 30
0.0
 11
3.2031956774
 21
21.0651064436
 31
0.0
  0
LINE
  5
41C
330
1F
100
AcDbEntity
  8
SLD-0
  6
Continuous
370
    15
100
AcDbLine
 10
3.2031956774
 20
21.0687126419
 30
0.0
 11
15.2031952391
 21
21.0687126419
 31
0.0
  0
LINE
  5
41D
330
1F
100
AcDbEntity
  8
SLD-0
  6
Continuous
370
    15
100
AcDbLine
 10
15.2031952391
 20
21.0687126419
 30
0.0
 11
15.2031952391
 21
21.0651064436
 31
0.0
  0
LINE
  5
41E
330
1F
100
AcDbEntity
  8
SLD-0
  6
Continuous
370
    15
100
AcDbLine
 10
3.2031956774
 20
21.1548935663
 30
0.0
 11
15.2031952391
 21
21.1548935663
 31
0.0
  0
LINE
  5
41F
330
1F
100
AcDbEntity
  8
SLD-0
  6
Continuous
370
    15
100
AcDbLine
 10
15.2031952391
 20
21.1548935663
 30
0.0
 11
15.2031952391
 21
21.0687126419
 31
0.0
  0
LINE
  5
420
330
1F
100
AcDbEntity
  8
SLD-0
  6
Continuous
370
    15
100
AcDbLine
 10
3.2031956774
 20
21.1548935663
 30
0.0
 11
3.2031956774
 21
21.0687126419
 31
0.0
  0
LINE
  5
421
330
1F
100
AcDbEntity
  8
SLD-0
  6
Continuous
370
    15
100
AcDbLine
 10
3.2031956774
 20
21.1631056315
 30
0.0
 11
15.2031952391
 21
21.1631056315
 31
0.0
  0
LINE
  5
422
330
1F
100
AcDbEntity
  8
SLD-0
  6
Continuous
370
    15
100
AcDbLine
 10
15.2031952391
 20
21.1631056315
 30
0.0
 11
15.2031952391
 21
21.1548935663
 31
0.0
  0
LINE
  5
423
330
1F
100
AcDbEntity
  8
SLD-0
  6
Continuous
370
    15
100
AcDbLine
 10
3.2031956774
 20
21.1631056315
 30
0.0
 11
3.2031956774
 21
21.1548935663
 31
0.0
  0
LINE
  5
424
330
1F
100
AcDbEntity
  8
SLD-0
  6
Continuous
370
    15
100
AcDbLine
 10
16.6261954138
 20
20.8669063332
 30
0.0
 11
16.6261954138
 21
20.900506105
 31
0.0
  0
LINE
  5
425
330
1F
100
AcDbEntity
  8
SLD-0
  6
Continuous
370
    15
100
AcDbLine
 10
16.4061953153
 20
20.8669063332
 30
0.0
 11
16.4061953153
 21
20.900506105
 31
0.0
  0
LINE
  5
426
330
1F
100
AcDbEntity
  8
SLD-0
  6
Continuous
370
    15
100
AcDbLine
 10
16.4061953153
 20
20.8669063332
 30
0.0
 11
16.6261954138
 21
20.8669063332
 31
0.0
  0
LINE
  5
427
330
1F
100
AcDbEntity
  8
SLD-0
  6
Continuous
370
    15
100
AcDbLine
 10
16.4061953153
 20
20.900506105
 30
0.0
 11
16.6261954138
 21
20.900506105
 31
0.0
  0
LINE
  5
428
330
1F
100
AcDbEntity
  8
SLD-0
  6
Continuous
370
    15
100
AcDbLine
 10
16.6747953457
 20
20.9155064118
 30
0.0
 11
16.6411954272
 21
20.9155064118
 31
0.0
  0
LINE
  5
429
330
1F
100
AcDbEntity
  8
SLD-0
  6
Continuous
370
    15
100
AcDbLine
 10
16.6411954272
 20
20.9155064118
 30
0.0
 11
16.6411954272
 21
22.1525544679
 31
0.0
  0
LINE
  5
42A
330
1F
100
AcDbEntity
  8
SLD-0
  6
Continuous
370
    15
100
AcDbLine
 10
16.6747953457
 20
22.1525544679
 30
0.0
 11
16.6411954272
 21
22.1525544679
 31
0.0
  0
LINE
  5
42B
330
1F
100
AcDbEntity
  8
SLD-0
  6
Continuous
370
    15
100
AcDbLine
 10
16.6747953457
 20
20.9155064118
 30
0.0
 11
16.6747953457
 21
22.1525544679
 31
0.0
  0
ARC
  5
42C
330
1F
100
AcDbEntity
  8
SLD-0
  6
Continuous
370
    15
100
AcDbCircle
 10
16.6261953707
 20
20.9155061938
 30
0.0
 40
0.0150000000000041
100
AcDbArc
 50
270.0
 51
0.0
  0
ARC
  5
42D
330
1F
100
AcDbEntity
  8
SLD-0
  6
Continuous
370
    15
100
AcDbCircle
 10
16.6261953707
 20
20.9155061938
 30
0.0
 40
0.0486000000000004
100
AcDbArc
 50
270.0
 51
0.0
  0
LINE
  5
42E
330
1F
100
AcDbEntity
  8
SLD-0
  6
Continuous
370
    15
100
AcDbLine
 10
16.6411954272
 20
22.1525544679
 30
0.0
 11
16.6411954272
 21
22.5275545092
 31
0.0
  0
LINE
  5
42F
330
1F
100
AcDbEntity
  8
SLD-0
  6
Continuous
370
    15
100
AcDbLine
 10
16.6411954272
 20
22.5275545092
 30
0.0
 11
16.6747953457
 21
22.5275545092
 31
0.0
  0
LINE
  5
430
330
1F
100
AcDbEntity
  8
SLD-0
  6
Continuous
370
    15
100
AcDbLine
 10
16.6747953457
 20
22.5275545092
 30
0.0
 11
16.6747953457
 21
22.1525544679
 31
0.0
  0
SPLINE
  5
431
330
1F
100
AcDbEntity
  8
SLD-0
  6
Continuous
370
    15
100
AcDbSpline
210
0.0
220
0.0
230
1.0
 70
     8
 71
     3
 72
    15
 73
    11
 74
     0
 42
0.00000001
 43
0.00000001
 12
1.0
 22
0.0
 32
0.0
 13
1.0
 23
0.0
 33
0.0
 40
0.0
 40
0.0
 40
0.0
 40
0.0
 40
0.1250027213314515
 40
0.2499993241998486
 40
0.3750051759696937
 40
0.5000023076385675
 40
0.6250007116419338
 40
0.7500048758804785
 40
0.8750021943557247
 40
1.0
 40
1.0
 40
1.0
 40
1.0
 10
15.60283030246949
 20
20.85190602647053
 30
0.0
 10
15.60371712884147
 20
20.85508695586536
 30
0.0
 10
15.60549073817826
 20
20.86144865895923
 30
0.0
 10
15.60903129827595
 20
20.87062423671809
 30
0.0
 10
15.6131707557497
 20
20.87908147964022
 30
0.0
 10
15.61790984545576
 20
20.88649107440166
 30
0.0
 10
15.62314335494784
 20
20.89258264122561
 30
0.0
 10
15.62876835595206
 20
20.89707334623577
 30
0.0
 10
15.63466339310432
 20
20.89996334163535
 30
0.0
 10
15.63868471845518
 20
20.90032518366892
 30
0.0
 10
15.64069538504882
 20
20.90050610503828
 30
0.0
  0
LINE
  5
432
330
1F
100
AcDbEntity
  8
SLD-0
  6
Continuous
370
    15
100
AcDbLine
 10
3.6020469632
 20
20.8519060265
 30
0.0
 11
15.6028303025
 21
20.8519060265
 31
0.0
  0
SPLINE
  5
433
330
1F
100
AcDbEntity
  8
SLD-0
  6
Continuous
370
    15
100
AcDbSpline
210
0.0
220
0.0
230
1.0
 70
     8
 71
     3
 72
    15
 73
    11
 74
     0
 42
0.00000001
 43
0.00000001
 12
1.0
 22
0.0
 32
0.0
 13
1.0
 23
0.0
 33
0.0
 40
0.0
 40
0.0
 40
0.0
 40
0.0
 40
0.1250015391540623
 40
0.250000903962171
 40
0.3749994513085378
 40
0.4999998958343349
 40
0.6249993841481637
 40
0.7500022014339577
 40
0.8749991524681944
 40
1.0
 40
1.0
 40
1.0
 40
1.0
 10
3.573938914582599
 20
20.90050610503828
 30
0.0
 10
3.57467717469628
 20
20.90032517839757
 30
0.0
 10
3.576153682081925
 20
20.89996332826329
 30
0.0
 10
3.578504871710891
 20
20.8970735128339
 30
0.0
 10
3.581127160647744
 20
20.89258243739942
 30
0.0
 10
3.584140836833533
 20
20.88649105343064
 30
0.0
 10
3.587647854878001
 20
20.87908170964903
 30
0.0
 10
3.591754197397451
 20
20.87062405349423
 30
0.0
 10
3.596460964091618
 20
20.86144878111796
 30
0.0
 10
3.600184944155972
 20
20.8550869777383
 30
0.0
 10
3.602046963209356
 20
20.85190602647053
 30
0.0
  0
LINE
  5
434
330
1F
100
AcDbEntity
  8
SLD-0
  6
Continuous
370
    15
100
AcDbLine
 10
3.5739389146
 20
20.900506105
 30
0.0
 11
15.640695385
 21
20.900506105
 31
0.0
  0
LINE
  5
435
330
1F
100
AcDbEntity
  8
SLD-0
  6
Continuous
370
    15
100
AcDbLine
 10
15.640695385
 20
20.900506105
 30
0.0
 11
15.640695385
 21
20.8669063332
 31
0.0
  0
SPLINE
  5
436
330
1F
100
AcDbEntity
  8
SLD-0
  6
Continuous
370
    15
100
AcDbSpline
210
0.0
220
0.0
230
1.0
 70
     8
 71
     3
 72
    11
 73
     7
 74
     0
 42
0.00000001
 43
0.00000001
 12
1.0
 22
0.0
 32
0.0
 13
1.0
 23
0.0
 33
0.0
 40
0.0
 40
0.0
 40
0.0
 40
0.0
 40
0.2500017487331144
 40
0.500002593443392
 40
0.7500090930292811
 40
0.9999999999999999
 40
0.9999999999999999
 40
0.9999999999999999
 40
0.9999999999999999
 10
15.61541709039918
 20
20.85190602647053
 30
0.0
 10
15.61713975815904
 20
20.85387165840179
 30
0.0
 10
15.62058508744949
 20
20.85780291515644
 30
0.0
 10
15.62679961073756
 20
20.86276126542999
 30
0.0
 10
15.63357137103113
 20
20.86622919105001
 30
0.0
 10
15.63832076308015
 20
20.86668062383318
 30
0.0
 10
15.64069538504882
 20
20.86690633318571
 30
0.0
  0
LINE
  5
437
330
1F
100
AcDbEntity
  8
SLD-0
  6
Continuous
370
    15
100
AcDbLine
 10
15.6028303025
 20
20.8519060265
 30
0.0
 11
15.6154170904
 21
20.8519060265
 31
0.0
  0
LINE
  5
438
330
1F
100
AcDbEntity
  8
SLD-0
  6
Continuous
370
    15
100
AcDbLine
 10
4.0517311551
 20
20.3669060826
 30
0.0
 11
15.4119508275
 21
20.3669060826
 31
0.0
  0
LINE
  5
439
330
1F
100
AcDbEntity
  8
SLD-0
  6
Continuous
370
    15
100
AcDbLine
 10
3.6020469632
 20
20.8519060265
 30
0.0
 11
4.0517311551
 21
20.3669060826
 31
0.0
  0
LINE
  5
43A
330
1F
100
AcDbEntity
  8
SLD-0
  6
Continuous
370
    15
100
AcDbLine
 10
15.4119508275
 20
20.3669060826
 30
0.0
 11
15.6028303025
 21
20.8519060265
 31
0.0
  0
LINE
  5
43B
330
1F
100
AcDbEntity
  8
SLD-0
  6
Continuous
370
    15
100
AcDbLine
 10
15.4245376155
 20
20.3669060826
 30
0.0
 11
15.4119508275
 21
20.3669060826
 31
0.0
  0
LINE
  5
43C
330
1F
100
AcDbEntity
  8
SLD-0
  6
Continuous
370
    15
100
AcDbLine
 10
15.4245376155
 20
20.3669060826
 30
0.0
 11
15.6154170904
 21
20.8519060265
 31
0.0
  0
SPLINE
  5
43D
330
1F
100
AcDbEntity
  8
SLD-0
  6
Continuous
370
    15
100
AcDbSpline
210
0.0
220
0.0
230
1.0
 70
     8
 71
     3
 72
    10
 73
     6
 74
     0
 42
0.00000001
 43
0.00000001
 12
1.0
 22
0.0
 32
0.0
 13
1.0
 23
0.0
 33
0.0
 40
0.0
 40
0.0
 40
0.0
 40
0.0
 40
0.4210312566294807
 40
0.8420359493341121
 40
1.0
 40
1.0
 40
1.0
 40
1.0
 10
3.573938914582599
 20
20.86690633318571
 30
0.0
 10
3.577072061421625
 20
20.86666512732915
 30
0.0
 10
3.583338157421529
 20
20.86618273083432
 30
0.0
 10
3.59091920845082
 20
20.86362140575709
 30
0.0
 10
3.595704340650631
 20
20.86131611903391
 30
0.0
 10
3.597009901397924
 20
20.86068715169689
 30
0.0
  0
LINE
  5
43E
330
1F
100
AcDbEntity
  8
SLD-0
  6
Continuous
370
    15
100
AcDbLine
 10
15.640695385
 20
20.8669063332
 30
0.0
 11
16.4061953153
 21
20.8669063332
 31
0.0
  0
LINE
  5
43F
330
1F
100
AcDbEntity
  8
SLD-0
  6
Continuous
370
    15
100
AcDbLine
 10
15.640695385
 20
20.900506105
 30
0.0
 11
16.4061953153
 21
20.900506105
 31
0.0
  0
LINE
  5
440
330
1F
100
AcDbEntity
  8
SLD-0
  6
Continuous
370
    15
100
AcDbLine
 10
3.5739389146
 20
20.900506105
 30
0.0
 11
3.5739389146
 21
20.8669063332
 31
0.0
  0
LINE
  5
441
330
1F
100
AcDbEntity
  8
SLD-0
  6
Continuous
370
    15
100
AcDbLine
 10
3.2236959206
 20
20.8669063332
 30
0.0
 11
3.2236959206
 21
20.900506105
 31
0.0
  0
LINE
  5
442
330
1F
100
AcDbEntity
  8
SLD-0
  6
Continuous
370
    15
100
AcDbLine
 10
3.2236959206
 20
20.8669063332
 30
0.0
 11
3.5739389146
 21
20.8669063332
 31
0.0
  0
LINE
  5
443
330
1F
100
AcDbEntity
  8
SLD-0
  6
Continuous
370
    15
100
AcDbLine
 10
3.2236959206
 20
20.900506105
 30
0.0
 11
3.5739389146
 21
20.900506105
 31
0.0
  0
LINE
  5
444
330
1F
100
AcDbEntity
  8
SLD-0
  6
Continuous
370
    15
100
AcDbLine
 10
3.2086950272
 20
20.8519060265
 30
0.0
 11
3.1750958421
 21
20.8519060265
 31
0.0
  0
SPLINE
  5
445
330
1F
100
AcDbEntity
  8
SLD-0
  6
Continuous
370
    15
100
AcDbSpline
210
0.0
220
0.0
230
1.0
 70
     8
 71
     3
 72
    15
 73
    11
 74
     0
 42
0.00000001
 43
0.00000001
 12
1.0
 22
0.0
 32
0.0
 13
1.0
 23
0.0
 33
0.0
 40
0.0
 40
0.0
 40
0.0
 40
0.0
 40
0.1250000496429199
 40
0.2499987510789315
 40
0.3749974057880632
 40
0.5000000864742355
 40
0.6249945487588946
 40
0.7499902501166104
 40
0.8749985410446415
 40
1.0
 40
1.0
 40
1.0
 40
1.0
 10
3.175095842051808
 20
20.85190602647053
 30
0.0
 10
3.175276118883665
 20
20.8550870074441
 30
0.0
 10
3.17563667060297
 20
20.8614489350823
 30
0.0
 10
3.178529219629328
 20
20.87062373815581
 30
0.0
 10
3.183018401347351
 20
20.87908207215564
 30
0.0
 10
3.189111123176553
 20
20.88649069333168
 30
0.0
 10
3.196519505883597
 20
20.89258255549014
 30
0.0
 10
3.204977033617487
 20
20.89707370229051
 30
0.0
 10
3.214153025285586
 20
20.89996323144515
 30
0.0
 10
3.220515013459213
 20
20.9003251504706
 30
0.0
 10
3.223695920619553
 20
20.90050610503828
 30
0.0
  0
SPLINE
  5
446
330
1F
100
AcDbEntity
  8
SLD-0
  6
Continuous
370
    15
100
AcDbSpline
210
0.0
220
0.0
230
1.0
 70
     8
 71
     3
 72
    11
 73
     7
 74
     0
 42
0.00000001
 43
0.00000001
 12
1.0
 22
0.0
 32
0.0
 13
1.0
 23
0.0
 33
0.0
 40
0.0
 40
0.0
 40
0.0
 40
0.0
 40
0.2499961197070516
 40
0.499999314411834
 40
0.749986975559426
 40
1.0
 40
1.0
 40
1.0
 40
1.0
 10
3.208695027244487
 20
20.85190602647053
 30
0.0
 10
3.208920332116848
 20
20.85387167927729
 30
0.0
 10
3.209370948237801
 20
20.85780304051962
 30
0.0
 10
3.21284124916113
 20
20.86276102809935
 30
0.0
 10
3.217798303489801
 20
20.86622942395378
 30
0.0
 10
3.221729981762854
 20
20.8666806891447
 30
0.0
 10
3.223695920619553
 20
20.86690633318571
 30
0.0
  0
LINE
  5
447
330
1F
100
AcDbEntity
  8
SLD-0
  6
Continuous
370
    15
100
AcDbLine
 10
3.2086950272
 20
20.3669060826
 30
0.0
 11
3.1750958421
 21
20.3669060826
 31
0.0
  0
LINE
  5
448
330
1F
100
AcDbEntity
  8
SLD-0
  6
Continuous
370
    15
100
AcDbLine
 10
3.1750958421
 20
20.3669060826
 30
0.0
 11
3.1750958421
 21
20.8519060265
 31
0.0
  0
LINE
  5
449
330
1F
100
AcDbEntity
  8
SLD-0
  6
Continuous
370
    15
100
AcDbLine
 10
3.2086950272
 20
20.3669060826
 30
0.0
 11
3.2086950272
 21
20.8519060265
 31
0.0
  0
SPLINE
  5
44A
330
1F
100
AcDbEntity
  8
SLD-0
  6
Continuous
370
    15
100
AcDbSpline
210
0.0
220
0.0
230
1.0
 70
     8
 71
     3
 72
    15
 73
    11
 74
     0
 42
0.00000001
 43
0.00000001
 12
1.0
 22
0.0
 32
0.0
 13
1.0
 23
0.0
 33
0.0
 40
0.0
 40
0.0
 40
0.0
 40
0.0
 40
0.1250016451170441
 40
0.2500040635420921
 40
0.3750032398878233
 40
0.4999993151414379
 40
0.6249998645091667
 40
0.7499966588474092
 40
0.8749969395912143
 40
1.0
 40
1.0
 40
1.0
 40
1.0
 10
3.594159907654629
 20
2.851906390668988
 30
0.0
 10
3.593448087645638
 20
2.848725478710463
 30
0.0
 10
3.592024443224074
 20
2.842363635115081
 30
0.0
 10
3.590769089604048
 20
2.833187774306802
 30
0.0
 10
3.590111733130756
 20
2.824730925374168
 30
0.0
 10
3.590054123151416
 20
2.817321183666052
 30
0.0
 10
3.590491351007871
 20
2.81123006441258
 30
0.0
 10
3.59132029704362
 20
2.806738840050121
 30
0.0
 10
3.592417882987539
 20
2.803849094950669
 30
0.0
 10
3.593242095827746
 20
2.803487241058809
 30
0.0
 10
3.593654206829861
 20
2.803306312101243
 30
0.0
  0
LINE
  5
44B
330
1F
100
AcDbEntity
  8
SLD-0
  6
Continuous
370
    15
100
AcDbLine
 10
3.5941599077
 20
2.8519063907
 30
0.0
 11
15.6048839054
 21
2.8519063907
 31
0.0
  0
SPLINE
  5
44C
330
1F
100
AcDbEntity
  8
SLD-0
  6
Continuous
370
    15
100
AcDbSpline
210
0.0
220
0.0
230
1.0
 70
     8
 71
     3
 72
    15
 73
    11
 74
     0
 42
0.00000001
 43
0.00000001
 12
1.0
 22
0.0
 32
0.0
 13
1.0
 23
0.0
 33
0.0
 40
0.0
 40
0.0
 40
0.0
 40
0.0
 40
0.1249977386503626
 40
0.2499949901319571
 40
0.3749990873731812
 40
0.4999974243823141
 40
0.6249944890576364
 40
0.7499939731742783
 40
0.8749973456650958
 40
1.0
 40
1.0
 40
1.0
 40
1.0
 10
15.64274898799209
 20
2.803306312101243
 30
0.0
 10
15.64073832154264
 20
2.803487233569271
 30
0.0
 10
15.63671699648014
 20
2.803849075800202
 30
0.0
 10
15.63082195716509
 20
2.8067390697196
 30
0.0
 10
15.62519696437978
 20
2.811229780354617
 30
0.0
 10
15.61996342417606
 20
2.817321326160166
 30
0.0
 10
15.61522452872114
 20
2.824730874875763
 30
0.0
 10
15.61108462241345
 20
2.833187810699657
 30
0.0
 10
15.60754447873316
 20
2.842363632379242
 30
0.0
 10
15.60577076148786
 20
2.848725477330657
 30
0.0
 10
15.60488390541276
 20
2.851906390668988
 30
0.0
  0
LINE
  5
44D
330
1F
100
AcDbEntity
  8
SLD-0
  6
Continuous
370
    15
100
AcDbLine
 10
3.5936542068
 20
2.8033063121
 30
0.0
 11
15.642748988
 21
2.8033063121
 31
0.0
  0
LINE
  5
44E
330
1F
100
AcDbEntity
  8
SLD-0
  6
Continuous
370
    15
100
AcDbLine
 10
15.642748988
 20
2.8033063121
 30
0.0
 11
15.642748988
 21
2.836906084
 31
0.0
  0
LINE
  5
44F
330
1F
100
AcDbEntity
  8
SLD-0
  6
Continuous
370
    15
100
AcDbLine
 10
15.6048839054
 20
2.8519063907
 30
0.0
 11
15.6174706933
 21
2.8519063907
 31
0.0
  0
SPLINE
  5
450
330
1F
100
AcDbEntity
  8
SLD-0
  6
Continuous
370
    15
100
AcDbSpline
210
0.0
220
0.0
230
1.0
 70
     8
 71
     3
 72
    11
 73
     7
 74
     0
 42
0.00000001
 43
0.00000001
 12
1.0
 22
0.0
 32
0.0
 13
1.0
 23
0.0
 33
0.0
 40
0.0
 40
0.0
 40
0.0
 40
0.0
 40
0.2499869804355174
 40
0.4999998874597602
 40
0.7499994917207045
 40
0.9999999999999999
 40
0.9999999999999999
 40
0.9999999999999999
 40
0.9999999999999999
 10
15.64274898799209
 20
2.836906083953811
 30
0.0
 10
15.64037433664263
 20
2.837131496336633
 30
0.0
 10
15.63562478766444
 20
2.837582344480193
 30
0.0
 10
15.62885335785142
 20
2.841051322718732
 30
0.0
 10
15.62263867019307
 20
2.846009446591511
 30
0.0
 10
15.61919335436907
 20
2.849940740273857
 30
0.0
 10
15.61747069334244
 20
2.851906390668988
 30
0.0
  0
LINE
  5
451
330
1F
100
AcDbEntity
  8
SLD-0
  6
Continuous
370
    15
100
AcDbLine
 10
15.4265909251
 20
3.3369063346
 30
0.0
 11
15.6174706933
 21
2.8519063907
 31
0.0
  0
LINE
  5
452
330
1F
100
AcDbEntity
  8
SLD-0
  6
Continuous
370
    15
100
AcDbLine
 10
15.4140041371
 20
3.3369063346
 30
0.0
 11
15.6048839054
 21
2.8519063907
 31
0.0
  0
LINE
  5
453
330
1F
100
AcDbEntity
  8
SLD-0
  6
Continuous
370
    15
100
AcDbLine
 10
15.4140041371
 20
3.3369063346
 30
0.0
 11
15.4265909251
 21
3.3369063346
 31
0.0
  0
LINE
  5
454
330
1F
100
AcDbEntity
  8
SLD-0
  6
Continuous
370
    15
100
AcDbLine
 10
4.0432351466
 20
3.3369063346
 30
0.0
 11
3.5945740895
 21
2.8530087246
 31
0.0
  0
LINE
  5
455
330
1F
100
AcDbEntity
  8
SLD-0
  6
Continuous
370
    15
100
AcDbLine
 10
4.0432351466
 20
3.3369063346
 30
0.0
 11
15.4140041371
 21
3.3369063346
 31
0.0
  0
LINE
  5
456
330
1F
100
AcDbEntity
  8
SLD-0
  6
Continuous
370
    15
100
AcDbLine
 10
3.5945740895
 20
2.8530087246
 30
0.0
 11
3.5941599077
 21
2.8519063907
 31
0.0
  0
LINE
  5
457
330
1F
100
AcDbEntity
  8
SLD-0
  6
Continuous
370
    15
100
AcDbLine
 10
15.6864988559
 20
2.836906084
 30
0.0
 11
15.6864988559
 21
2.8033063121
 31
0.0
  0
LINE
  5
458
330
1F
100
AcDbEntity
  8
SLD-0
  6
Continuous
370
    15
100
AcDbLine
 10
15.6864988559
 20
2.8033063121
 30
0.0
 11
15.642748988
 21
2.8033063121
 31
0.0
  0
LINE
  5
459
330
1F
100
AcDbEntity
  8
SLD-0
  6
Continuous
370
    15
100
AcDbLine
 10
15.6864988559
 20
2.836906084
 30
0.0
 11
15.642748988
 21
2.836906084
 31
0.0
  0
ARC
  5
45A
330
1F
100
AcDbEntity
  8
SLD-0
  6
Continuous
370
    15
100
AcDbCircle
 10
16.5784989234
 20
2.8519061938
 30
0.0
 40
0.0486000000000004
100
AcDbArc
 50
270.0
 51
0.0
  0
LINE
  5
45B
330
1F
100
AcDbEntity
  8
SLD-0
  6
Continuous
370
    15
100
AcDbLine
 10
16.5784989381
 20
2.836906084
 30
0.0
 11
16.5784989381
 21
2.8033063121
 31
0.0
  0
ARC
  5
45C
330
1F
100
AcDbEntity
  8
SLD-0
  6
Continuous
370
    15
100
AcDbCircle
 10
16.5784989234
 20
2.8519061938
 30
0.0
 40
0.0150000000000006
100
AcDbArc
 50
270.0
 51
360.0
  0
LINE
  5
45D
330
1F
100
AcDbEntity
  8
SLD-0
  6
Continuous
370
    15
100
AcDbLine
 10
16.5784989381
 20
2.836906084
 30
0.0
 11
15.6864988559
 21
2.836906084
 31
0.0
  0
LINE
  5
45E
330
1F
100
AcDbEntity
  8
SLD-0
  6
Continuous
370
    15
100
AcDbLine
 10
16.5784989381
 20
2.8033063121
 30
0.0
 11
15.6864988559
 21
2.8033063121
 31
0.0
  0
LINE
  5
45F
330
1F
100
AcDbEntity
  8
SLD-0
  6
Continuous
370
    15
100
AcDbLine
 10
3.2177483627
 20
2.836906084
 30
0.0
 11
3.2177483627
 21
2.8033063121
 31
0.0
  0
LINE
  5
460
330
1F
100
AcDbEntity
  8
SLD-0
  6
Continuous
370
    15
100
AcDbLine
 10
3.5913826597
 20
2.836906084
 30
0.0
 11
3.2177483627
 21
2.836906084
 31
0.0
  0
LINE
  5
461
330
1F
100
AcDbEntity
  8
SLD-0
  6
Continuous
370
    15
100
AcDbLine
 10
3.5936542068
 20
2.8033063121
 30
0.0
 11
3.2177483627
 21
2.8033063121
 31
0.0
  0
SPLINE
  5
462
330
1F
100
AcDbEntity
  8
SLD-0
  6
Continuous
370
    15
100
AcDbSpline
210
0.0
220
0.0
230
1.0
 70
     8
 71
     3
 72
    15
 73
    11
 74
     0
 42
0.00000001
 43
0.00000001
 12
1.0
 22
0.0
 32
0.0
 13
1.0
 23
0.0
 33
0.0
 40
0.0
 40
0.0
 40
0.0
 40
0.0
 40
0.1249886156412862
 40
0.2499983797044862
 40
0.3749955540490116
 40
0.5000026089860514
 40
0.6249976360137612
 40
0.7499914199460965
 40
0.8749984773190289
 40
1.0
 40
1.0
 40
1.0
 40
1.0
 10
3.217748362659584
 20
2.803306312101243
 30
0.0
 10
3.214567864068021
 20
2.803487304099965
 30
0.0
 10
3.208206328735678
 20
2.80384931872176
 30
0.0
 10
3.19903056881857
 20
2.806738641365649
 30
0.0
 10
3.190573152675018
 20
2.811230266013099
 30
0.0
 10
3.183163446274158
 20
2.817320949221272
 30
0.0
 10
3.177072400700993
 20
2.824730723399919
 30
0.0
 10
3.172582486944773
 20
2.833188250301293
 30
0.0
 10
3.169690402607457
 20
2.84236336952169
 30
0.0
 10
3.169329769815667
 20
2.848725430567674
 30
0.0
 10
3.169149457411617
 20
2.851906390668988
 30
0.0
  0
LINE
  5
463
330
1F
100
AcDbEntity
  8
SLD-0
  6
Continuous
370
    15
100
AcDbLine
 10
3.2027486426
 20
2.8519063907
 30
0.0
 11
3.1691494574
 21
2.8519063907
 31
0.0
  0
SPLINE
  5
464
330
1F
100
AcDbEntity
  8
SLD-0
  6
Continuous
370
    15
100
AcDbSpline
210
0.0
220
0.0
230
1.0
 70
     8
 71
     3
 72
    11
 73
     7
 74
     0
 42
0.00000001
 43
0.00000001
 12
1.0
 22
0.0
 32
0.0
 13
1.0
 23
0.0
 33
0.0
 40
0.0
 40
0.0
 40
0.0
 40
0.0
 40
0.2499877743681254
 40
0.4999891765754511
 40
0.7499981258680174
 40
1.0
 40
1.0
 40
1.0
 40
1.0
 10
3.217748362659584
 20
2.836906083953811
 30
0.0
 10
3.215782849115857
 20
2.837131468906276
 30
0.0
 10
3.211851714880352
 20
2.837582251097844
 30
0.0
 10
3.206894931488746
 20
2.841051554796235
 30
0.0
 10
3.203424556094671
 20
2.84600932198254
 30
0.0
 10
3.202973944975706
 20
2.849940719649951
 30
0.0
 10
3.202748642604296
 20
2.851906390668988
 30
0.0
  0
LINE
  5
465
330
1F
100
AcDbEntity
  8
SLD-0
  6
Continuous
370
    15
100
AcDbLine
 10
3.1691494574
 20
3.3369063346
 30
0.0
 11
3.1691494574
 21
2.8519063907
 31
0.0
  0
LINE
  5
466
330
1F
100
AcDbEntity
  8
SLD-0
  6
Continuous
370
    15
100
AcDbLine
 10
3.2027486426
 20
3.3369063346
 30
0.0
 11
3.1691494574
 21
3.3369063346
 31
0.0
  0
LINE
  5
467
330
1F
100
AcDbEntity
  8
SLD-0
  6
Continuous
370
    15
100
AcDbLine
 10
3.2027486426
 20
3.3369063346
 30
0.0
 11
3.2027486426
 21
2.8519063907
 31
0.0
  0
SPLINE
  5
468
330
1F
100
AcDbEntity
  8
SLD-0
  6
Continuous
370
    15
100
AcDbSpline
210
0.0
220
0.0
230
1.0
 70
     8
 71
     3
 72
     9
 73
     5
 74
     0
 42
0.00000001
 43
0.00000001
 12
1.0
 22
0.0
 32
0.0
 13
1.0
 23
0.0
 33
0.0
 40
0.0
 40
0.0
 40
0.0
 40
0.0
 40
0.3770671279872223
 40
0.9999999999999999
 40
0.9999999999999999
 40
0.9999999999999999
 40
0.9999999999999999
 10
3.591382659737634
 20
2.836906083953811
 30
0.0
 10
3.591619380610109
 20
2.838731790917988
 30
0.0
 10
3.592247175649519
 20
2.843573652827085
 30
0.0
 10
3.593425740726419
 20
2.848708022822048
 30
0.0
 10
3.594159907654629
 20
2.851906390668988
 30
0.0
  0
LINE
  5
469
330
1F
100
AcDbEntity
  8
SLD-0
  6
Continuous
370
    15
100
AcDbLine
 10
16.6761489167
 20
2.8519063907
 30
0.0
 11
16.6365489342
 21
2.8519063907
 31
0.0
  0
LINE
  5
46A
330
1F
100
AcDbEntity
  8
SLD-0
  6
Continuous
370
    15
100
AcDbLine
 10
16.6365489342
 20
2.8519063907
 30
0.0
 11
16.6365489342
 21
3.226906432
 31
0.0
  0
LINE
  5
46B
330
1F
100
AcDbEntity
  8
SLD-0
  6
Continuous
370
    15
100
AcDbLine
 10
16.6365489342
 20
3.226906432
 30
0.0
 11
16.6761489167
 21
3.226906432
 31
0.0
  0
LINE
  5
46C
330
1F
100
AcDbEntity
  8
SLD-0
  6
Continuous
370
    15
100
AcDbLine
 10
16.6761489167
 20
3.226906432
 30
0.0
 11
16.6761489167
 21
2.8519063907
 31
0.0
  0
LINE
  5
46D
330
1F
100
AcDbEntity
  8
SLD-0
  6
Continuous
370
    15
100
AcDbLine
 10
16.6761489167
 20
8.8519061715
 30
0.0
 11
16.6365489342
 21
8.8519061715
 31
0.0
  0
LINE
  5
46E
330
1F
100
AcDbEntity
  8
SLD-0
  6
Continuous
370
    15
100
AcDbLine
 10
16.6365489342
 20
20.8519060265
 30
0.0
 11
16.6365489342
 21
8.8519061715
 31
0.0
  0
LINE
  5
46F
330
1F
100
AcDbEntity
  8
SLD-0
  6
Continuous
370
    15
100
AcDbLine
 10
16.6761489167
 20
20.8519060265
 30
0.0
 11
16.6365489342
 21
20.8519060265
 31
0.0
  0
LINE
  5
470
330
1F
100
AcDbEntity
  8
SLD-0
  6
Continuous
370
    15
100
AcDbLine
 10
16.6761489167
 20
20.8519060265
 30
0.0
 11
16.6761489167
 21
8.8519061715
 31
0.0
  0
LINE
  5
471
330
1F
100
AcDbEntity
  8
SLD-0
  6
Continuous
370
    15
100
AcDbLine
 10
16.6365489342
 20
7.3519062996
 30
0.0
 11
16.6365489342
 21
3.226906432
 31
0.0
  0
LINE
  5
472
330
1F
100
AcDbEntity
  8
SLD-0
  6
Continuous
370
    15
100
AcDbLine
 10
16.6761489167
 20
7.3519062996
 30
0.0
 11
16.6365489342
 21
7.3519062996
 31
0.0
  0
LINE
  5
473
330
1F
100
AcDbEntity
  8
SLD-0
  6
Continuous
370
    15
100
AcDbLine
 10
16.6761489167
 20
7.3519062996
 30
0.0
 11
16.6761489167
 21
3.226906432
 31
0.0
  0
LINE
  5
474
330
1F
100
AcDbEntity
  8
SLD-0
  6
Continuous
370
    15
100
AcDbLine
 10
16.6365489342
 20
8.8519061715
 30
0.0
 11
16.6365489342
 21
7.3519062996
 31
0.0
  0
LINE
  5
475
330
1F
100
AcDbEntity
  8
SLD-0
  6
Continuous
370
    15
100
AcDbLine
 10
16.6761489167
 20
8.8459062541
 30
0.0
 11
16.6761489167
 21
7.3519062996
 31
0.0
  0
LINE
  5
476
330
1F
100
AcDbEntity
  8
SLD-0
  6
Continuous
370
    15
100
AcDbLine
 10
16.6215489208
 20
2.8519063907
 30
0.0
 11
16.6365489342
 21
2.8519063907
 31
0.0
  0
LINE
  5
477
330
1F
100
AcDbEntity
  8
SLD-0
  6
Continuous
370
    15
100
AcDbLine
 10
16.6215489208
 20
20.8519060265
 30
0.0
 11
16.6215489208
 21
2.8519063907
 31
0.0
  0
LINE
  5
478
330
1F
100
AcDbEntity
  8
SLD-0
  6
Continuous
370
    15
100
AcDbLine
 10
16.6365489342
 20
20.8519060265
 30
0.0
 11
16.6215489208
 21
20.8519060265
 31
0.0
  0
LINE
  5
479
330
1F
100
AcDbEntity
  8
SLD-0
  6
Continuous
370
    15
100
AcDbLine
 10
15.6321621236
 20
20.8519060265
 30
0.0
 11
15.6153194115
 21
20.8519060265
 31
0.0
  0
LINE
  5
47A
330
1F
100
AcDbEntity
  8
SLD-0
  6
Continuous
370
    15
100
AcDbLine
 10
15.6321621236
 20
20.8519060265
 30
0.0
 11
15.6321621236
 21
2.8519063907
 31
0.0
  0
LINE
  5
47B
330
1F
100
AcDbEntity
  8
SLD-0
  6
Continuous
370
    15
100
AcDbLine
 10
15.6173011486
 20
2.8519063907
 30
0.0
 11
15.6321621236
 21
2.8519063907
 31
0.0
  0
LINE
  5
47C
330
1F
100
AcDbEntity
  8
SLD-0
  6
Continuous
370
    15
100
AcDbLine
 10
16.6215489208
 20
20.8519060265
 30
0.0
 11
15.6321621236
 21
20.8519060265
 31
0.0
  0
LINE
  5
47D
330
1F
100
AcDbEntity
  8
SLD-0
  6
Continuous
370
    15
100
AcDbLine
 10
16.6215489208
 20
2.8519063907
 30
0.0
 11
15.6321621236
 21
2.8519063907
 31
0.0
  0
LINE
  5
47E
330
1F
100
AcDbEntity
  8
SLD-0
  6
Continuous
370
    15
100
AcDbLine
 10
3.2436951563
 20
20.8519060265
 30
0.0
 11
3.2436951563
 21
2.8519063907
 31
0.0
  0
LWPOLYLINE
  5
47F
330
1F
100
AcDbEntity
  8
SLD-0
  6
Continuous
370
    15
100
AcDbPolyline
 90
      150
 70
   128
 43
0.0
 10
8.2377395446
 20
4.8519062198
 10
8.2368888878
 20
4.8953800643
 10
8.2343404372
 20
4.9387764696
 10
8.2300988862
 20
4.9820191701
 10
8.2241701014
 20
5.0250295532
 10
8.2165646426
 20
5.0677325266
 10
8.207297763
 20
5.1100518244
 10
8.1963847157
 20
5.1519123541
 10
8.1838454472
 20
5.1932396101
 10
8.1697010773
 20
5.233959673
 10
8.1539785922
 20
5.2740003838
 10
8.1367049785
 20
5.3132907565
 10
8.1179107422
 20
5.3517603921
 10
8.0976287365
 20
5.3893418247
 10
8.0758965076
 20
5.4259675882
 10
8.0527527749
 20
5.4615725636
 10
8.0282374315
 20
5.4960933915
 10
8.00239389
 20
5.5294690592
 10
7.9752690834
 20
5.5616403143
 10
7.9469111176
 20
5.5925496639
 10
7.9173704456
 20
5.622141962
 10
7.8866998665
 20
5.650364996
 10
7.85495218
 20
5.677168313
 10
7.8221860518
 20
5.702503807
 10
7.7884578014
 20
5.7263274784
 10
7.7538284415
 20
5.7485965012
 10
7.7183601579
 20
5.769271569
 10
7.6821151366
 20
5.7883151357
 10
7.6451579102
 20
5.8056937616
 10
7.6075541846
 20
5.8213769404
 10
7.569370839
 20
5.8353359258
 10
7.530675926
 20
5.8475466648
 10
7.4915374981
 20
5.8579874508
 10
7.4520259546
 20
5.8666389242
 10
7.4122116945
 20
5.8734864185
 10
7.3721651171
 20
5.8785176137
 10
7.331957795
 20
5.88172371
 10
7.2916613005
 20
5.8830988407
 10
7.2513460329
 20
5.8826406594
 10
7.211084738
 20
5.8803497525
 10
7.1709489883
 20
5.8762296401
 10
7.131009183
 20
5.8702891221
 10
7.091338068
 20
5.8625375849
 10
7.052004869
 20
5.8529896952
 10
7.0130799853
 20
5.8416612928
 10
6.9746314695
 20
5.8285734973
 10
6.9367297207
 20
5.8137491885
 10
6.8994404448
 20
5.7972147662
 10
6.8628316943
 20
5.7789989766
 10
6.8269668287
 20
5.7591358461
 10
6.7919103803
 20
5.7376588142
 10
6.7577245352
 20
5.7146077738
 10
6.7244691327
 20
5.6900226178
 10
6.6922051854
 20
5.6639467591
 10
6.6609890127
 20
5.636427717
 10
6.6308769339
 20
5.6075135977
 10
6.6019205751
 20
5.5772560272
 10
6.5741727356
 20
5.5457089783
 10
6.5476838683
 20
5.5129281837
 10
6.5224985592
 20
5.4789723092
 10
6.4986637412
 20
5.4439017811
 10
6.4762204805
 20
5.4077781984
 10
6.4552086699
 20
5.3706666804
 10
6.435667029
 20
5.3326323464
 10
6.4176284107
 20
5.293743249
 10
6.4011268413
 20
5.2540692007
 10
6.3861904805
 20
5.2136800139
 10
6.3728451414
 20
5.1726472613
 10
6.3611166369
 20
5.1310442752
 10
6.3510237401
 20
5.0889449749
 10
6.3425863976
 20
5.0464244527
 10
6.3358175158
 20
5.0035578013
 10
6.3307311745
 20
4.9604218729
 10
6.3273344138
 20
4.9170929335
 10
6.3256354467
 20
4.8736478353
 10
6.3256354467
 20
4.8301646043
 10
6.3273344138
 20
4.7867195062
 10
6.3307311745
 20
4.7433905667
 10
6.3358175158
 20
4.7002540517
 10
6.3425863976
 20
4.6573879869
 10
6.3510237401
 20
4.6148674648
 10
6.3611166369
 20
4.5727681645
 10
6.3728451414
 20
4.5311651784
 10
6.3861904805
 20
4.4901324257
 10
6.4011268413
 20
4.449743239
 10
6.4176284107
 20
4.410068604
 10
6.435667029
 20
4.3711800932
 10
6.4552086699
 20
4.3331457593
 10
6.4762204805
 20
4.2960342413
 10
6.4986637412
 20
4.2599106586
 10
6.5224985592
 20
4.2248401304
 10
6.5476838683
 20
4.190884256
 10
6.5741727356
 20
4.1581034614
 10
6.6019205751
 20
4.1265564125
 10
6.6308769339
 20
4.096298842
 10
6.6609890127
 20
4.0673847227
 10
6.6922051854
 20
4.0398656806
 10
6.7244691327
 20
4.0137898218
 10
6.7577245352
 20
3.9892046658
 10
6.7919103803
 20
3.9661530388
 10
6.8269668287
 20
3.9446765936
 10
6.8628316943
 20
3.9248128764
 10
6.8994404448
 20
3.9065976735
 10
6.9367297207
 20
3.8900632511
 10
6.9746314695
 20
3.8752389424
 10
7.0130799853
 20
3.8621511469
 10
7.052004869
 20
3.8508227444
 10
7.091338068
 20
3.8412748547
 10
7.131009183
 20
3.8335233176
 10
7.1709489883
 20
3.8275822129
 10
7.211084738
 20
3.8234626872
 10
7.2513460329
 20
3.8211717803
 10
7.2916613005
 20
3.8207135989
 10
7.331957795
 20
3.8220887297
 10
7.3721651171
 20
3.8252942393
 10
7.4122116945
 20
3.8303260212
 10
7.4520259546
 20
3.8371735154
 10
7.4915374981
 20
3.8458249888
 10
7.530675926
 20
3.8562657749
 10
7.569370839
 20
3.8684765138
 10
7.6075541846
 20
3.8824354992
 10
7.6451579102
 20
3.8981186781
 10
7.6821151366
 20
3.915497304
 10
7.7183601579
 20
3.9345408706
 10
7.7538284415
 20
3.9552159385
 10
7.7884578014
 20
3.9774843746
 10
7.8221860518
 20
4.001308046
 10
7.85495218
 20
4.0266441267
 10
7.8866998665
 20
4.0534474437
 10
7.9173704456
 20
4.0816704777
 10
7.9469111176
 20
4.1112627758
 10
7.9752690834
 20
4.1421721254
 10
8.00239389
 20
4.1743427938
 10
8.0282374315
 20
4.2077190482
 10
8.0527527749
 20
4.2422398761
 10
8.0758965076
 20
4.2778448514
 10
8.0976287365
 20
4.314470615
 10
8.1179107422
 20
4.3520520475
 10
8.1367049785
 20
4.3905216831
 10
8.1539785922
 20
4.4298120559
 10
8.1697010773
 20
4.4698527667
 10
8.1838454472
 20
4.5105728296
 10
8.1963847157
 20
4.5519000855
 10
8.207297763
 20
4.5937600286
 10
8.2165646426
 20
4.6360793264
 10
8.2241701014
 20
4.6787828864
 10
8.2300988862
 20
4.7217932696
 10
8.2343404372
 20
4.7650353834
 10
8.2368888878
 20
4.8084323754
 10
8.2377395446
 20
4.8519062198
  0
LWPOLYLINE
  5
480
330
1F
100
AcDbEntity
  8
SLD-0
  6
Continuous
370
    15
100
AcDbPolyline
 90
       91
 70
   128
 43
0.0
 10
11.0923068884
 20
19.8519061119
 10
11.0914597515
 20
19.8780646897
 10
11.0889230342
 20
19.9040959623
 10
11.0847090562
 20
19.9298732112
 10
11.078837764
 20
19.9552703045
 10
11.0713384906
 20
19.9801634569
 10
11.0622470223
 20
20.0044324032
 10
11.0516085319
 20
20.0279580515
 10
11.0394740588
 20
20.0506260029
 10
11.0259028555
 20
20.0723253789
 10
11.0109618015
 20
20.092951754
 10
10.9947230557
 20
20.1124030493
 10
10.9772652307
 20
20.1305853992
 10
10.9586745655
 20
20.1474102182
 10
10.939040819
 20
20.1627953738
 10
10.9184596167
 20
20.1766657736
 10
10.8970318643
 20
20.1889539516
 10
10.8748614004
 20
20.1996000686
 10
10.8520561705
 20
20.2085524985
 10
10.82872764
 20
20.2157672419
 10
10.8049890342
 20
20.221209099
 10
10.7809565118
 20
20.2248516703
 10
10.7567474048
 20
20.2266779425
 10
10.7324784585
 20
20.2266779425
 10
10.7082687649
 20
20.2248516703
 10
10.6842362425
 20
20.221209099
 10
10.6604982234
 20
20.2157672419
 10
10.6371696929
 20
20.2085524985
 10
10.614364463
 20
20.1996000686
 10
10.5921939991
 20
20.1889539516
 10
10.57076566
 20
20.1766657736
 10
10.5501850444
 20
20.1627953738
 10
10.5305512979
 20
20.1474102182
 10
10.511960046
 20
20.1305853992
 10
10.4945028076
 20
20.1124030493
 10
10.4782640619
 20
20.092951754
 10
10.4633224212
 20
20.0723253789
 10
10.4497518046
 20
20.0506260029
 10
10.4376173315
 20
20.0279580515
 10
10.426978841
 20
20.0044324032
 10
10.4178873727
 20
19.9801634569
 10
10.4103880993
 20
19.9552703045
 10
10.4045168072
 20
19.9298732112
 10
10.4003028292
 20
19.9040959623
 10
10.3977655252
 20
19.8780646897
 10
10.3969189749
 20
19.8519061119
 10
10.3977655252
 20
19.8257475341
 10
10.4003028292
 20
19.7997162615
 10
10.4045168072
 20
19.7739395992
 10
10.4103880993
 20
19.7485419193
 10
10.4178873727
 20
19.7236487669
 10
10.426978841
 20
19.6993798206
 10
10.4376173315
 20
19.6758541723
 10
10.4497518046
 20
19.6531862209
 10
10.4633224212
 20
19.6314868449
 10
10.4782640619
 20
19.6108610565
 10
10.4945028076
 20
19.5914091745
 10
10.511960046
 20
19.5732268245
 10
10.5305512979
 20
19.5564020056
 10
10.5501850444
 20
19.54101685
 10
10.57076566
 20
19.5271464502
 10
10.5921939991
 20
19.5148582722
 10
10.614364463
 20
19.5042121551
 10
10.6371696929
 20
19.4952597252
 10
10.6604982234
 20
19.4880455686
 10
10.6842362425
 20
19.4826031248
 10
10.7082687649
 20
19.4789605535
 10
10.7324784585
 20
19.4771348679
 10
10.7567474048
 20
19.4771348679
 10
10.7809565118
 20
19.4789605535
 10
10.8049890342
 20
19.4826031248
 10
10.82872764
 20
19.4880455686
 10
10.8520561705
 20
19.4952597252
 10
10.8748614004
 20
19.5042121551
 10
10.8970318643
 20
19.5148582722
 10
10.9184596167
 20
19.5271464502
 10
10.939040819
 20
19.54101685
 10
10.9586745655
 20
19.5564020056
 10
10.9772652307
 20
19.5732268245
 10
10.9947230557
 20
19.5914091745
 10
11.0109618015
 20
19.6108610565
 10
11.0259028555
 20
19.6314868449
 10
11.0394740588
 20
19.6531862209
 10
11.0516085319
 20
19.6758541723
 10
11.0622470223
 20
19.6993798206
 10
11.0713384906
 20
19.7236487669
 10
11.078837764
 20
19.7485419193
 10
11.0847090562
 20
19.7739395992
 10
11.0889230342
 20
19.7997162615
 10
11.0914597515
 20
19.8257475341
 10
11.0923068884
 20
19.8519061119
  0
LINE
  5
481
330
1F
100
AcDbEntity
  8
SLD-0
  6
Continuous
370
    15
100
AcDbLine
 10
14.5218091372
 20
5.8831563334
 30
0.0
 11
14.5218091372
 21
5.8989063915
 31
0.0
  0
LINE
  5
482
330
1F
100
AcDbEntity
  8
SLD-0
  6
Continuous
370
    15
100
AcDbLine
 10
14.5218091372
 20
5.8989063915
 30
0.0
 11
13.3674654589
 21
5.8989063915
 31
0.0
  0
LINE
  5
483
330
1F
100
AcDbEntity
  8
SLD-0
  6
Continuous
370
    15
100
AcDbLine
 10
13.3674654589
 20
5.8989063915
 30
0.0
 11
13.3674654589
 21
5.8831563334
 31
0.0
  0
LINE
  5
484
330
1F
100
AcDbEntity
  8
SLD-0
  6
Continuous
370
    15
100
AcDbLine
 10
13.3674654589
 20
5.8831563334
 30
0.0
 11
13.2515672778
 21
5.8831563334
 31
0.0
  0
LINE
  5
485
330
1F
100
AcDbEntity
  8
SLD-0
  6
Continuous
370
    15
100
AcDbLine
 10
13.2515672778
 20
5.8831563334
 30
0.0
 11
13.2515672778
 21
5.8989063915
 31
0.0
  0
LINE
  5
486
330
1F
100
AcDbEntity
  8
SLD-0
  6
Continuous
370
    15
100
AcDbLine
 10
13.2515672778
 20
5.8989063915
 30
0.0
 11
10.2294117367
 21
5.8989063915
 31
0.0
  0
LINE
  5
487
330
1F
100
AcDbEntity
  8
SLD-0
  6
Continuous
370
    15
100
AcDbLine
 10
10.2294117367
 20
5.8989063915
 30
0.0
 11
10.2294117367
 21
5.8831563334
 31
0.0
  0
LINE
  5
488
330
1F
100
AcDbEntity
  8
SLD-0
  6
Continuous
370
    15
100
AcDbLine
 10
10.2294117367
 20
5.8831563334
 30
0.0
 11
10.1135135555
 21
5.8831563334
 31
0.0
  0
LINE
  5
489
330
1F
100
AcDbEntity
  8
SLD-0
  6
Continuous
370
    15
100
AcDbLine
 10
10.1135135555
 20
5.8831563334
 30
0.0
 11
10.1135135555
 21
5.8989063915
 31
0.0
  0
LINE
  5
48A
330
1F
100
AcDbEntity
  8
SLD-0
  6
Continuous
370
    15
100
AcDbLine
 10
10.1135135555
 20
5.8989063915
 30
0.0
 11
8.9591698773
 21
5.8989063915
 31
0.0
  0
LINE
  5
48B
330
1F
100
AcDbEntity
  8
SLD-0
  6
Continuous
370
    15
100
AcDbLine
 10
8.9591698773
 20
5.8989063915
 30
0.0
 11
8.9591698773
 21
5.8831563334
 31
0.0
  0
LINE
  5
48C
330
1F
100
AcDbEntity
  8
SLD-0
  6
Continuous
370
    15
100
AcDbLine
 10
8.9591698773
 20
5.8831563334
 30
0.0
 11
8.8432716961
 21
5.8831563334
 31
0.0
  0
LINE
  5
48D
330
1F
100
AcDbEntity
  8
SLD-0
  6
Continuous
370
    15
100
AcDbLine
 10
8.8432716961
 20
5.8831563334
 30
0.0
 11
8.7561163296
 21
5.8831563334
 31
0.0
  0
LINE
  5
48E
330
1F
100
AcDbEntity
  8
SLD-0
  6
Continuous
370
    15
100
AcDbLine
 10
8.7561163296
 20
5.8831563334
 30
0.0
 11
8.7561163296
 21
3.8206561063
 31
0.0
  0
LINE
  5
48F
330
1F
100
AcDbEntity
  8
SLD-0
  6
Continuous
370
    15
100
AcDbLine
 10
8.7561163296
 20
3.8206561063
 30
0.0
 11
14.7248623915
 21
3.8206561063
 31
0.0
  0
LINE
  5
490
330
1F
100
AcDbEntity
  8
SLD-0
  6
Continuous
370
    15
100
AcDbLine
 10
14.7248623915
 20
3.8206561063
 30
0.0
 11
14.7248623915
 21
5.8831563334
 31
0.0
  0
LINE
  5
491
330
1F
100
AcDbEntity
  8
SLD-0
  6
Continuous
370
    15
100
AcDbLine
 10
14.7248623915
 20
5.8831563334
 30
0.0
 11
14.637707025
 21
5.8831563334
 31
0.0
  0
LINE
  5
492
330
1F
100
AcDbEntity
  8
SLD-0
  6
Continuous
370
    15
100
AcDbLine
 10
14.637707025
 20
5.8831563334
 30
0.0
 11
14.5218091372
 21
5.8831563334
 31
0.0
  0
LINE
  5
493
330
1F
100
AcDbEntity
  8
SLD-0
  6
Continuous
370
    15
100
AcDbLine
 10
3.5941599077
 20
2.8519063907
 30
0.0
 11
3.2436951563
 21
2.8519063907
 31
0.0
  0
LINE
  5
494
330
1F
100
AcDbEntity
  8
SLD-0
  6
Continuous
370
    15
100
AcDbLine
 10
3.6020469632
 20
20.8519060265
 30
0.0
 11
3.2436951563
 21
20.8519060265
 31
0.0
  0
LWPOLYLINE
  5
495
330
1F
100
AcDbEntity
  8
SLD-0
  6
Continuous
370
    15
100
AcDbPolyline
 90
        9
 70
   128
 43
0.0
 10
14.6581606287
 20
5.8285564842
 10
14.6541704615
 20
5.829605432
 10
14.6503334125
 20
5.8327123828
 10
14.64679732
 20
5.8377582445
 10
14.6436979958
 20
5.8445482461
 10
14.6411542385
 20
5.8528219105
 10
14.6392640203
 20
5.8622618548
 10
14.6381000871
 20
5.8725043498
 10
14.637707025
 20
5.8831563334
  0
LWPOLYLINE
  5
496
330
1F
100
AcDbEntity
  8
SLD-0
  6
Continuous
370
    15
100
AcDbPolyline
 90
        9
 70
   128
 43
0.0
 10
14.6581606287
 20
5.8681560267
 10
14.6570644547
 20
5.8684446634
 10
14.6560102269
 20
5.8692982535
 10
14.6550390114
 20
5.8706839442
 10
14.6541874746
 20
5.8725495226
 10
14.6534884693
 20
5.8748228297
 10
14.6529692753
 20
5.8774158664
 10
14.6526495457
 20
5.8802300739
 10
14.6525416003
 20
5.8831563334
  0
LINE
  5
497
330
1F
100
AcDbEntity
  8
SLD-0
  6
Continuous
370
    15
100
AcDbLine
 10
14.6581606287
 20
5.8285564842
 30
0.0
 11
14.6581606287
 21
5.8681560267
 31
0.0
  0
LINE
  5
498
330
1F
100
AcDbEntity
  8
SLD-0
  6
Continuous
370
    15
100
AcDbLine
 10
14.6581606287
 20
5.8285564842
 30
0.0
 11
14.5422627409
 21
5.8285564842
 31
0.0
  0
LWPOLYLINE
  5
499
330
1F
100
AcDbEntity
  8
SLD-0
  6
Continuous
370
    15
100
AcDbPolyline
 90
        9
 70
   128
 43
0.0
 10
14.5218091372
 20
5.8831563334
 10
14.5222021993
 20
5.8725043498
 10
14.5233661325
 20
5.8622618548
 10
14.5252563507
 20
5.8528219105
 10
14.5277998146
 20
5.8445482461
 10
14.5308994322
 20
5.8377582445
 10
14.5344355247
 20
5.8327123828
 10
14.5382722803
 20
5.829605432
 10
14.5422627409
 20
5.8285564842
  0
LINE
  5
49A
330
1F
100
AcDbEntity
  8
SLD-0
  6
Continuous
370
    15
100
AcDbLine
 10
14.7248623915
 20
5.8681560267
 30
0.0
 11
14.6581606287
 21
5.8681560267
 31
0.0
  0
LINE
  5
49B
330
1F
100
AcDbEntity
  8
SLD-0
  6
Continuous
370
    15
100
AcDbLine
 10
14.6581606287
 20
5.8285564842
 30
0.0
 11
14.7248623915
 21
5.8285564842
 31
0.0
  0
LINE
  5
49C
330
1F
100
AcDbEntity
  8
SLD-0
  6
Continuous
370
    15
100
AcDbLine
 10
13.3967544539
 20
5.8285564842
 30
0.0
 11
13.3967544539
 21
5.8681560267
 31
0.0
  0
LINE
  5
49D
330
1F
100
AcDbEntity
  8
SLD-0
  6
Continuous
370
    15
100
AcDbLine
 10
14.5225961414
 20
5.8681560267
 30
0.0
 11
13.3967544539
 21
5.8681560267
 31
0.0
  0
LINE
  5
49E
330
1F
100
AcDbEntity
  8
SLD-0
  6
Continuous
370
    15
100
AcDbLine
 10
13.3967544539
 20
5.8285564842
 30
0.0
 11
14.5422627409
 21
5.8285564842
 31
0.0
  0
LWPOLYLINE
  5
49F
330
1F
100
AcDbEntity
  8
SLD-0
  6
Continuous
370
    15
100
AcDbPolyline
 90
        9
 70
   128
 43
0.0
 10
13.3879187693
 20
5.8285564842
 10
13.3839286021
 20
5.829605432
 10
13.3800915531
 20
5.8327123828
 10
13.3765551673
 20
5.8377582445
 10
13.3734558431
 20
5.8445482461
 10
13.3709120858
 20
5.8528219105
 10
13.3690224543
 20
5.8622618548
 10
13.3678585211
 20
5.8725043498
 10
13.3674654589
 20
5.8831563334
  0
LWPOLYLINE
  5
4A0
330
1F
100
AcDbEntity
  8
SLD-0
  6
Continuous
370
    15
100
AcDbPolyline
 90
        9
 70
   128
 43
0.0
 10
13.2515672778
 20
5.8831563334
 10
13.2519603399
 20
5.8725043498
 10
13.2531242731
 20
5.8622618548
 10
13.2550144913
 20
5.8528219105
 10
13.2575582486
 20
5.8445482461
 10
13.2606575728
 20
5.8377582445
 10
13.2641933719
 20
5.8327123828
 10
13.2680307143
 20
5.829605432
 10
13.2720205882
 20
5.8285564842
  0
LINE
  5
4A1
330
1F
100
AcDbEntity
  8
SLD-0
  6
Continuous
370
    15
100
AcDbLine
 10
13.3879187693
 20
5.8285564842
 30
0.0
 11
13.2720205882
 21
5.8285564842
 31
0.0
  0
LINE
  5
4A2
330
1F
100
AcDbEntity
  8
SLD-0
  6
Continuous
370
    15
100
AcDbLine
 10
13.3674654589
 20
5.8831563334
 30
0.0
 11
13.3822997409
 21
5.8831563334
 31
0.0
  0
LWPOLYLINE
  5
4A3
330
1F
100
AcDbEntity
  8
SLD-0
  6
Continuous
370
    15
100
AcDbPolyline
 90
        9
 70
   128
 43
0.0
 10
13.3879187693
 20
5.8681560267
 10
13.3868225953
 20
5.8684446634
 10
13.3857683675
 20
5.8692982535
 10
13.3847968587
 20
5.8706839442
 10
13.3839456152
 20
5.8725495226
 10
13.38324661
 20
5.8748228297
 10
13.382727416
 20
5.8774158664
 10
13.3824076863
 20
5.8802300739
 10
13.3822997409
 20
5.8831563334
  0
LINE
  5
4A4
330
1F
100
AcDbEntity
  8
SLD-0
  6
Continuous
370
    15
100
AcDbLine
 10
13.3879187693
 20
5.8285564842
 30
0.0
 11
13.3879187693
 21
5.8681560267
 31
0.0
  0
LINE
  5
4A5
330
1F
100
AcDbEntity
  8
SLD-0
  6
Continuous
370
    15
100
AcDbLine
 10
13.3822997409
 20
5.8831563334
 30
0.0
 11
13.3822997409
 21
5.8989063915
 31
0.0
  0
LINE
  5
4A6
330
1F
100
AcDbEntity
  8
SLD-0
  6
Continuous
370
    15
100
AcDbLine
 10
13.3967544539
 20
5.8681560267
 30
0.0
 11
13.3879187693
 21
5.8681560267
 31
0.0
  0
LINE
  5
4A7
330
1F
100
AcDbEntity
  8
SLD-0
  6
Continuous
370
    15
100
AcDbLine
 10
13.3879187693
 20
5.8285564842
 30
0.0
 11
13.3967544539
 21
5.8285564842
 31
0.0
  0
LINE
  5
4A8
330
1F
100
AcDbEntity
  8
SLD-0
  6
Continuous
370
    15
100
AcDbLine
 10
10.2587007316
 20
5.8285564842
 30
0.0
 11
10.2587007316
 21
5.8681560267
 31
0.0
  0
LINE
  5
4A9
330
1F
100
AcDbEntity
  8
SLD-0
  6
Continuous
370
    15
100
AcDbLine
 10
13.2523545754
 20
5.8681560267
 30
0.0
 11
10.2587007316
 21
5.8681560267
 31
0.0
  0
LINE
  5
4AA
330
1F
100
AcDbEntity
  8
SLD-0
  6
Continuous
370
    15
100
AcDbLine
 10
10.2587007316
 20
5.8285564842
 30
0.0
 11
13.2720205882
 21
5.8285564842
 31
0.0
  0
ARC
  5
4AB
330
1F
100
AcDbEntity
  8
SLD-0
  6
Continuous
370
    15
100
AcDbCircle
 10
10.7731430622
 20
19.8657817992
 30
0.0
 40
0.361656088101577
100
AcDbArc
 50
93.3467523506
 51
182.1988113083
  0
ARC
  5
4AC
330
1F
100
AcDbEntity
  8
SLD-0
  6
Continuous
370
    15
100
AcDbCircle
 10
10.7744756544
 20
19.8392404663
 30
0.0
 40
0.3629434614886857
100
AcDbArc
 50
178.0001419406
 51
266.4543836364
  0
LINE
  5
4AD
330
1F
100
AcDbEntity
  8
SLD-0
  6
Continuous
370
    15
100
AcDbLine
 10
10.2294117367
 20
5.8831563334
 30
0.0
 11
10.2442460186
 21
5.8831563334
 31
0.0
  0
LINE
  5
4AE
330
1F
100
AcDbEntity
  8
SLD-0
  6
Continuous
370
    15
100
AcDbLine
 10
10.2442460186
 20
5.8831563334
 30
0.0
 11
10.2442460186
 21
5.8989063915
 31
0.0
  0
LWPOLYLINE
  5
4AF
330
1F
100
AcDbEntity
  8
SLD-0
  6
Continuous
370
    15
100
AcDbPolyline
 90
        9
 70
   128
 43
0.0
 10
10.249865047
 20
5.8285564842
 10
10.2458745865
 20
5.829605432
 10
10.2420378308
 20
5.8327123828
 10
10.238501445
 20
5.8377582445
 10
10.2354021208
 20
5.8445482461
 10
10.2328583635
 20
5.8528219105
 10
10.230968732
 20
5.8622618548
 10
10.2298047988
 20
5.8725043498
 10
10.2294117367
 20
5.8831563334
  0
LWPOLYLINE
  5
4B0
330
1F
100
AcDbEntity
  8
SLD-0
  6
Continuous
370
    15
100
AcDbPolyline
 90
        9
 70
   128
 43
0.0
 10
10.249865047
 20
5.8681560267
 10
10.2487685797
 20
5.8684446634
 10
10.2477149386
 20
5.8692982535
 10
10.2467434298
 20
5.8706839442
 10
10.2458915996
 20
5.8725495226
 10
10.2451928877
 20
5.8748228297
 10
10.2446736937
 20
5.8774158664
 10
10.244353964
 20
5.8802300739
 10
10.2442460186
 20
5.8831563334
  0
LINE
  5
4B1
330
1F
100
AcDbEntity
  8
SLD-0
  6
Continuous
370
    15
100
AcDbLine
 10
10.249865047
 20
5.8285564842
 30
0.0
 11
10.249865047
 21
5.8681560267
 31
0.0
  0
LWPOLYLINE
  5
4B2
330
1F
100
AcDbEntity
  8
SLD-0
  6
Continuous
370
    15
100
AcDbPolyline
 90
        9
 70
   128
 43
0.0
 10
10.1135135555
 20
5.8831563334
 10
10.1139066177
 20
5.8725043498
 10
10.1150705509
 20
5.8622618548
 10
10.116960769
 20
5.8528219105
 10
10.1195039397
 20
5.8445482461
 10
10.1226038505
 20
5.8377582445
 10
10.1261396497
 20
5.8327123828
 10
10.129976992
 20
5.829605432
 10
10.1339668659
 20
5.8285564842
  0
LINE
  5
4B3
330
1F
100
AcDbEntity
  8
SLD-0
  6
Continuous
370
    15
100
AcDbLine
 10
10.249865047
 20
5.8285564842
 30
0.0
 11
10.1339668659
 21
5.8285564842
 31
0.0
  0
LINE
  5
4B4
330
1F
100
AcDbEntity
  8
SLD-0
  6
Continuous
370
    15
100
AcDbLine
 10
10.2587007316
 20
5.8681560267
 30
0.0
 11
10.249865047
 21
5.8681560267
 31
0.0
  0
LINE
  5
4B5
330
1F
100
AcDbEntity
  8
SLD-0
  6
Continuous
370
    15
100
AcDbLine
 10
10.249865047
 20
5.8285564842
 30
0.0
 11
10.2587007316
 21
5.8285564842
 31
0.0
  0
LINE
  5
4B6
330
1F
100
AcDbEntity
  8
SLD-0
  6
Continuous
370
    15
100
AcDbLine
 10
8.9884588723
 20
5.8285564842
 30
0.0
 11
8.9884588723
 21
5.8681560267
 31
0.0
  0
LINE
  5
4B7
330
1F
100
AcDbEntity
  8
SLD-0
  6
Continuous
370
    15
100
AcDbLine
 10
10.1143002664
 20
5.8681560267
 30
0.0
 11
8.9884588723
 21
5.8681560267
 31
0.0
  0
LINE
  5
4B8
330
1F
100
AcDbEntity
  8
SLD-0
  6
Continuous
370
    15
100
AcDbLine
 10
8.9884588723
 20
5.8285564842
 30
0.0
 11
10.1339668659
 21
5.8285564842
 31
0.0
  0
LWPOLYLINE
  5
4B9
330
1F
100
AcDbEntity
  8
SLD-0
  6
Continuous
370
    15
100
AcDbPolyline
 90
        9
 70
   128
 43
0.0
 10
8.9796231877
 20
5.8285564842
 10
8.9756327271
 20
5.829605432
 10
8.9717959714
 20
5.8327123828
 10
8.9682595856
 20
5.8377582445
 10
8.9651602614
 20
5.8445482461
 10
8.9626165041
 20
5.8528219105
 10
8.960726286
 20
5.8622618548
 10
8.9595623527
 20
5.8725043498
 10
8.9591698773
 20
5.8831563334
  0
LWPOLYLINE
  5
4BA
330
1F
100
AcDbEntity
  8
SLD-0
  6
Continuous
370
    15
100
AcDbPolyline
 90
        9
 70
   128
 43
0.0
 10
8.8432716961
 20
5.8831563334
 10
8.8436647583
 20
5.8725043498
 10
8.8448286915
 20
5.8622618548
 10
8.8467189096
 20
5.8528219105
 10
8.8492620803
 20
5.8445482461
 10
8.8523619911
 20
5.8377582445
 10
8.8558977903
 20
5.8327123828
 10
8.8597351326
 20
5.829605432
 10
8.8637250065
 20
5.8285564842
  0
LINE
  5
4BB
330
1F
100
AcDbEntity
  8
SLD-0
  6
Continuous
370
    15
100
AcDbLine
 10
8.9796231877
 20
5.8285564842
 30
0.0
 11
8.8637250065
 21
5.8285564842
 31
0.0
  0
LINE
  5
4BC
330
1F
100
AcDbEntity
  8
SLD-0
  6
Continuous
370
    15
100
AcDbLine
 10
8.9591698773
 20
5.8831563334
 30
0.0
 11
8.9740041592
 21
5.8831563334
 31
0.0
  0
LWPOLYLINE
  5
4BD
330
1F
100
AcDbEntity
  8
SLD-0
  6
Continuous
370
    15
100
AcDbPolyline
 90
        9
 70
   128
 43
0.0
 10
8.9796231877
 20
5.8681560267
 10
8.9785267203
 20
5.8684446634
 10
8.9774730792
 20
5.8692982535
 10
8.9765015704
 20
5.8706839442
 10
8.9756497402
 20
5.8725495226
 10
8.9749510283
 20
5.8748228297
 10
8.9744318343
 20
5.8774158664
 10
8.9741121047
 20
5.8802300739
 10
8.9740041592
 20
5.8831563334
  0
LINE
  5
4BE
330
1F
100
AcDbEntity
  8
SLD-0
  6
Continuous
370
    15
100
AcDbLine
 10
8.9796231877
 20
5.8285564842
 30
0.0
 11
8.9796231877
 21
5.8681560267
 31
0.0
  0
LINE
  5
4BF
330
1F
100
AcDbEntity
  8
SLD-0
  6
Continuous
370
    15
100
AcDbLine
 10
8.9740041592
 20
5.8831563334
 30
0.0
 11
8.9740041592
 21
5.8989063915
 31
0.0
  0
LINE
  5
4C0
330
1F
100
AcDbEntity
  8
SLD-0
  6
Continuous
370
    15
100
AcDbLine
 10
8.9884588723
 20
5.8681560267
 30
0.0
 11
8.9796231877
 21
5.8681560267
 31
0.0
  0
LINE
  5
4C1
330
1F
100
AcDbEntity
  8
SLD-0
  6
Continuous
370
    15
100
AcDbLine
 10
8.9796231877
 20
5.8285564842
 30
0.0
 11
8.9884588723
 21
5.8285564842
 31
0.0
  0
LINE
  5
4C2
330
1F
100
AcDbEntity
  8
SLD-0
  6
Continuous
370
    15
100
AcDbLine
 10
8.7709506116
 20
3.8206561063
 30
0.0
 11
8.7709506116
 21
5.8831563334
 31
0.0
  0
LWPOLYLINE
  5
4C3
330
1F
100
AcDbEntity
  8
SLD-0
  6
Continuous
370
    15
100
AcDbPolyline
 90
       39
 70
   128
 43
0.0
 10
6.3402573578
 20
4.8519062198
 10
6.3411068414
 20
4.8953800643
 10
6.3436552919
 20
4.9387764696
 10
6.3478980162
 20
4.9820191701
 10
6.3538268011
 20
5.0250295532
 10
6.3614322599
 20
5.0677325266
 10
6.3706991395
 20
5.1100518244
 10
6.3816121868
 20
5.1519123541
 10
6.3941514552
 20
5.1932396101
 10
6.4082958252
 20
5.233959673
 10
6.4240183102
 20
5.2740003838
 10
6.441291924
 20
5.3132907565
 10
6.4600861602
 20
5.3517603921
 10
6.4803669926
 20
5.3893418247
 10
6.5020992216
 20
5.4259675882
 10
6.5252441275
 20
5.4615725636
 10
6.549759471
 20
5.4960933915
 10
6.5756030124
 20
5.5294690592
 10
6.6027266458
 20
5.5616403143
 10
6.6310846115
 20
5.5925496639
 10
6.6606264569
 20
5.622141962
 10
6.6912970359
 20
5.650364996
 10
6.7230447225
 20
5.677168313
 10
6.7558108507
 20
5.702503807
 10
6.789539101
 20
5.7263274784
 10
6.8241672877
 20
5.7485965012
 10
6.8596367446
 20
5.769271569
 10
6.8958817659
 20
5.7883151357
 10
6.9328389923
 20
5.8056937616
 10
6.9704427179
 20
5.8213769404
 10
7.0086260635
 20
5.8353359258
 10
7.0473209764
 20
5.8475466648
 10
7.0864594043
 20
5.8579874508
 10
7.1259697746
 20
5.8666389242
 10
7.1657840346
 20
5.8734864185
 10
7.205830612
 20
5.8785176137
 10
7.2460379342
 20
5.88172371
 10
7.286335602
 20
5.8830988407
 10
7.2889978646
 20
5.8831252404
  0
LWPOLYLINE
  5
4C4
330
1F
100
AcDbEntity
  8
SLD-0
  6
Continuous
370
    15
100
AcDbPolyline
 90
       39
 70
   128
 43
0.0
 10
7.2889978646
 20
3.8206871992
 10
7.286335602
 20
3.8207135989
 10
7.2460379342
 20
3.8220887297
 10
7.205830612
 20
3.8252942393
 10
7.1657840346
 20
3.8303260212
 10
7.1259697746
 20
3.8371735154
 10
7.0864594043
 20
3.8458249888
 10
7.0473209764
 20
3.8562657749
 10
7.0086260635
 20
3.8684765138
 10
6.9704427179
 20
3.8824354992
 10
6.9328389923
 20
3.8981186781
 10
6.8958817659
 20
3.915497304
 10
6.8596367446
 20
3.9345408706
 10
6.8241672877
 20
3.9552159385
 10
6.789539101
 20
3.9774843746
 10
6.7558108507
 20
4.001308046
 10
6.7230447225
 20
4.0266441267
 10
6.6912970359
 20
4.0534474437
 10
6.6606264569
 20
4.0816704777
 10
6.6310846115
 20
4.1112627758
 10
6.6027266458
 20
4.1421721254
 10
6.5756030124
 20
4.1743427938
 10
6.549759471
 20
4.2077190482
 10
6.5252441275
 20
4.2422398761
 10
6.5020992216
 20
4.2778448514
 10
6.4803669926
 20
4.314470615
 10
6.4600861602
 20
4.3520520475
 10
6.441291924
 20
4.3905216831
 10
6.4240183102
 20
4.4298120559
 10
6.4082958252
 20
4.4698527667
 10
6.3941514552
 20
4.5105728296
 10
6.3816121868
 20
4.5519000855
 10
6.3706991395
 20
4.5937600286
 10
6.3614322599
 20
4.6360793264
 10
6.3538268011
 20
4.6787828864
 10
6.3478980162
 20
4.7217932696
 10
6.3436552919
 20
4.7650353834
 10
6.3411068414
 20
4.8084323754
 10
6.3402573578
 20
4.8519062198
  0
LINE
  5
4C5
330
1F
100
AcDbEntity
  8
SLD-0
  6
Continuous
370
    15
100
AcDbLine
 10
3.209549204
 20
20.8519060265
 30
0.0
 11
3.209549204
 21
2.8519063907
 31
0.0
  0
LINE
  5
4C6
330
1F
100
AcDbEntity
  8
SLD-0
  6
Continuous
370
    15
100
AcDbLine
 10
3.2436951563
 20
20.8519060265
 30
0.0
 11
3.209549204
 21
20.8519060265
 31
0.0
  0
LINE
  5
4C7
330
1F
100
AcDbEntity
  8
SLD-0
  6
Continuous
370
    15
100
AcDbLine
 10
3.209549204
 20
2.8519063907
 30
0.0
 11
3.2436951563
 21
2.8519063907
 31
0.0
  0
LINE
  5
4C8
330
1F
100
AcDbEntity
  8
SLD-0
  6
Continuous
370
    15
100
AcDbLine
 10
16.7042640053
 20
5.9100523427
 30
0.0
 11
16.7042640053
 21
6.1283021415
 31
0.0
  0
LINE
  5
4C9
330
1F
100
AcDbEntity
  8
SLD-0
  6
Continuous
370
    15
100
AcDbLine
 10
16.7042640053
 20
18.4324525895
 30
0.0
 11
16.7042640053
 21
18.457052412
 31
0.0
  0
LINE
  5
4CA
330
1F
100
AcDbEntity
  8
SLD-0
  6
Continuous
370
    15
100
AcDbLine
 10
16.7042640053
 20
18.457052412
 30
0.0
 11
17.1892640225
 21
18.457052412
 31
0.0
  0
LINE
  5
4CB
330
1F
100
AcDbEntity
  8
SLD-0
  6
Continuous
370
    15
100
AcDbLine
 10
17.1892640225
 20
18.457052412
 30
0.0
 11
17.1892640225
 21
5.9100523427
 31
0.0
  0
LINE
  5
4CC
330
1F
100
AcDbEntity
  8
SLD-0
  6
Continuous
370
    15
100
AcDbLine
 10
17.1892640225
 20
5.9100523427
 30
0.0
 11
16.7042640053
 21
5.9100523427
 31
0.0
  0
LINE
  5
4CD
330
1F
100
AcDbEntity
  8
SLD-0
  6
Continuous
370
    15
100
AcDbLine
 10
17.1892640225
 20
18.457052412
 30
0.0
 11
17.2642640161
 21
18.457052412
 31
0.0
  0
LINE
  5
4CE
330
1F
100
AcDbEntity
  8
SLD-0
  6
Continuous
370
    15
100
AcDbLine
 10
17.2642640161
 20
18.457052412
 30
0.0
 11
17.2642640161
 21
5.9100523427
 31
0.0
  0
LINE
  5
4CF
330
1F
100
AcDbEntity
  8
SLD-0
  6
Continuous
370
    15
100
AcDbLine
 10
17.2642640161
 20
5.9100523427
 30
0.0
 11
17.1892640225
 21
5.9100523427
 31
0.0
  0
LINE
  5
4D0
330
1F
100
AcDbEntity
  8
SLD-0
  6
Continuous
370
    15
100
AcDbLine
 10
16.8292640679
 20
18.4720521321
 30
0.0
 11
16.8292640679
 21
18.5320521856
 31
0.0
  0
LINE
  5
4D1
330
1F
100
AcDbEntity
  8
SLD-0
  6
Continuous
370
    15
100
AcDbLine
 10
17.1892640225
 20
18.5320521856
 30
0.0
 11
16.8292640679
 21
18.5320521856
 31
0.0
  0
LINE
  5
4D2
330
1F
100
AcDbEntity
  8
SLD-0
  6
Continuous
370
    15
100
AcDbLine
 10
17.1892640225
 20
18.5320521856
 30
0.0
 11
17.1892640225
 21
18.4720521321
 31
0.0
  0
LINE
  5
4D3
330
1F
100
AcDbEntity
  8
SLD-0
  6
Continuous
370
    15
100
AcDbLine
 10
17.1892640225
 20
18.4720521321
 30
0.0
 11
16.8292640679
 21
18.4720521321
 31
0.0
  0
ARC
  5
4D4
330
1F
100
AcDbEntity
  8
SLD-0
  6
Continuous
370
    15
100
AcDbCircle
 10
17.1892640186
 20
18.4570523938
 30
0.0
 40
0.0150000000000006
100
AcDbArc
 50
360.0
 51
90.0
  0
ARC
  5
4D5
330
1F
100
AcDbEntity
  8
SLD-0
  6
Continuous
370
    15
100
AcDbCircle
 10
17.1892640186
 20
18.4570523938
 30
0.0
 40
0.0750000000000028
100
AcDbArc
 50
360.0
 51
90.0
  0
LINE
  5
4D6
330
1F
100
AcDbEntity
  8
SLD-0
  6
Continuous
370
    15
100
AcDbLine
 10
16.8292640679
 20
5.8950526227
 30
0.0
 11
16.8292640679
 21
5.8350525691
 31
0.0
  0
LINE
  5
4D7
330
1F
100
AcDbEntity
  8
SLD-0
  6
Continuous
370
    15
100
AcDbLine
 10
17.1892640225
 20
5.8950526227
 30
0.0
 11
17.1892640225
 21
5.8350525691
 31
0.0
  0
LINE
  5
4D8
330
1F
100
AcDbEntity
  8
SLD-0
  6
Continuous
370
    15
100
AcDbLine
 10
17.1892640225
 20
5.8350525691
 30
0.0
 11
16.8292640679
 21
5.8350525691
 31
0.0
  0
LINE
  5
4D9
330
1F
100
AcDbEntity
  8
SLD-0
  6
Continuous
370
    15
100
AcDbLine
 10
17.1892640225
 20
5.8950526227
 30
0.0
 11
16.8292640679
 21
5.8950526227
 31
0.0
  0
ARC
  5
4DA
330
1F
100
AcDbEntity
  8
SLD-0
  6
Continuous
370
    15
100
AcDbCircle
 10
17.1892640186
 20
5.9100523938
 30
0.0
 40
0.0749999999999993
100
AcDbArc
 50
270.0
 51
0.0
  0
ARC
  5
4DB
330
1F
100
AcDbEntity
  8
SLD-0
  6
Continuous
370
    15
100
AcDbCircle
 10
17.1892640186
 20
5.9100523938
 30
0.0
 40
0.0150000000000006
100
AcDbArc
 50
270.0
 51
0.0
  0
LINE
  5
4DC
330
1F
100
AcDbEntity
  8
SLD-0
  6
Continuous
370
    15
100
AcDbLine
 10
16.8292640679
 20
18.5320521856
 30
0.0
 11
16.6761489167
 21
18.5320521856
 31
0.0
  0
LINE
  5
4DD
330
1F
100
AcDbEntity
  8
SLD-0
  6
Continuous
370
    15
100
AcDbLine
 10
16.8292640679
 20
18.4720521321
 30
0.0
 11
16.6947489685
 21
18.4720521321
 31
0.0
  0
LINE
  5
4DE
330
1F
100
AcDbEntity
  8
SLD-0
  6
Continuous
370
    15
100
AcDbLine
 10
16.6761489167
 20
5.8350525691
 30
0.0
 11
16.8292640679
 21
5.8350525691
 31
0.0
  0
LINE
  5
4DF
330
1F
100
AcDbEntity
  8
SLD-0
  6
Continuous
370
    15
100
AcDbLine
 10
16.6761489167
 20
5.8950526227
 30
0.0
 11
16.8292640679
 21
5.8950526227
 31
0.0
  0
LINE
  5
4E0
330
1F
100
AcDbEntity
  8
SLD-0
  6
Continuous
370
    15
100
AcDbLine
 10
16.7157488993
 20
17.5724526043
 30
0.0
 11
16.7493489645
 21
17.5724526043
 31
0.0
  0
LINE
  5
4E1
330
1F
100
AcDbEntity
  8
SLD-0
  6
Continuous
370
    15
100
AcDbLine
 10
16.7157488993
 20
18.4174522828
 30
0.0
 11
16.7493489645
 21
18.4174522828
 31
0.0
  0
LINE
  5
4E2
330
1F
100
AcDbEntity
  8
SLD-0
  6
Continuous
370
    15
100
AcDbLine
 10
16.7493489645
 20
18.4174522828
 30
0.0
 11
16.7493489645
 21
17.5724526043
 31
0.0
  0
ARC
  5
4E3
330
1F
100
AcDbEntity
  8
SLD-0
  6
Continuous
370
    15
100
AcDbCircle
 10
16.6947489234
 20
18.4174523938
 30
0.0
 40
0.0545999999999971
100
AcDbArc
 50
46.491706535
 51
90.0
  0
LINE
  5
4E4
330
1F
100
AcDbEntity
  8
SLD-0
  6
Continuous
370
    15
100
AcDbLine
 10
16.6761489167
 20
18.4720521321
 30
0.0
 11
16.6947489685
 21
18.4720521321
 31
0.0
  0
LINE
  5
4E5
330
1F
100
AcDbEntity
  8
SLD-0
  6
Continuous
370
    15
100
AcDbLine
 10
16.7157488993
 20
7.3459062356
 30
0.0
 11
16.6761489167
 21
7.3459062356
 31
0.0
  0
LINE
  5
4E6
330
1F
100
AcDbEntity
  8
SLD-0
  6
Continuous
370
    15
100
AcDbLine
 10
16.6761489167
 20
6.1283021415
 30
0.0
 11
16.7157488993
 21
6.1283021415
 31
0.0
  0
LINE
  5
4E7
330
1F
100
AcDbEntity
  8
SLD-0
  6
Continuous
370
    15
100
AcDbLine
 10
16.7157488993
 20
7.3459062356
 30
0.0
 11
16.7157488993
 21
6.7938798127
 31
0.0
  0
LINE
  5
4E8
330
1F
100
AcDbEntity
  8
SLD-0
  6
Continuous
370
    15
100
AcDbLine
 10
16.7157488993
 20
6.1515045401
 30
0.0
 11
16.7157488993
 21
6.1283021415
 31
0.0
  0
LINE
  5
4E9
330
1F
100
AcDbEntity
  8
SLD-0
  6
Continuous
370
    15
100
AcDbLine
 10
16.6761489167
 20
8.8519061715
 30
0.0
 11
16.6761489167
 21
8.8459062541
 31
0.0
  0
LINE
  5
4EA
330
1F
100
AcDbEntity
  8
SLD-0
  6
Continuous
370
    15
100
AcDbLine
 10
16.7157488993
 20
8.8459062541
 30
0.0
 11
16.6761489167
 21
8.8459062541
 31
0.0
  0
LINE
  5
4EB
330
1F
100
AcDbEntity
  8
SLD-0
  6
Continuous
370
    15
100
AcDbLine
 10
16.7157488993
 20
18.4324525895
 30
0.0
 11
16.6761489167
 21
18.4324525895
 31
0.0
  0
LINE
  5
4EC
330
1F
100
AcDbEntity
  8
SLD-0
  6
Continuous
370
    15
100
AcDbLine
 10
16.7157488993
 20
18.4324525895
 30
0.0
 11
16.7157488993
 21
8.8459062541
 31
0.0
  0
LINE
  5
4ED
330
1F
100
AcDbEntity
  8
SLD-0
  6
Continuous
370
    15
100
AcDbLine
 10
16.7157488993
 20
8.8459062541
 30
0.0
 11
16.7157488993
 21
7.3459062356
 31
0.0
  0
LINE
  5
4EE
330
1F
100
AcDbEntity
  8
SLD-0
  6
Continuous
370
    15
100
AcDbLine
 10
16.7517489901
 20
6.1515045401
 30
0.0
 11
16.7157488993
 21
6.1515045401
 31
0.0
  0
LINE
  5
4EF
330
1F
100
AcDbEntity
  8
SLD-0
  6
Continuous
370
    15
100
AcDbLine
 10
16.7157488993
 20
6.1515045401
 30
0.0
 11
16.7157488993
 21
6.7938798127
 31
0.0
  0
LINE
  5
4F0
330
1F
100
AcDbEntity
  8
SLD-0
  6
Continuous
370
    15
100
AcDbLine
 10
16.7517489901
 20
6.7938798127
 30
0.0
 11
16.7157488993
 21
6.7938798127
 31
0.0
  0
LINE
  5
4F1
330
1F
100
AcDbEntity
  8
SLD-0
  6
Continuous
370
    15
100
AcDbLine
 10
16.7517489901
 20
6.7938798127
 30
0.0
 11
16.7517489901
 21
6.1515045401
 31
0.0
  0
LINE
  5
4F2
330
1F
100
AcDbEntity
  8
SLD-0
  6
Continuous
370
    15
100
AcDbLine
 10
16.7042640053
 20
6.0972185539
 30
0.0
 11
16.7001239464
 21
6.0970525291
 31
0.0
  0
LINE
  5
4F3
330
1F
100
AcDbEntity
  8
SLD-0
  6
Continuous
370
    15
100
AcDbLine
 10
16.7001239464
 20
6.0970525291
 30
0.0
 11
16.6761489167
 21
6.0970525291
 31
0.0
  0
LINE
  5
4F4
330
1F
100
AcDbEntity
  8
SLD-0
  6
Continuous
370
    15
100
AcDbLine
 10
15.6117085199
 20
20.8424830953
 30
0.0
 11
15.6117085199
 21
2.8665470749
 31
0.0
  0
LINE
  5
4F5
330
1F
100
AcDbEntity
  8
SLD-0
  6
Continuous
370
    15
100
AcDbLine
 10
16.7001239464
 20
6.0970525291
 30
0.0
 11
16.7001239464
 21
6.1283021415
 31
0.0
  0
ENDSEC
  0
SECTION
  2
OBJECTS
  0
DICTIONARY
  5
C
330
0
100
AcDbDictionary
281
     1
  3
ACAD_GROUP
350
D
  3
ACAD_LAYOUT
350
1A
  3
ACAD_MATERIAL
350
3B
  3
ACAD_MLEADERSTYLE
350
4F7
  3
ACAD_MLINESTYLE
350
17
  3
ACAD_PLOTSETTINGS
350
19
  3
ACAD_PLOTSTYLENAME
350
E
  3
ACAD_TABLESTYLE
350
4F6
  0
DICTIONARY
  5
D
102
{ACAD_REACTORS
330
C
102
}
330
C
100
AcDbDictionary
281
     1
  0
DICTIONARY
  5
1A
102
{ACAD_REACTORS
330
C
102
}
330
C
100
AcDbDictionary
281
     1
  3
Layout1
350
1E
  3
Layout2
350
26
  3
Model
350
22
  0
DICTIONARY
  5
3B
102
{ACAD_REACTORS
330
C
102
}
330
C
100
AcDbDictionary
281
     1
  3
ByBlock
350
3D
  3
ByLayer
350
3C
  3
Global
350
3E
  0
DICTIONARY
  5
4F7
102
{ACAD_REACTORS
330
C
102
}
330
C
100
AcDbDictionary
281
     1
  0
DICTIONARY
  5
17
102
{ACAD_REACTORS
330
C
102
}
330
C
100
AcDbDictionary
281
     1
  3
Standard
350
18
  0
DICTIONARY
  5
19
102
{ACAD_REACTORS
330
C
102
}
330
C
100
AcDbDictionary
281
     1
  0
ACDBDICTIONARYWDFLT
  5
E
102
{ACAD_REACTORS
330
C
102
}
330
C
100
AcDbDictionary
281
     1
  3
Normal
350
F
100
AcDbDictionaryWithDefault
340
F
  0
DICTIONARY
  5
4F6
102
{ACAD_REACTORS
330
C
102
}
330
C
100
AcDbDictionary
281
     1
  0
LAYOUT
  5
1E
102
{ACAD_REACTORS
330
1A
102
}
330
1A
100
AcDbPlotSettings
  1

  2
none_device
  4

  6

 40
0.0
 41
0.0
 42
0.0
 43
0.0
 44
0.0
 45
0.0
 46
0.0
 47
0.0
 48
0.0
 49
0.0
140
0.0
141
0.0
142
1.0
143
1.0
 70
   688
 72
     0
 73
     0
 74
     5
  7

 75
    16
 76
     0
 77
     2
 78
   300
147
1.0
148
0.0
149
0.0
100
AcDbLayout
  1
Layout1
 70
     1
 71
     1
 10
0.0
 20
0.0
 11
12.0
 21
9.0
 12
0.0
 22
0.0
 32
0.0
 14
1.0000000000E+20
 24
1.0000000000E+20
 34
1.0000000000E+20
 15
-1.0000000000E+20
 25
-1.0000000000E+20
 35
-1.0000000000E+20
146
0.0
 13
0.0
 23
0.0
 33
0.0
 16
1.0
 26
0.0
 36
0.0
 17
0.0
 27
1.0
 37
0.0
 76
     0
330
1B
  0
LAYOUT
  5
26
102
{ACAD_REACTORS
330
1A
102
}
330
1A
100
AcDbPlotSettings
  1

  2
none_device
  4

  6

 40
0.0
 41
0.0
 42
0.0
 43
0.0
 44
0.0
 45
0.0
 46
0.0
 47
0.0
 48
0.0
 49
0.0
140
0.0
141
0.0
142
1.0
143
1.0
 70
   688
 72
     0
 73
     0
 74
     5
  7

 75
    16
 76
     0
 77
     2
 78
   300
147
1.0
148
0.0
149
0.0
100
AcDbLayout
  1
Layout2
 70
     1
 71
     2
 10
0.0
 20
0.0
 11
0.0
 21
0.0
 12
0.0
 22
0.0
 32
0.0
 14
0.0
 24
0.0
 34
0.0
 15
0.0
 25
0.0
 35
0.0
146
0.0
 13
0.0
 23
0.0
 33
0.0
 16
1.0
 26
0.0
 36
0.0
 17
0.0
 27
1.0
 37
0.0
 76
     0
330
23
  0
LAYOUT
  5
22
102
{ACAD_REACTORS
330
1A
102
}
330
1A
100
AcDbPlotSettings
  1

  2
none_device
  4

  6

 40
0.0
 41
0.0
 42
0.0
 43
0.0
 44
0.0
 45
0.0
 46
0.0
 47
0.0
 48
0.0
 49
0.0
140
0.0
141
0.0
142
1.0
143
1.0
 70
  1712
 72
     0
 73
     0
 74
     0
  7

 75
     0
 76
     0
 77
     2
 78
   300
147
1.0
148
0.0
149
0.0
100
AcDbLayout
  1
Model
 70
     1
 71
     0
 10
0.0
 20
0.0
 11
100.0
 21
60.0
 12
0.0
 22
0.0
 32
0.0
 14
0.0
 24
0.0
 34
0.0
 15
100.0
 25
60.0
 35
0.0
146
0.0
 13
0.0
 23
0.0
 33
0.0
 16
1.0
 26
0.0
 36
0.0
 17
0.0
 27
1.0
 37
0.0
 76
     0
330
1F
331
29
  0
MATERIAL
  5
3D
102
{ACAD_REACTORS
330
3B
102
}
330
3B
100
AcDbMaterial
  1
ByBlock
  0
MATERIAL
  5
3C
102
{ACAD_REACTORS
330
3B
102
}
330
3B
100
AcDbMaterial
  1
ByLayer
  0
MATERIAL
  5
3E
102
{ACAD_REACTORS
330
3B
102
}
330
3B
100
AcDbMaterial
  1
Global
  0
MLINESTYLE
  5
18
102
{ACAD_REACTORS
330
17
102
}
330
17
100
AcDbMlineStyle
  2
Standard
 70
     0
  3

 62
   256
 51
90.0
 52
90.0
 71
     2
 49
0.5
 62
   256
  6
BYLAYER
 49
-0.5
 62
   256
  6
BYLAYER
  0
ACDBPLACEHOLDER
  5
F
102
{ACAD_REACTORS
330
E
102
}
330
E
  0
ENDSEC
  0
EOF
