  0
SECTION
  2
HEADER
  9
$ACADVER
  1
AC1018
  9
$ACADMAINTVER
 70
     0
  9
$DWGCODEPAGE
  3
ANSI_1252
  9
$INSBASE
 10
0.0
 20
0.0
 30
0.0
  9
$EXTMIN
 10
0.0
 20
0.0
 30
0.0
  9
$EXTMAX
 10
110.0
 20
65.0
 30
0.0
  9
$LIMMIN
 10
0.0
 20
0.0
  9
$LIMMAX
 10
110.0
 20
65.0
  9
$ORTHOMODE
 70
     0
  9
$REGENMODE
 70
     1
  9
$FILLMODE
 70
     1
  9
$QTEXTMODE
 70
     0
  9
$MIRRTEXT
 70
     1
  9
$LTSCALE
 40
1.0
  9
$ATTMODE
 70
     1
  9
$TEXTSIZE
 40
0.1388888889
  9
$TRACEWID
 40
0.05
  9
$TEXTSTYLE
  7
Standard
  9
$CLAYER
  8
0
  9
$CELTYPE
  6
ByLayer
  9
$CECOLOR
 62
   256
  9
$CELTSCALE
 40
1.0
  9
$DISPSILH
 70
     0
  9
$DIMSCALE
 40
1.0
  9
$DIMASZ
 40
1.0
  9
$DIMEXO
 40
0.0393700787
  9
$DIMDLI
 40
0.38
  9
$DIMRND
 40
0.0
  9
$DIMDLE
 40
0.0
  9
$DIMEXE
 40
0.0393700787
  9
$DIMTP
 40
0.0
  9
$DIMTM
 40
0.0
  9
$DIMTXT
 40
1.25
  9
$DIMCEN
 40
0.09
  9
$DIMTSZ
 40
0.0
  9
$DIMTOL
 70
     0
  9
$DIMLIM
 70
     0
  9
$DIMTIH
 70
     1
  9
$DIMTOH
 70
     1
  9
$DIMSE1
 70
     0
  9
$DIMSE2
 70
     0
  9
$DIMTAD
 70
     0
  9
$DIMZIN
 70
     0
  9
$DIMBLK
  1

  9
$DIMASO
 70
     1
  9
$DIMSHO
 70
     1
  9
$DIMPOST
  1

  9
$DIMAPOST
  1

  9
$DIMALT
 70
     0
  9
$DIMALTD
 70
     2
  9
$DIMALTF
 40
25.4
  9
$DIMLFAC
 40
1.0
  9
$DIMTOFL
 70
     0
  9
$DIMTVP
 40
0.0
  9
$DIMTIX
 70
     0
  9
$DIMSOXD
 70
     0
  9
$DIMSAH
 70
     0
  9
$DIMBLK1
  1

  9
$DIMBLK2
  1

  9
$DIMSTYLE
  2
Standard
  9
$DIMCLRD
 70
     0
  9
$DIMCLRE
 70
     0
  9
$DIMCLRT
 70
     0
  9
$DIMTFAC
 40
1.0
  9
$DIMGAP
 40
0.06
  9
$DIMJUST
 70
     0
  9
$DIMSD1
 70
     0
  9
$DIMSD2
 70
     0
  9
$DIMTOLJ
 70
     1
  9
$DIMTZIN
 70
     0
  9
$DIMALTZ
 70
     0
  9
$DIMALTTZ
 70
     0
  9
$DIMUPT
 70
     0
  9
$DIMDEC
 70
     3
  9
$DIMTDEC
 70
     2
  9
$DIMALTU
 70
     2
  9
$DIMALTTD
 70
     2
  9
$DIMTXSTY
  7
Standard
  9
$DIMAUNIT
 70
     0
  9
$DIMADEC
 70
     2
  9
$DIMALTRND
 40
0.0
  9
$DIMAZIN
 70
     0
  9
$DIMDSEP
 70
    46
  9
$DIMATFIT
 70
     3
  9
$DIMFRAC
 70
     0
  9
$DIMLDRBLK
  1

  9
$DIMLUNIT
 70
     2
  9
$DIMLWD
 70
    -2
  9
$DIMLWE
 70
    -2
  9
$DIMTMOVE
 70
     0
  9
$LUNITS
 70
     2
  9
$LUPREC
 70
     3
  9
$SKETCHINC
 40
0.1
  9
$FILLETRAD
 40
0.5
  9
$AUNITS
 70
     0
  9
$AUPREC
 70
     2
  9
$MENU
  1
.
  9
$ELEVATION
 40
0.0
  9
$PELEVATION
 40
0.0
  9
$THICKNESS
 40
0.0
  9
$LIMCHECK
 70
     0
  9
$CHAMFERA
 40
0.5
  9
$CHAMFERB
 40
0.5
  9
$CHAMFERC
 40
1.0
  9
$CHAMFERD
 40
0.0
  9
$SKPOLY
 70
     0
  9
$TDCREATE
 40
2456594.288595174
  9
$TDUCREATE
 40
2456594.496928507
  9
$TDUPDATE
 40
2456594.288601134
  9
$TDUUPDATE
 40
2456594.496934467
  9
$TDINDWG
 40
0.0000000116
  9
$TDUSRTIMER
 40
0.0000000116
  9
$USRTIMER
 70
     1
  9
$ANGBASE
 50
0.0
  9
$ANGDIR
 70
     0
  9
$PDMODE
 70
     0
  9
$PDSIZE
 40
-1.0
  9
$PLINEWID
 40
0.0
  9
$SPLFRAME
 70
     0
  9
$SPLINETYPE
 70
     6
  9
$SPLINESEGS
 70
     8
  9
$HANDSEED
  5
4DB
  9
$SURFTAB1
 70
     6
  9
$SURFTAB2
 70
     6
  9
$SURFTYPE
 70
     6
  9
$SURFU
 70
     6
  9
$SURFV
 70
     6
  9
$UCSBASE
  2

  9
$UCSNAME
  2

  9
$UCSORG
 10
0.0
 20
0.0
 30
0.0
  9
$UCSXDIR
 10
1.0
 20
0.0
 30
0.0
  9
$UCSYDIR
 10
0.0
 20
1.0
 30
0.0
  9
$UCSORTHOREF
  2

  9
$UCSORTHOVIEW
 70
     0
  9
$UCSORGTOP
 10
0.0
 20
0.0
 30
0.0
  9
$UCSORGBOTTOM
 10
0.0
 20
0.0
 30
0.0
  9
$UCSORGLEFT
 10
0.0
 20
0.0
 30
0.0
  9
$UCSORGRIGHT
 10
0.0
 20
0.0
 30
0.0
  9
$UCSORGFRONT
 10
0.0
 20
0.0
 30
0.0
  9
$UCSORGBACK
 10
0.0
 20
0.0
 30
0.0
  9
$PUCSBASE
  2

  9
$PUCSNAME
  2

  9
$PUCSORG
 10
0.0
 20
0.0
 30
0.0
  9
$PUCSXDIR
 10
1.0
 20
0.0
 30
0.0
  9
$PUCSYDIR
 10
0.0
 20
1.0
 30
0.0
  9
$PUCSORTHOREF
  2

  9
$PUCSORTHOVIEW
 70
     0
  9
$PUCSORGTOP
 10
0.0
 20
0.0
 30
0.0
  9
$PUCSORGBOTTOM
 10
0.0
 20
0.0
 30
0.0
  9
$PUCSORGLEFT
 10
0.0
 20
0.0
 30
0.0
  9
$PUCSORGRIGHT
 10
0.0
 20
0.0
 30
0.0
  9
$PUCSORGFRONT
 10
0.0
 20
0.0
 30
0.0
  9
$PUCSORGBACK
 10
0.0
 20
0.0
 30
0.0
  9
$USERI1
 70
     0
  9
$USERI2
 70
     0
  9
$USERI3
 70
     0
  9
$USERI4
 70
     0
  9
$USERI5
 70
     0
  9
$USERR1
 40
0.0
  9
$USERR2
 40
0.0
  9
$USERR3
 40
0.0
  9
$USERR4
 40
0.0
  9
$USERR5
 40
0.0
  9
$WORLDVIEW
 70
     1
  9
$SHADEDGE
 70
     3
  9
$SHADEDIF
 70
    70
  9
$TILEMODE
 70
     1
  9
$MAXACTVP
 70
    64
  9
$PINSBASE
 10
0.0
 20
0.0
 30
0.0
  9
$PLIMCHECK
 70
     0
  9
$PEXTMIN
 10
1.0000000000E+20
 20
1.0000000000E+20
 30
1.0000000000E+20
  9
$PEXTMAX
 10
-1.0000000000E+20
 20
-1.0000000000E+20
 30
-1.0000000000E+20
  9
$PLIMMIN
 10
0.0
 20
0.0
  9
$PLIMMAX
 10
12.0
 20
9.0
  9
$UNITMODE
 70
     0
  9
$VISRETAIN
 70
     1
  9
$PLINEGEN
 70
     0
  9
$PSLTSCALE
 70
     1
  9
$TREEDEPTH
 70
  3020
  9
$CMLSTYLE
  2
Standard
  9
$CMLJUST
 70
     0
  9
$CMLSCALE
 40
1.0
  9
$PROXYGRAPHICS
 70
     1
  9
$MEASUREMENT
 70
     0
  9
$CELWEIGHT
370
    -1
  9
$ENDCAPS
280
     0
  9
$JOINSTYLE
280
     0
  9
$LWDISPLAY
290
     1
  9
$INSUNITS
 70
     1
  9
$HYPERLINKBASE
  1

  9
$STYLESHEET
  1

  9
$XEDIT
290
     1
  9
$CEPSNTYPE
380
     0
  9
$PSTYLEMODE
290
     1
  9
$FINGERPRINTGUID
  2
{8DF9879E-87F6-416C-9AA1-7DE7D01D181E}
  9
$VERSIONGUID
  2
{FAEB1C32-E019-11D5-929B-00C0DF256EC4}
  9
$EXTNAMES
290
     1
  9
$PSVPSCALE
 40
0.0
  9
$OLESTARTUP
290
     0
  9
$SORTENTS
280
   127
  9
$INDEXCTL
280
     0
  9
$HIDETEXT
280
     1
  9
$XCLIPFRAME
290
     0
  9
$HALOGAP
280
     0
  9
$OBSCOLOR
 70
   257
  9
$OBSLTYPE
280
     0
  9
$INTERSECTIONDISPLAY
280
     0
  9
$INTERSECTIONCOLOR
 70
   257
  9
$DIMASSOC
280
     2
  9
$PROJECTNAME
  1

  0
ENDSEC
  0
SECTION
  2
CLASSES
  0
CLASS
  1
ACDBDICTIONARYWDFLT
  2
AcDbDictionaryWithDefault
  3
ObjectDBX Classes
 90
        0
 91
        4
280
     0
281
     0
  0
CLASS
  1
VISUALSTYLE
  2
AcDbVisualStyle
  3
ObjectDBX Classes
 90
     4095
 91
        4
280
     0
281
     0
  0
CLASS
  1
MATERIAL
  2
AcDbMaterial
  3
ObjectDBX Classes
 90
     1153
 91
        4
280
     0
281
     0
  0
ENDSEC
  0
SECTION
  2
TABLES
  0
TABLE
  2
VPORT
  5
8
330
0
100
AcDbSymbolTable
 70
     1
  0
VPORT
  5
29
330
8
100
AcDbSymbolTableRecord
100
AcDbViewportTableRecord
  2
*Active
 70
     0
 10
0.0
 20
0.0
 11
1.0
 21
1.0
 12
55.0
 22
32.5
 13
0.0
 23
0.0
 14
0.5
 24
0.5
 15
0.5
 25
0.5
 16
0.0
 26
0.0
 36
1.0
 17
0.0
 27
0.0
 37
0.0
 40
65.0
 41
1.6923076923
 42
50.0
 43
0.0
 44
0.0
 50
0.0
 51
0.0
 71
     0
 72
  2000
 73
     1
 74
     3
 75
     0
 76
     0
 77
     0
 78
     0
281
     0
 65
     1
110
0.0
120
0.0
130
0.0
111
1.0
121
0.0
131
0.0
112
0.0
122
1.0
132
0.0
 79
     0
146
0.0
  0
ENDTAB
  0
TABLE
  2
LTYPE
  5
5
330
0
100
AcDbSymbolTable
 70
     6
  0
LTYPE
  5
14
330
5
100
AcDbSymbolTableRecord
100
AcDbLinetypeTableRecord
  2
ByBlock
 70
     0
  3

 72
    65
 73
     0
 40
0.0
  0
LTYPE
  5
15
330
5
100
AcDbSymbolTableRecord
100
AcDbLinetypeTableRecord
  2
ByLayer
 70
     0
  3

 72
    65
 73
     0
 40
0.0
  0
LTYPE
  5
16
330
5
100
AcDbSymbolTableRecord
100
AcDbLinetypeTableRecord
  2
Continuous
 70
     0
  3
Solid line
 72
    65
 73
     0
 40
0.0
  0
LTYPE
  5
3F
330
5
100
AcDbSymbolTableRecord
100
AcDbLinetypeTableRecord
  2
HIDDEN
 70
     0
  3
Hidden __ __ __ __ __ __ __ __ __ __ __ __ __ __
 72
    65
 73
     2
 40
0.075
 49
0.05
 74
     0
 49
-0.025
 74
     0
  0
LTYPE
  5
40
330
5
100
AcDbSymbolTableRecord
100
AcDbLinetypeTableRecord
  2
PHANTOM
 70
     0
  3
Phantom ______  __  __  ______  __  __  ______
 72
    65
 73
     6
 40
0.5
 49
0.25
 74
     0
 49
-0.05
 74
     0
 49
0.05
 74
     0
 49
-0.05
 74
     0
 49
0.05
 74
     0
 49
-0.05
 74
     0
  0
LTYPE
  5
41
330
5
100
AcDbSymbolTableRecord
100
AcDbLinetypeTableRecord
  2
CENTER
 70
     0
  3
Center ____ _ ____ _ ____ _ ____ _ ____ _ ____
 72
    65
 73
     4
 40
0.4
 49
0.25
 74
     0
 49
-0.05
 74
     0
 49
0.05
 74
     0
 49
-0.05
 74
     0
  0
LTYPE
  5
42
330
5
100
AcDbSymbolTableRecord
100
AcDbLinetypeTableRecord
  2
CENTERX2
 70
     0
  3
Center (2x) ________  __  ________  __  _____
 72
    65
 73
     4
 40
0.8
 49
0.5
 74
     0
 49
-0.1
 74
     0
 49
0.1
 74
     0
 49
-0.1
 74
     0
  0
LTYPE
  5
43
330
5
100
AcDbSymbolTableRecord
100
AcDbLinetypeTableRecord
  2
DOT2
 70
     0
  3
Dot (.5x) ........................................
 72
    65
 73
     2
 40
0.025
 49
0.0
 74
     0
 49
-0.025
 74
     0
  0
ENDTAB
  0
TABLE
  2
LAYER
  5
2
330
0
100
AcDbSymbolTable
 70
     4
  0
LAYER
  5
10
330
2
100
AcDbSymbolTableRecord
100
AcDbLayerTableRecord
  2
0
 70
     0
 62
     7
  6
Continuous
370
    -3
390
F
  0
LAYER
  5
44
330
2
100
AcDbSymbolTableRecord
100
AcDbLayerTableRecord
  2
SLD-0
 70
     0
 62
     7
  6
Continuous
370
    -3
390
F
  0
LAYER
  5
45
330
2
100
AcDbSymbolTableRecord
100
AcDbLayerTableRecord
  2
NOTES
 70
     0
 62
     1
  6
Continuous
370
    -3
390
F
  0
LAYER
  5
46
330
2
100
AcDbSymbolTableRecord
100
AcDbLayerTableRecord
  2
DIM
 70
     0
 62
   100
  6
Continuous
370
    -3
390
F
  0
ENDTAB
  0
TABLE
  2
STYLE
  5
3
330
0
100
AcDbSymbolTable
 70
     2
  0
STYLE
  5
11
330
3
100
AcDbSymbolTableRecord
100
AcDbTextStyleTableRecord
  2
Standard
 70
     0
 40
0.0
 41
1.0
 50
0.0
 71
     0
 42
0.1388888889
  3
txt
  4

  0
STYLE
  5
4A
330
3
100
AcDbSymbolTableRecord
100
AcDbTextStyleTableRecord
  2
SLDTEXTSTYLE0
 70
     0
 40
0.0
 41
0.75
 50
0.0
 71
     0
 42
0.2
  3
TXT
  4

  0
ENDTAB
  0
TABLE
  2
VIEW
  5
6
330
0
100
AcDbSymbolTable
 70
     0
  0
ENDTAB
  0
TABLE
  2
UCS
  5
7
330
0
100
AcDbSymbolTable
 70
     0
  0
ENDTAB
  0
TABLE
  2
APPID
  5
9
330
0
100
AcDbSymbolTable
 70
     1
  0
APPID
  5
12
330
9
100
AcDbSymbolTableRecord
100
AcDbRegAppTableRecord
  2
ACAD
 70
     0
  0
ENDTAB
  0
TABLE
  2
DIMSTYLE
  5
A
330
0
100
AcDbSymbolTable
 70
     4
100
AcDbDimStyleTable
  0
DIMSTYLE
105
27
330
A
100
AcDbSymbolTableRecord
100
AcDbDimStyleTableRecord
  2
Standard
 70
     0
178
     0
340
11
  0
DIMSTYLE
105
E8
102
{ACAD_REACTORS
330
E7
330
F7
330
11F
330
1ED
330
22A
330
248
330
253
330
271
330
3AE
330
3CD
102
}
330
A
100
AcDbSymbolTableRecord
100
AcDbDimStyleTableRecord
  2
SLDDIMSTYLE0
 70
     0
 41
1.0
 44
0.0
 45
0.000000001
 78
    12
 79
     3
140
1.25
147
0.3125
173
     1
178
     0
271
     3
272
     2
276
     2
277
     5
284
    12
340
4A
  0
DIMSTYLE
105
105
102
{ACAD_REACTORS
330
104
330
110
330
1FC
330
20B
330
21A
330
239
330
262
330
3BD
102
}
330
A
100
AcDbSymbolTableRecord
100
AcDbDimStyleTableRecord
  2
SLDDIMSTYLE1
 70
     0
 41
1.0
 44
0.0
 45
0.000000001
 78
    12
 79
     3
140
1.25
147
0.3125
172
     1
173
     1
178
     0
271
     3
272
     2
276
     2
277
     5
284
    12
289
     0
340
4A
  0
DIMSTYLE
105
281
102
{ACAD_REACTORS
330
280
330
28A
102
}
330
A
100
AcDbSymbolTableRecord
100
AcDbDimStyleTableRecord
  2
SLDDIMSTYLE2
 70
     0
 41
1.0
 44
0.0
 45
0.000000001
 78
    12
 79
     3
140
1.25
141
0.0
147
0.3125
173
     1
178
     0
271
     3
272
     2
276
     2
277
     5
284
    12
340
4A
  0
ENDTAB
  0
TABLE
  2
BLOCK_RECORD
  5
1
330
0
100
AcDbSymbolTable
 70
    24
  0
BLOCK_RECORD
  5
1F
330
1
100
AcDbSymbolTableRecord
100
AcDbBlockTableRecord
  2
*Model_Space
340
22
  0
BLOCK_RECORD
  5
1B
330
1
100
AcDbSymbolTableRecord
100
AcDbBlockTableRecord
  2
*Paper_Space
340
1E
  0
BLOCK_RECORD
  5
23
330
1
100
AcDbSymbolTableRecord
100
AcDbBlockTableRecord
  2
*Paper_Space0
340
26
  0
BLOCK_RECORD
  5
47
330
1
100
AcDbSymbolTableRecord
100
AcDbBlockTableRecord
  2
SW_NOTE_0
340
0
102
{BLKREFS
331
4D
102
}
  0
BLOCK_RECORD
  5
E9
330
1
100
AcDbSymbolTableRecord
100
AcDbBlockTableRecord
  2
_D
340
0
  0
BLOCK_RECORD
  5
F8
330
1
100
AcDbSymbolTableRecord
100
AcDbBlockTableRecord
  2
_D_1
340
0
  0
BLOCK_RECORD
  5
106
330
1
100
AcDbSymbolTableRecord
100
AcDbBlockTableRecord
  2
_D_2
340
0
  0
BLOCK_RECORD
  5
111
330
1
100
AcDbSymbolTableRecord
100
AcDbBlockTableRecord
  2
_D_3
340
0
  0
BLOCK_RECORD
  5
120
330
1
100
AcDbSymbolTableRecord
100
AcDbBlockTableRecord
  2
_D_4
340
0
  0
BLOCK_RECORD
  5
1EE
330
1
100
AcDbSymbolTableRecord
100
AcDbBlockTableRecord
  2
_D_5
340
0
  0
BLOCK_RECORD
  5
1FD
330
1
100
AcDbSymbolTableRecord
100
AcDbBlockTableRecord
  2
_D_6
340
0
  0
BLOCK_RECORD
  5
20C
330
1
100
AcDbSymbolTableRecord
100
AcDbBlockTableRecord
  2
_D_7
340
0
  0
BLOCK_RECORD
  5
21B
330
1
100
AcDbSymbolTableRecord
100
AcDbBlockTableRecord
  2
_D_8
340
0
  0
BLOCK_RECORD
  5
22B
330
1
100
AcDbSymbolTableRecord
100
AcDbBlockTableRecord
  2
_D_9
340
0
  0
BLOCK_RECORD
  5
23A
330
1
100
AcDbSymbolTableRecord
100
AcDbBlockTableRecord
  2
_D_10
340
0
  0
BLOCK_RECORD
  5
249
330
1
100
AcDbSymbolTableRecord
100
AcDbBlockTableRecord
  2
_D_11
340
0
  0
BLOCK_RECORD
  5
254
330
1
100
AcDbSymbolTableRecord
100
AcDbBlockTableRecord
  2
_D_12
340
0
  0
BLOCK_RECORD
  5
263
330
1
100
AcDbSymbolTableRecord
100
AcDbBlockTableRecord
  2
_D_13
340
0
  0
BLOCK_RECORD
  5
272
330
1
100
AcDbSymbolTableRecord
100
AcDbBlockTableRecord
  2
_D_14
340
0
  0
BLOCK_RECORD
  5
282
330
1
100
AcDbSymbolTableRecord
100
AcDbBlockTableRecord
  2
_D_15
340
0
  0
BLOCK_RECORD
  5
28B
330
1
100
AcDbSymbolTableRecord
100
AcDbBlockTableRecord
  2
_D_16
340
0
  0
BLOCK_RECORD
  5
293
330
1
100
AcDbSymbolTableRecord
100
AcDbBlockTableRecord
  2
SW_CENTERMARKSYMBOL_0
340
0
102
{BLKREFS
331
29E
102
}
  0
BLOCK_RECORD
  5
29F
330
1
100
AcDbSymbolTableRecord
100
AcDbBlockTableRecord
  2
SW_CENTERMARKSYMBOL_1
340
0
102
{BLKREFS
331
2AA
102
}
  0
BLOCK_RECORD
  5
3AF
330
1
100
AcDbSymbolTableRecord
100
AcDbBlockTableRecord
  2
_D_17
340
0
  0
BLOCK_RECORD
  5
3BE
330
1
100
AcDbSymbolTableRecord
100
AcDbBlockTableRecord
  2
_D_18
340
0
  0
BLOCK_RECORD
  5
3CE
330
1
100
AcDbSymbolTableRecord
100
AcDbBlockTableRecord
  2
_D_19
340
0
  0
ENDTAB
  0
ENDSEC
  0
SECTION
  2
BLOCKS
  0
BLOCK
  5
20
330
1F
100
AcDbEntity
  8
0
100
AcDbBlockBegin
  2
*Model_Space
 70
     0
 10
0.0
 20
0.0
 30
0.0
  3
*Model_Space
  1

  0
ENDBLK
  5
21
330
1F
100
AcDbEntity
  8
0
100
AcDbBlockEnd
  0
BLOCK
  5
1C
330
1B
100
AcDbEntity
 67
     1
  8
0
100
AcDbBlockBegin
  2
*Paper_Space
 70
     0
 10
0.0
 20
0.0
 30
0.0
  3
*Paper_Space
  1

  0
ENDBLK
  5
1D
330
1B
100
AcDbEntity
 67
     1
  8
0
100
AcDbBlockEnd
  0
BLOCK
  5
24
330
23
100
AcDbEntity
  8
0
100
AcDbBlockBegin
  2
*Paper_Space0
 70
     0
 10
0.0
 20
0.0
 30
0.0
  3
*Paper_Space0
  1

  0
ENDBLK
  5
25
330
23
100
AcDbEntity
  8
0
100
AcDbBlockEnd
  0
BLOCK
  5
48
330
47
100
AcDbEntity
  8
0
100
AcDbBlockBegin
  2
SW_NOTE_0
 70
     0
 10
0.0
 20
0.0
 30
0.0
  3
SW_NOTE_0
  1

  0
MTEXT
  5
4B
330
47
100
AcDbEntity
  8
NOTES
 62
     0
100
AcDbMText
 10
0.0
 20
2.2558685446
 30
0.0
 40
1.75
 41
0.0
 71
     1
 72
     1
  1
DVL33IN33(N,P)-1
  7
SLDTEXTSTYLE0
 73
     1
 44
1.0
  0
MTEXT
  5
4C
330
47
100
AcDbEntity
  8
NOTES
 62
     0
100
AcDbMText
 10
0.0
 20
-0.0069786748
 30
0.0
 40
1.75
 41
0.0
 71
     1
 72
     1
  1
DVL33IN73(N,P)-2
  7
SLDTEXTSTYLE0
 73
     1
 44
1.0
  0
ENDBLK
  5
49
330
47
100
AcDbEntity
  8
0
100
AcDbBlockEnd
  0
BLOCK
  5
EA
330
E9
100
AcDbEntity
  8
0
100
AcDbBlockBegin
  2
_D
 70
     0
 10
0.0
 20
0.0
 30
0.0
  3
_D
  1

  0
SOLID
  5
EC
330
E9
100
AcDbEntity
  8
DIM
100
AcDbTrace
 10
69.8083017133
 20
21.9340543368
 30
0.0
 11
69.5583017133
 21
20.9340543368
 31
0.0
 12
70.0583017133
 22
20.9340543368
 32
0.0
 13
70.0583017133
 23
20.9340543368
 33
0.0
  0
SOLID
  5
ED
330
E9
100
AcDbEntity
  8
DIM
100
AcDbTrace
 10
69.8083017133
 20
6.2370543368
 30
0.0
 11
70.0583017133
 21
7.2370543368
 31
0.0
 12
69.5583017133
 22
7.2370543368
 32
0.0
 13
69.5583017133
 23
7.2370543368
 33
0.0
  0
LINE
  5
EE
330
E9
100
AcDbEntity
  8
DIM
100
AcDbLine
 10
70.7162877789
 20
15.3355543033
 30
0.0
 11
69.216287731
 21
12.8355542236
 31
0.0
  0
LINE
  5
EF
330
E9
100
AcDbEntity
  8
DIM
100
AcDbLine
 10
64.9720387725
 20
21.9340543368
 30
0.0
 11
69.8476717921
 21
21.9340543368
 31
0.0
  0
LINE
  5
F0
330
E9
100
AcDbEntity
  8
DIM
100
AcDbLine
 10
64.9720387725
 20
6.2370543368
 30
0.0
 11
69.8476717921
 21
6.2370543368
 31
0.0
  0
LINE
  5
F1
330
E9
100
AcDbEntity
  8
DIM
100
AcDbLine
 10
69.8083017133
 20
21.9340543368
 30
0.0
 11
69.8083017133
 21
15.7018737583
 31
0.0
  0
LINE
  5
F2
330
E9
100
AcDbEntity
  8
DIM
100
AcDbLine
 10
69.8083017133
 20
6.2370543368
 30
0.0
 11
69.8083017133
 21
12.4692349153
 31
0.0
  0
MTEXT
  5
F3
330
E9
100
AcDbEntity
  8
DIM
100
AcDbMText
 10
66.2718434468
 20
14.8019237302
 30
8.8640669022
 40
1.25
 41
0.0
 71
     1
 72
     1
  1
15
  7
SLDTEXTSTYLE0
 73
     1
 44
1.0
  0
MTEXT
  5
F4
330
E9
100
AcDbEntity
  8
DIM
100
AcDbMText
 10
68.1190656009
 20
15.6968888648
 30
8.8640669022
 40
1.25
 41
0.0
 71
     1
 72
     1
  1
11
  7
SLDTEXTSTYLE0
 73
     1
 44
1.0
  0
MTEXT
  5
F5
330
E9
100
AcDbEntity
  8
DIM
100
AcDbMText
 10
69.9662877549
 20
14.0805694434
 30
8.8640669022
 40
1.25
 41
0.0
 71
     1
 72
     1
  1
16
  7
SLDTEXTSTYLE0
 73
     1
 44
1.0
  0
MTEXT
  5
F6
330
E9
100
AcDbEntity
  8
DIM
100
AcDbMText
 10
71.8135102023
 20
14.8019237302
 30
8.8640669022
 40
1.25
 41
0.0
 71
     1
 72
     1
  1
"
  7
SLDTEXTSTYLE0
 73
     1
 44
1.0
  0
ENDBLK
  5
EB
330
E9
100
AcDbEntity
  8
0
100
AcDbBlockEnd
  0
BLOCK
  5
F9
330
F8
100
AcDbEntity
  8
0
100
AcDbBlockBegin
  2
_D_1
 70
     0
 10
0.0
 20
0.0
 30
0.0
  3
_D_1
  1

  0
SOLID
  5
FB
330
F8
100
AcDbEntity
  8
DIM
100
AcDbTrace
 10
34.5076686937
 20
14.5268699314
 30
0.0
 11
35.5076686937
 21
14.2768699314
 31
0.0
 12
35.5076686937
 22
14.7768699314
 32
0.0
 13
35.5076686937
 23
14.7768699314
 33
0.0
  0
SOLID
  5
FC
330
F8
100
AcDbEntity
  8
DIM
100
AcDbTrace
 10
65.0076686937
 20
14.5268699314
 30
0.0
 11
64.0076686937
 21
14.7768699314
 31
0.0
 12
64.0076686937
 22
14.2768699314
 32
0.0
 13
64.0076686937
 23
14.2768699314
 33
0.0
  0
LINE
  5
FD
330
F8
100
AcDbEntity
  8
DIM
100
AcDbLine
 10
50.6656549059
 20
15.776869898
 30
0.0
 11
49.1656548581
 21
13.2768698182
 31
0.0
  0
LINE
  5
FE
330
F8
100
AcDbEntity
  8
DIM
100
AcDbLine
 10
34.5076686937
 20
14.5268699314
 30
0.0
 11
47.1448216509
 21
14.5268699314
 31
0.0
  0
LINE
  5
FF
330
F8
100
AcDbEntity
  8
DIM
100
AcDbLine
 10
65.0076686937
 20
14.5268699314
 30
0.0
 11
52.3705157366
 21
14.5268699314
 31
0.0
  0
MTEXT
  5
100
330
F8
100
AcDbEntity
  8
DIM
100
AcDbMText
 10
47.1448216509
 20
15.2432393248
 30
8.8640669022
 40
1.25
 41
0.0
 71
     1
 72
     1
  1
30
  7
SLDTEXTSTYLE0
 73
     1
 44
1.0
  0
MTEXT
  5
101
330
F8
100
AcDbEntity
  8
DIM
100
AcDbMText
 10
48.992043805
 20
16.1382044595
 30
8.8640669022
 40
1.25
 41
0.0
 71
     1
 72
     1
  1
1
  7
SLDTEXTSTYLE0
 73
     1
 44
1.0
  0
MTEXT
  5
102
330
F8
100
AcDbEntity
  8
DIM
100
AcDbMText
 10
49.915654882
 20
14.521885038
 30
8.8640669022
 40
1.25
 41
0.0
 71
     1
 72
     1
  1
2
  7
SLDTEXTSTYLE0
 73
     1
 44
1.0
  0
MTEXT
  5
103
330
F8
100
AcDbEntity
  8
DIM
100
AcDbMText
 10
50.839265959
 20
15.2432393248
 30
8.8640669022
 40
1.25
 41
0.0
 71
     1
 72
     1
  1
"
  7
SLDTEXTSTYLE0
 73
     1
 44
1.0
  0
ENDBLK
  5
FA
330
F8
100
AcDbEntity
  8
0
100
AcDbBlockEnd
  0
BLOCK
  5
107
330
106
100
AcDbEntity
  8
0
100
AcDbBlockBegin
  2
_D_2
 70
     0
 10
0.0
 20
0.0
 30
0.0
  3
_D_2
  1

  0
SOLID
  5
109
330
106
100
AcDbEntity
  8
DIM
100
AcDbTrace
 10
69.8083017133
 20
25.9295568136
 30
0.0
 11
70.0583017133
 21
26.9295568136
 31
0.0
 12
69.5583017133
 22
26.9295568136
 32
0.0
 13
69.5583017133
 23
26.9295568136
 33
0.0
  0
SOLID
  5
10A
330
106
100
AcDbEntity
  8
DIM
100
AcDbTrace
 10
69.8083017133
 20
21.9340543368
 30
0.0
 11
69.5583017133
 21
20.9340543368
 31
0.0
 12
70.0583017133
 22
20.9340543368
 32
0.0
 13
70.0583017133
 23
20.9340543368
 33
0.0
  0
LINE
  5
10B
330
106
100
AcDbEntity
  8
DIM
100
AcDbLine
 10
65.5470387725
 20
25.9295568136
 30
0.0
 11
69.8476717921
 21
25.9295568136
 31
0.0
  0
LINE
  5
10C
330
106
100
AcDbEntity
  8
DIM
100
AcDbLine
 10
64.9720387725
 20
21.9340543368
 30
0.0
 11
69.8476717921
 21
21.9340543368
 31
0.0
  0
LINE
  5
10D
330
106
100
AcDbEntity
  8
DIM
100
AcDbLine
 10
69.8083017133
 20
25.9295568136
 30
0.0
 11
69.8083017133
 21
27.4295568136
 31
0.0
  0
LINE
  5
10E
330
106
100
AcDbEntity
  8
DIM
100
AcDbLine
 10
69.8083017133
 20
21.9340543368
 30
0.0
 11
69.8083017133
 21
20.4340543368
 31
0.0
  0
MTEXT
  5
10F
330
106
100
AcDbEntity
  8
DIM
100
AcDbMText
 10
68.5808712127
 20
24.5509528117
 30
8.8640669022
 40
1.25
 41
0.0
 71
     1
 72
     1
  1
4"
  7
SLDTEXTSTYLE0
 73
     1
 44
1.0
  0
ENDBLK
  5
108
330
106
100
AcDbEntity
  8
0
100
AcDbBlockEnd
  0
BLOCK
  5
112
330
111
100
AcDbEntity
  8
0
100
AcDbBlockBegin
  2
_D_3
 70
     0
 10
0.0
 20
0.0
 30
0.0
  3
_D_3
  1

  0
SOLID
  5
114
330
111
100
AcDbEntity
  8
DIM
100
AcDbTrace
 10
69.8083017133
 20
3.2053081368
 30
0.0
 11
69.5583017133
 21
2.2053081368
 31
0.0
 12
70.0583017133
 22
2.2053081368
 32
0.0
 13
70.0583017133
 23
2.2053081368
 33
0.0
  0
SOLID
  5
115
330
111
100
AcDbEntity
  8
DIM
100
AcDbTrace
 10
69.8083017133
 20
6.2370543368
 30
0.0
 11
70.0583017133
 21
7.2370543368
 31
0.0
 12
69.5583017133
 22
7.2370543368
 32
0.0
 13
69.5583017133
 23
7.2370543368
 33
0.0
  0
LINE
  5
116
330
111
100
AcDbEntity
  8
DIM
100
AcDbLine
 10
69.7926768485
 20
5.8569079234
 30
0.0
 11
68.2926768006
 21
3.3569078436
 31
0.0
  0
LINE
  5
117
330
111
100
AcDbEntity
  8
DIM
100
AcDbLine
 10
64.7532887725
 20
3.2053081368
 30
0.0
 11
69.8476717921
 21
3.2053081368
 31
0.0
  0
LINE
  5
118
330
111
100
AcDbEntity
  8
DIM
100
AcDbLine
 10
64.9720387725
 20
6.2370543368
 30
0.0
 11
69.8476717921
 21
6.2370543368
 31
0.0
  0
LINE
  5
119
330
111
100
AcDbEntity
  8
DIM
100
AcDbLine
 10
69.8083017133
 20
3.2053081368
 30
0.0
 11
69.8083017133
 21
1.7053081368
 31
0.0
  0
LINE
  5
11A
330
111
100
AcDbEntity
  8
DIM
100
AcDbLine
 10
69.8083017133
 20
6.2370543368
 30
0.0
 11
69.8083017133
 21
7.7370543368
 31
0.0
  0
MTEXT
  5
11B
330
111
100
AcDbEntity
  8
DIM
100
AcDbMText
 10
67.1954546705
 20
5.3232773503
 30
8.8640669022
 40
1.25
 41
0.0
 71
     1
 72
     1
  1
3
  7
SLDTEXTSTYLE0
 73
     1
 44
1.0
  0
MTEXT
  5
11C
330
111
100
AcDbEntity
  8
DIM
100
AcDbMText
 10
68.1190657475
 20
6.2182424849
 30
8.8640669022
 40
1.25
 41
0.0
 71
     1
 72
     1
  1
1
  7
SLDTEXTSTYLE0
 73
     1
 44
1.0
  0
MTEXT
  5
11D
330
111
100
AcDbEntity
  8
DIM
100
AcDbMText
 10
69.0426768246
 20
4.6019230634
 30
8.8640669022
 40
1.25
 41
0.0
 71
     1
 72
     1
  1
16
  7
SLDTEXTSTYLE0
 73
     1
 44
1.0
  0
MTEXT
  5
11E
330
111
100
AcDbEntity
  8
DIM
100
AcDbMText
 10
70.8898989786
 20
5.3232773503
 30
8.8640669022
 40
1.25
 41
0.0
 71
     1
 72
     1
  1
"
  7
SLDTEXTSTYLE0
 73
     1
 44
1.0
  0
ENDBLK
  5
113
330
111
100
AcDbEntity
  8
0
100
AcDbBlockEnd
  0
BLOCK
  5
121
330
120
100
AcDbEntity
  8
0
100
AcDbBlockBegin
  2
_D_4
 70
     0
 10
0.0
 20
0.0
 30
0.0
  3
_D_4
  1

  0
SOLID
  5
123
330
120
100
AcDbEntity
  8
DIM
100
AcDbTrace
 10
30.6326677095
 20
26.0950818437
 30
0.0
 11
30.3826677095
 21
25.0950818437
 31
0.0
 12
30.8826677095
 22
25.0950818437
 32
0.0
 13
30.8826677095
 23
25.0950818437
 33
0.0
  0
SOLID
  5
124
330
120
100
AcDbEntity
  8
DIM
100
AcDbTrace
 10
30.6326677095
 20
3.2053081368
 30
0.0
 11
30.8826677095
 21
4.2053081368
 31
0.0
 12
30.3826677095
 22
4.2053081368
 32
0.0
 13
30.3826677095
 23
4.2053081368
 33
0.0
  0
LINE
  5
125
330
120
100
AcDbEntity
  8
DIM
100
AcDbLine
 10
31.5406539217
 20
15.9001949568
 30
0.0
 11
30.0406538738
 21
13.400194877
 31
0.0
  0
LINE
  5
126
330
120
100
AcDbEntity
  8
DIM
100
AcDbLine
 10
45.3575550949
 20
26.0950818437
 30
0.0
 11
30.5932976307
 21
26.0950818437
 31
0.0
  0
LINE
  5
127
330
120
100
AcDbEntity
  8
DIM
100
AcDbLine
 10
34.762048615
 20
3.2053081368
 30
0.0
 11
30.5932976307
 21
3.2053081368
 31
0.0
  0
LINE
  5
128
330
120
100
AcDbEntity
  8
DIM
100
AcDbLine
 10
30.6326677095
 20
26.0950818437
 30
0.0
 11
30.6326677095
 21
16.2665144117
 31
0.0
  0
LINE
  5
129
330
120
100
AcDbEntity
  8
DIM
100
AcDbLine
 10
30.6326677095
 20
3.2053081368
 30
0.0
 11
30.6326677095
 21
13.0338755688
 31
0.0
  0
MTEXT
  5
12A
330
120
100
AcDbEntity
  8
DIM
100
AcDbMText
 10
28.0198206666
 20
15.3665643837
 30
8.8640669022
 40
1.25
 41
0.0
 71
     1
 72
     1
  1
22
  7
SLDTEXTSTYLE0
 73
     1
 44
1.0
  0
MTEXT
  5
12B
330
120
100
AcDbEntity
  8
DIM
100
AcDbMText
 10
29.8670428207
 20
16.2615295183
 30
8.8640669022
 40
1.25
 41
0.0
 71
     1
 72
     1
  1
7
  7
SLDTEXTSTYLE0
 73
     1
 44
1.0
  0
MTEXT
  5
12C
330
120
100
AcDbEntity
  8
DIM
100
AcDbMText
 10
30.7906538977
 20
14.6452100968
 30
8.8640669022
 40
1.25
 41
0.0
 71
     1
 72
     1
  1
8
  7
SLDTEXTSTYLE0
 73
     1
 44
1.0
  0
MTEXT
  5
12D
330
120
100
AcDbEntity
  8
DIM
100
AcDbMText
 10
31.7142649748
 20
15.3665643837
 30
8.8640669022
 40
1.25
 41
0.0
 71
     1
 72
     1
  1
"
  7
SLDTEXTSTYLE0
 73
     1
 44
1.0
  0
ENDBLK
  5
122
330
120
100
AcDbEntity
  8
0
100
AcDbBlockEnd
  0
BLOCK
  5
1EF
330
1EE
100
AcDbEntity
  8
0
100
AcDbBlockBegin
  2
_D_5
 70
     0
 10
0.0
 20
0.0
 30
0.0
  3
_D_5
  1

  0
SOLID
  5
1F1
330
1EE
100
AcDbEntity
  8
DIM
100
AcDbTrace
 10
40.4011463373
 20
62.3204264365
 30
0.0
 11
41.4011463373
 21
62.0704264365
 31
0.0
 12
41.4011463373
 22
62.5704264365
 32
0.0
 13
41.4011463373
 23
62.5704264365
 33
0.0
  0
SOLID
  5
1F2
330
1EE
100
AcDbEntity
  8
DIM
100
AcDbTrace
 10
59.1141910501
 20
62.3204264365
 30
0.0
 11
58.1141910501
 21
62.5704264365
 31
0.0
 12
58.1141910501
 22
62.0704264365
 32
0.0
 13
58.1141910501
 23
62.0704264365
 33
0.0
  0
LINE
  5
1F3
330
1EE
100
AcDbEntity
  8
DIM
100
AcDbLine
 10
50.6656547593
 20
63.570426403
 30
0.0
 11
49.1656547114
 21
61.0704263232
 31
0.0
  0
LINE
  5
1F4
330
1EE
100
AcDbEntity
  8
DIM
100
AcDbLine
 10
40.4011463373
 20
55.8097965152
 30
0.0
 11
40.4011463373
 21
62.3597965152
 31
0.0
  0
LINE
  5
1F5
330
1EE
100
AcDbEntity
  8
DIM
100
AcDbLine
 10
59.1141910501
 20
55.8097965152
 30
0.0
 11
59.1141910501
 21
62.3597965152
 31
0.0
  0
LINE
  5
1F6
330
1EE
100
AcDbEntity
  8
DIM
100
AcDbLine
 10
40.4011463373
 20
62.3204264365
 30
0.0
 11
46.2212104272
 21
62.3204264365
 31
0.0
  0
LINE
  5
1F7
330
1EE
100
AcDbEntity
  8
DIM
100
AcDbLine
 10
59.1141910501
 20
62.3204264365
 30
0.0
 11
53.2941269603
 21
62.3204264365
 31
0.0
  0
MTEXT
  5
1F8
330
1EE
100
AcDbEntity
  8
DIM
100
AcDbMText
 10
46.2212104272
 20
63.0367958299
 30
-1.4988676662
 40
1.25
 41
0.0
 71
     1
 72
     1
  1
18
  7
SLDTEXTSTYLE0
 73
     1
 44
1.0
  0
MTEXT
  5
1F9
330
1EE
100
AcDbEntity
  8
DIM
100
AcDbMText
 10
48.0684325813
 20
63.9317609645
 30
-1.4988676662
 40
1.25
 41
0.0
 71
     1
 72
     1
  1
11
  7
SLDTEXTSTYLE0
 73
     1
 44
1.0
  0
MTEXT
  5
1FA
330
1EE
100
AcDbEntity
  8
DIM
100
AcDbMText
 10
49.9156547353
 20
62.315441543
 30
-1.4988676662
 40
1.25
 41
0.0
 71
     1
 72
     1
  1
16
  7
SLDTEXTSTYLE0
 73
     1
 44
1.0
  0
MTEXT
  5
1FB
330
1EE
100
AcDbEntity
  8
DIM
100
AcDbMText
 10
51.7628771827
 20
63.0367958299
 30
-1.4988676662
 40
1.25
 41
0.0
 71
     1
 72
     1
  1
"
  7
SLDTEXTSTYLE0
 73
     1
 44
1.0
  0
ENDBLK
  5
1F0
330
1EE
100
AcDbEntity
  8
0
100
AcDbBlockEnd
  0
BLOCK
  5
1FE
330
1FD
100
AcDbEntity
  8
0
100
AcDbBlockBegin
  2
_D_6
 70
     0
 10
0.0
 20
0.0
 30
0.0
  3
_D_6
  1

  0
SOLID
  5
200
330
1FD
100
AcDbEntity
  8
DIM
100
AcDbTrace
 10
40.4011463373
 20
58.8204264365
 30
0.0
 11
39.4011463373
 21
59.0704264365
 31
0.0
 12
39.4011463373
 22
58.5704264365
 32
0.0
 13
39.4011463373
 23
58.5704264365
 33
0.0
  0
SOLID
  5
201
330
1FD
100
AcDbEntity
  8
DIM
100
AcDbTrace
 10
46.7619988277
 20
58.8204264365
 30
0.0
 11
47.7619988277
 21
58.5704264365
 31
0.0
 12
47.7619988277
 22
59.0704264365
 32
0.0
 13
47.7619988277
 23
59.0704264365
 33
0.0
  0
LINE
  5
202
330
1FD
100
AcDbEntity
  8
DIM
100
AcDbLine
 10
36.1342279754
 20
60.070426403
 30
0.0
 11
34.6342279275
 21
57.5704263232
 31
0.0
  0
LINE
  5
203
330
1FD
100
AcDbEntity
  8
DIM
100
AcDbLine
 10
40.4011463373
 20
55.8097965152
 30
0.0
 11
40.4011463373
 21
58.8597965152
 31
0.0
  0
LINE
  5
204
330
1FD
100
AcDbEntity
  8
DIM
100
AcDbLine
 10
46.7619988277
 20
53.7353254961
 30
0.0
 11
46.7619988277
 21
58.8597965152
 31
0.0
  0
LINE
  5
205
330
1FD
100
AcDbEntity
  8
DIM
100
AcDbLine
 10
40.4011463373
 20
58.8204264365
 30
0.0
 11
37.839089246
 21
58.8204264365
 31
0.0
  0
LINE
  5
206
330
1FD
100
AcDbEntity
  8
DIM
100
AcDbLine
 10
46.7619988277
 20
58.8204264365
 30
0.0
 11
48.2619988277
 21
58.8204264365
 31
0.0
  0
MTEXT
  5
207
330
1FD
100
AcDbEntity
  8
DIM
100
AcDbMText
 10
33.5370057974
 20
59.5367958299
 30
-1.4988676662
 40
1.25
 41
0.0
 71
     1
 72
     1
  1
6
  7
SLDTEXTSTYLE0
 73
     1
 44
1.0
  0
MTEXT
  5
208
330
1FD
100
AcDbEntity
  8
DIM
100
AcDbMText
 10
34.4606168744
 20
60.4317609645
 30
-1.4988676662
 40
1.25
 41
0.0
 71
     1
 72
     1
  1
3
  7
SLDTEXTSTYLE0
 73
     1
 44
1.0
  0
MTEXT
  5
209
330
1FD
100
AcDbEntity
  8
DIM
100
AcDbMText
 10
35.3842279514
 20
58.815441543
 30
-1.4988676662
 40
1.25
 41
0.0
 71
     1
 72
     1
  1
8
  7
SLDTEXTSTYLE0
 73
     1
 44
1.0
  0
MTEXT
  5
20A
330
1FD
100
AcDbEntity
  8
DIM
100
AcDbMText
 10
36.3078391751
 20
59.5367958299
 30
-1.4988676662
 40
1.25
 41
0.0
 71
     1
 72
     1
  1
"
  7
SLDTEXTSTYLE0
 73
     1
 44
1.0
  0
ENDBLK
  5
1FF
330
1FD
100
AcDbEntity
  8
0
100
AcDbBlockEnd
  0
BLOCK
  5
20D
330
20C
100
AcDbEntity
  8
0
100
AcDbBlockBegin
  2
_D_7
 70
     0
 10
0.0
 20
0.0
 30
0.0
  3
_D_7
  1

  0
SOLID
  5
20F
330
20C
100
AcDbEntity
  8
DIM
100
AcDbTrace
 10
59.1141910501
 20
58.8204264365
 30
0.0
 11
60.1141910501
 21
58.5704264365
 31
0.0
 12
60.1141910501
 22
59.0704264365
 32
0.0
 13
60.1141910501
 23
59.0704264365
 33
0.0
  0
SOLID
  5
210
330
20C
100
AcDbEntity
  8
DIM
100
AcDbTrace
 10
52.7619988277
 20
58.8204264365
 30
0.0
 11
51.7619988277
 21
59.0704264365
 31
0.0
 12
51.7619988277
 22
58.5704264365
 32
0.0
 13
51.7619988277
 23
58.5704264365
 33
0.0
  0
LINE
  5
211
330
20C
100
AcDbEntity
  8
DIM
100
AcDbLine
 10
64.6089648677
 20
60.070426403
 30
0.0
 11
63.1089648198
 21
57.5704263232
 31
0.0
  0
LINE
  5
212
330
20C
100
AcDbEntity
  8
DIM
100
AcDbLine
 10
59.1141910501
 20
55.8097965152
 30
0.0
 11
59.1141910501
 21
58.8597965152
 31
0.0
  0
LINE
  5
213
330
20C
100
AcDbEntity
  8
DIM
100
AcDbLine
 10
52.7619988277
 20
51.5223254961
 30
0.0
 11
52.7619988277
 21
58.8597965152
 31
0.0
  0
LINE
  5
214
330
20C
100
AcDbEntity
  8
DIM
100
AcDbLine
 10
59.1141910501
 20
58.8204264365
 30
0.0
 11
62.0117426897
 21
58.8204264365
 31
0.0
  0
LINE
  5
215
330
20C
100
AcDbEntity
  8
DIM
100
AcDbLine
 10
52.7619988277
 20
58.8204264365
 30
0.0
 11
51.2619988277
 21
58.8204264365
 31
0.0
  0
MTEXT
  5
216
330
20C
100
AcDbEntity
  8
DIM
100
AcDbMText
 10
62.0117426897
 20
59.5367958299
 30
-1.4988676662
 40
1.25
 41
0.0
 71
     1
 72
     1
  1
6
  7
SLDTEXTSTYLE0
 73
     1
 44
1.0
  0
MTEXT
  5
217
330
20C
100
AcDbEntity
  8
DIM
100
AcDbMText
 10
62.9353537667
 20
60.4317609645
 30
-1.4988676662
 40
1.25
 41
0.0
 71
     1
 72
     1
  1
3
  7
SLDTEXTSTYLE0
 73
     1
 44
1.0
  0
MTEXT
  5
218
330
20C
100
AcDbEntity
  8
DIM
100
AcDbMText
 10
63.8589648437
 20
58.815441543
 30
-1.4988676662
 40
1.25
 41
0.0
 71
     1
 72
     1
  1
8
  7
SLDTEXTSTYLE0
 73
     1
 44
1.0
  0
MTEXT
  5
219
330
20C
100
AcDbEntity
  8
DIM
100
AcDbMText
 10
64.7825760674
 20
59.5367958299
 30
-1.4988676662
 40
1.25
 41
0.0
 71
     1
 72
     1
  1
"
  7
SLDTEXTSTYLE0
 73
     1
 44
1.0
  0
ENDBLK
  5
20E
330
20C
100
AcDbEntity
  8
0
100
AcDbBlockEnd
  0
BLOCK
  5
21C
330
21B
100
AcDbEntity
  8
0
100
AcDbBlockBegin
  2
_D_8
 70
     0
 10
0.0
 20
0.0
 30
0.0
  3
_D_8
  1

  0
SOLID
  5
21E
330
21B
100
AcDbEntity
  8
DIM
100
AcDbTrace
 10
30.6326677095
 20
55.8204264365
 30
0.0
 11
30.8826677095
 21
56.8204264365
 31
0.0
 12
30.3826677095
 22
56.8204264365
 32
0.0
 13
30.3826677095
 23
56.8204264365
 33
0.0
  0
SOLID
  5
21F
330
21B
100
AcDbEntity
  8
DIM
100
AcDbTrace
 10
30.6326677095
 20
52.2324565665
 30
0.0
 11
30.3826677095
 21
51.2324565665
 31
0.0
 12
30.8826677095
 22
51.2324565665
 32
0.0
 13
30.8826677095
 23
51.2324565665
 33
0.0
  0
LINE
  5
220
330
21B
100
AcDbEntity
  8
DIM
100
AcDbLine
 10
26.2050571611
 20
60.070426403
 30
0.0
 11
24.7050571132
 21
57.5704263232
 31
0.0
  0
LINE
  5
221
330
21B
100
AcDbEntity
  8
DIM
100
AcDbLine
 10
43.749548615
 20
55.8204264365
 30
0.0
 11
30.5932976307
 21
55.8204264365
 31
0.0
  0
LINE
  5
222
330
21B
100
AcDbEntity
  8
DIM
100
AcDbLine
 10
45.259129898
 20
52.2324565665
 30
0.0
 11
30.5932976307
 21
52.2324565665
 31
0.0
  0
LINE
  5
223
330
21B
100
AcDbEntity
  8
DIM
100
AcDbLine
 10
28.8335290687
 20
58.8204264365
 30
0.0
 11
30.6326677095
 21
58.8204264365
 31
0.0
  0
LINE
  5
224
330
21B
100
AcDbEntity
  8
DIM
100
AcDbLine
 10
30.6326677095
 20
58.8204264365
 30
0.0
 11
30.6326677095
 21
55.8204264365
 31
0.0
  0
LINE
  5
225
330
21B
100
AcDbEntity
  8
DIM
100
AcDbLine
 10
30.6326677095
 20
52.2324565665
 30
0.0
 11
30.6326677095
 21
50.7324565665
 31
0.0
  0
MTEXT
  5
226
330
21B
100
AcDbEntity
  8
DIM
100
AcDbMText
 10
23.6078349831
 20
59.5367958299
 30
-1.4988676662
 40
1.25
 41
0.0
 71
     1
 72
     1
  1
3
  7
SLDTEXTSTYLE0
 73
     1
 44
1.0
  0
MTEXT
  5
227
330
21B
100
AcDbEntity
  8
DIM
100
AcDbMText
 10
24.5314460601
 20
60.4317609645
 30
-1.4988676662
 40
1.25
 41
0.0
 71
     1
 72
     1
  1
9
  7
SLDTEXTSTYLE0
 73
     1
 44
1.0
  0
MTEXT
  5
228
330
21B
100
AcDbEntity
  8
DIM
100
AcDbMText
 10
25.4550571371
 20
58.815441543
 30
-1.4988676662
 40
1.25
 41
0.0
 71
     1
 72
     1
  1
16
  7
SLDTEXTSTYLE0
 73
     1
 44
1.0
  0
MTEXT
  5
229
330
21B
100
AcDbEntity
  8
DIM
100
AcDbMText
 10
27.3022792912
 20
59.5367958299
 30
-1.4988676662
 40
1.25
 41
0.0
 71
     1
 72
     1
  1
"
  7
SLDTEXTSTYLE0
 73
     1
 44
1.0
  0
ENDBLK
  5
21D
330
21B
100
AcDbEntity
  8
0
100
AcDbBlockEnd
  0
BLOCK
  5
22C
330
22B
100
AcDbEntity
  8
0
100
AcDbBlockBegin
  2
_D_9
 70
     0
 10
0.0
 20
0.0
 30
0.0
  3
_D_9
  1

  0
SOLID
  5
22E
330
22B
100
AcDbEntity
  8
DIM
100
AcDbTrace
 10
30.6326677095
 20
41.0381804365
 30
0.0
 11
30.8826677095
 21
42.0381804365
 31
0.0
 12
30.3826677095
 22
42.0381804365
 32
0.0
 13
30.3826677095
 23
42.0381804365
 33
0.0
  0
SOLID
  5
22F
330
22B
100
AcDbEntity
  8
DIM
100
AcDbTrace
 10
30.6326677095
 20
52.2324565665
 30
0.0
 11
30.3826677095
 21
51.2324565665
 31
0.0
 12
30.8826677095
 22
51.2324565665
 32
0.0
 13
30.8826677095
 23
51.2324565665
 33
0.0
  0
LINE
  5
230
330
22B
100
AcDbEntity
  8
DIM
100
AcDbLine
 10
31.0788481632
 20
47.885318468
 30
0.0
 11
29.5788481153
 21
45.3853183882
 31
0.0
  0
LINE
  5
231
330
22B
100
AcDbEntity
  8
DIM
100
AcDbLine
 10
33.593298615
 20
41.0381804365
 30
0.0
 11
30.5932976307
 21
41.0381804365
 31
0.0
  0
LINE
  5
232
330
22B
100
AcDbEntity
  8
DIM
100
AcDbLine
 10
45.259129898
 20
52.2324565665
 30
0.0
 11
30.5932976307
 21
52.2324565665
 31
0.0
  0
LINE
  5
233
330
22B
100
AcDbEntity
  8
DIM
100
AcDbLine
 10
30.6326677095
 20
41.0381804365
 30
0.0
 11
30.6326677095
 21
45.01899908
 31
0.0
  0
LINE
  5
234
330
22B
100
AcDbEntity
  8
DIM
100
AcDbLine
 10
30.6326677095
 20
52.2324565665
 30
0.0
 11
30.6326677095
 21
48.2516379229
 31
0.0
  0
MTEXT
  5
235
330
22B
100
AcDbEntity
  8
DIM
100
AcDbMText
 10
27.5580149081
 20
47.3516878949
 30
-1.4988676662
 40
1.25
 41
0.0
 71
     1
 72
     1
  1
11
  7
SLDTEXTSTYLE0
 73
     1
 44
1.0
  0
MTEXT
  5
236
330
22B
100
AcDbEntity
  8
DIM
100
AcDbMText
 10
29.4052370622
 20
48.2466530295
 30
-1.4988676662
 40
1.25
 41
0.0
 71
     1
 72
     1
  1
3
  7
SLDTEXTSTYLE0
 73
     1
 44
1.0
  0
MTEXT
  5
237
330
22B
100
AcDbEntity
  8
DIM
100
AcDbMText
 10
30.3288481392
 20
46.630333608
 30
-1.4988676662
 40
1.25
 41
0.0
 71
     1
 72
     1
  1
16
  7
SLDTEXTSTYLE0
 73
     1
 44
1.0
  0
MTEXT
  5
238
330
22B
100
AcDbEntity
  8
DIM
100
AcDbMText
 10
32.17607044
 20
47.3516878949
 30
-1.4988676662
 40
1.25
 41
0.0
 71
     1
 72
     1
  1
"
  7
SLDTEXTSTYLE0
 73
     1
 44
1.0
  0
ENDBLK
  5
22D
330
22B
100
AcDbEntity
  8
0
100
AcDbBlockEnd
  0
BLOCK
  5
23B
330
23A
100
AcDbEntity
  8
0
100
AcDbBlockBegin
  2
_D_10
 70
     0
 10
0.0
 20
0.0
 30
0.0
  3
_D_10
  1

  0
SOLID
  5
23D
330
23A
100
AcDbEntity
  8
DIM
100
AcDbTrace
 10
68.882669678
 20
50.0194565665
 30
0.0
 11
68.632669678
 21
49.0194565665
 31
0.0
 12
69.132669678
 22
49.0194565665
 32
0.0
 13
69.132669678
 23
49.0194565665
 33
0.0
  0
SOLID
  5
23E
330
23A
100
AcDbEntity
  8
DIM
100
AcDbTrace
 10
68.882669678
 20
55.8204264365
 30
0.0
 11
69.132669678
 21
56.8204264365
 31
0.0
 12
68.632669678
 22
56.8204264365
 32
0.0
 13
68.632669678
 23
56.8204264365
 33
0.0
  0
LINE
  5
23F
330
23A
100
AcDbEntity
  8
DIM
100
AcDbLine
 10
69.328850425
 20
54.169941468
 30
0.0
 11
67.8288503771
 21
51.6699413882
 31
0.0
  0
LINE
  5
240
330
23A
100
AcDbEntity
  8
DIM
100
AcDbLine
 10
54.2648677573
 20
50.0194565665
 30
0.0
 11
68.9220397567
 21
50.0194565665
 31
0.0
  0
LINE
  5
241
330
23A
100
AcDbEntity
  8
DIM
100
AcDbLine
 10
55.7657887725
 20
55.8204264365
 30
0.0
 11
68.9220397567
 21
55.8204264365
 31
0.0
  0
LINE
  5
242
330
23A
100
AcDbEntity
  8
DIM
100
AcDbLine
 10
68.882669678
 20
50.0194565665
 30
0.0
 11
68.882669678
 21
48.5194565665
 31
0.0
  0
LINE
  5
243
330
23A
100
AcDbEntity
  8
DIM
100
AcDbLine
 10
68.882669678
 20
55.8204264365
 30
0.0
 11
68.882669678
 21
57.3204264365
 31
0.0
  0
MTEXT
  5
244
330
23A
100
AcDbEntity
  8
DIM
100
AcDbMText
 10
65.80801717
 20
53.6363108949
 30
-1.4988676662
 40
1.25
 41
0.0
 71
     1
 72
     1
  1
5
  7
SLDTEXTSTYLE0
 73
     1
 44
1.0
  0
MTEXT
  5
245
330
23A
100
AcDbEntity
  8
DIM
100
AcDbMText
 10
66.731628247
 20
54.5312760295
 30
-1.4988676662
 40
1.25
 41
0.0
 71
     1
 72
     1
  1
13
  7
SLDTEXTSTYLE0
 73
     1
 44
1.0
  0
MTEXT
  5
246
330
23A
100
AcDbEntity
  8
DIM
100
AcDbMText
 10
68.5788504011
 20
52.914956608
 30
-1.4988676662
 40
1.25
 41
0.0
 71
     1
 72
     1
  1
16
  7
SLDTEXTSTYLE0
 73
     1
 44
1.0
  0
MTEXT
  5
247
330
23A
100
AcDbEntity
  8
DIM
100
AcDbMText
 10
70.4260724085
 20
53.6363108949
 30
-1.4988676662
 40
1.25
 41
0.0
 71
     1
 72
     1
  1
"
  7
SLDTEXTSTYLE0
 73
     1
 44
1.0
  0
ENDBLK
  5
23C
330
23A
100
AcDbEntity
  8
0
100
AcDbBlockEnd
  0
BLOCK
  5
24A
330
249
100
AcDbEntity
  8
0
100
AcDbBlockBegin
  2
_D_11
 70
     0
 10
0.0
 20
0.0
 30
0.0
  3
_D_11
  1

  0
SOLID
  5
24C
330
249
100
AcDbEntity
  8
DIM
100
AcDbTrace
 10
68.882669678
 20
41.0381804365
 30
0.0
 11
69.132669678
 21
42.0381804365
 31
0.0
 12
68.632669678
 22
42.0381804365
 32
0.0
 13
68.632669678
 23
42.0381804365
 33
0.0
  0
SOLID
  5
24D
330
249
100
AcDbEntity
  8
DIM
100
AcDbTrace
 10
68.882669678
 20
50.0194565665
 30
0.0
 11
68.632669678
 21
49.0194565665
 31
0.0
 12
69.132669678
 22
49.0194565665
 32
0.0
 13
69.132669678
 23
49.0194565665
 33
0.0
  0
LINE
  5
24E
330
249
100
AcDbEntity
  8
DIM
100
AcDbLine
 10
65.9220387725
 20
41.0381804365
 30
0.0
 11
68.9220397567
 21
41.0381804365
 31
0.0
  0
LINE
  5
24F
330
249
100
AcDbEntity
  8
DIM
100
AcDbLine
 10
54.2648677573
 20
50.0194565665
 30
0.0
 11
68.9220397567
 21
50.0194565665
 31
0.0
  0
LINE
  5
250
330
249
100
AcDbEntity
  8
DIM
100
AcDbLine
 10
68.882669678
 20
41.0381804365
 30
0.0
 11
68.882669678
 21
44.53663099
 31
0.0
  0
LINE
  5
251
330
249
100
AcDbEntity
  8
DIM
100
AcDbLine
 10
68.882669678
 20
50.0194565665
 30
0.0
 11
68.882669678
 21
46.521006013
 31
0.0
  0
MTEXT
  5
252
330
249
100
AcDbEntity
  8
DIM
100
AcDbMText
 10
67.6552391774
 20
46.147965738
 30
-1.4988676662
 40
1.25
 41
0.0
 71
     1
 72
     1
  1
9"
  7
SLDTEXTSTYLE0
 73
     1
 44
1.0
  0
ENDBLK
  5
24B
330
249
100
AcDbEntity
  8
0
100
AcDbBlockEnd
  0
BLOCK
  5
255
330
254
100
AcDbEntity
  8
0
100
AcDbBlockBegin
  2
_D_12
 70
     0
 10
0.0
 20
0.0
 30
0.0
  3
_D_12
  1

  0
SOLID
  5
257
330
254
100
AcDbEntity
  8
DIM
100
AcDbTrace
 10
34.5076686937
 20
37.1801117886
 30
0.0
 11
35.5076686937
 21
36.9301117886
 31
0.0
 12
35.5076686937
 22
37.4301117886
 32
0.0
 13
35.5076686937
 23
37.4301117886
 33
0.0
  0
SOLID
  5
258
330
254
100
AcDbEntity
  8
DIM
100
AcDbTrace
 10
65.0076686937
 20
37.1801117886
 30
0.0
 11
64.0076686937
 21
37.4301117886
 31
0.0
 12
64.0076686937
 22
36.9301117886
 32
0.0
 13
64.0076686937
 23
36.9301117886
 33
0.0
  0
LINE
  5
259
330
254
100
AcDbEntity
  8
DIM
100
AcDbLine
 10
50.6656549059
 20
38.4301117552
 30
0.0
 11
49.1656548581
 21
35.9301116754
 31
0.0
  0
LINE
  5
25A
330
254
100
AcDbEntity
  8
DIM
100
AcDbLine
 10
34.5076686937
 20
40.2157417099
 30
0.0
 11
34.5076686937
 21
37.1407417099
 31
0.0
  0
LINE
  5
25B
330
254
100
AcDbEntity
  8
DIM
100
AcDbLine
 10
65.0076686937
 20
40.2157417099
 30
0.0
 11
65.0076686937
 21
37.1407417099
 31
0.0
  0
LINE
  5
25C
330
254
100
AcDbEntity
  8
DIM
100
AcDbLine
 10
34.5076686937
 20
37.1801117886
 30
0.0
 11
47.1448216509
 21
37.1801117886
 31
0.0
  0
LINE
  5
25D
330
254
100
AcDbEntity
  8
DIM
100
AcDbLine
 10
65.0076686937
 20
37.1801117886
 30
0.0
 11
52.3705157366
 21
37.1801117886
 31
0.0
  0
MTEXT
  5
25E
330
254
100
AcDbEntity
  8
DIM
100
AcDbMText
 10
47.1448216509
 20
37.896481182
 30
-1.4988676662
 40
1.25
 41
0.0
 71
     1
 72
     1
  1
30
  7
SLDTEXTSTYLE0
 73
     1
 44
1.0
  0
MTEXT
  5
25F
330
254
100
AcDbEntity
  8
DIM
100
AcDbMText
 10
48.992043805
 20
38.7914463167
 30
-1.4988676662
 40
1.25
 41
0.0
 71
     1
 72
     1
  1
1
  7
SLDTEXTSTYLE0
 73
     1
 44
1.0
  0
MTEXT
  5
260
330
254
100
AcDbEntity
  8
DIM
100
AcDbMText
 10
49.915654882
 20
37.1751268952
 30
-1.4988676662
 40
1.25
 41
0.0
 71
     1
 72
     1
  1
2
  7
SLDTEXTSTYLE0
 73
     1
 44
1.0
  0
MTEXT
  5
261
330
254
100
AcDbEntity
  8
DIM
100
AcDbMText
 10
50.839265959
 20
37.896481182
 30
-1.4988676662
 40
1.25
 41
0.0
 71
     1
 72
     1
  1
"
  7
SLDTEXTSTYLE0
 73
     1
 44
1.0
  0
ENDBLK
  5
256
330
254
100
AcDbEntity
  8
0
100
AcDbBlockEnd
  0
BLOCK
  5
264
330
263
100
AcDbEntity
  8
0
100
AcDbBlockBegin
  2
_D_13
 70
     0
 10
0.0
 20
0.0
 30
0.0
  3
_D_13
  1

  0
SOLID
  5
266
330
263
100
AcDbEntity
  8
DIM
100
AcDbTrace
 10
68.882669678
 20
40.1801117886
 30
0.0
 11
68.632669678
 21
39.1801117886
 31
0.0
 12
69.132669678
 22
39.1801117886
 32
0.0
 13
69.132669678
 23
39.1801117886
 33
0.0
  0
SOLID
  5
267
330
263
100
AcDbEntity
  8
DIM
100
AcDbTrace
 10
68.882669678
 20
41.0381804365
 30
0.0
 11
69.132669678
 21
42.0381804365
 31
0.0
 12
68.632669678
 22
42.0381804365
 32
0.0
 13
68.632669678
 23
42.0381804365
 33
0.0
  0
LINE
  5
268
330
263
100
AcDbEntity
  8
DIM
100
AcDbLine
 10
73.0331133755
 20
38.4301117552
 30
0.0
 11
71.5331133276
 21
35.9301116754
 31
0.0
  0
LINE
  5
269
330
263
100
AcDbEntity
  8
DIM
100
AcDbLine
 10
64.9720387725
 20
40.1801117886
 30
0.0
 11
68.9220397567
 21
40.1801117886
 31
0.0
  0
LINE
  5
26A
330
263
100
AcDbEntity
  8
DIM
100
AcDbLine
 10
65.9220387725
 20
41.0381804365
 30
0.0
 11
68.9220397567
 21
41.0381804365
 31
0.0
  0
LINE
  5
26B
330
263
100
AcDbEntity
  8
DIM
100
AcDbLine
 10
71.3595022745
 20
37.1801117886
 30
0.0
 11
68.882669678
 21
37.1801117886
 31
0.0
  0
LINE
  5
26C
330
263
100
AcDbEntity
  8
DIM
100
AcDbLine
 10
68.882669678
 20
37.1801117886
 30
0.0
 11
68.882669678
 21
40.1801117886
 31
0.0
  0
LINE
  5
26D
330
263
100
AcDbEntity
  8
DIM
100
AcDbLine
 10
68.882669678
 20
41.0381804365
 30
0.0
 11
68.882669678
 21
42.5381804365
 31
0.0
  0
MTEXT
  5
26E
330
263
100
AcDbEntity
  8
DIM
100
AcDbMText
 10
71.3595022745
 20
38.7914463167
 30
-1.4988676662
 40
1.25
 41
0.0
 71
     1
 72
     1
  1
7
  7
SLDTEXTSTYLE0
 73
     1
 44
1.0
  0
MTEXT
  5
26F
330
263
100
AcDbEntity
  8
DIM
100
AcDbMText
 10
72.2831133515
 20
37.1751268952
 30
-1.4988676662
 40
1.25
 41
0.0
 71
     1
 72
     1
  1
8
  7
SLDTEXTSTYLE0
 73
     1
 44
1.0
  0
MTEXT
  5
270
330
263
100
AcDbEntity
  8
DIM
100
AcDbMText
 10
73.2067244286
 20
37.896481182
 30
-1.4988676662
 40
1.25
 41
0.0
 71
     1
 72
     1
  1
"
  7
SLDTEXTSTYLE0
 73
     1
 44
1.0
  0
ENDBLK
  5
265
330
263
100
AcDbEntity
  8
0
100
AcDbBlockEnd
  0
BLOCK
  5
273
330
272
100
AcDbEntity
  8
0
100
AcDbBlockBegin
  2
_D_14
 70
     0
 10
0.0
 20
0.0
 30
0.0
  3
_D_14
  1

  0
SOLID
  5
275
330
272
100
AcDbEntity
  8
DIM
100
AcDbTrace
 10
33.6326686937
 20
33.6801117886
 30
0.0
 11
34.6326686937
 21
33.4301117886
 31
0.0
 12
34.6326686937
 22
33.9301117886
 32
0.0
 13
34.6326686937
 23
33.9301117886
 33
0.0
  0
SOLID
  5
276
330
272
100
AcDbEntity
  8
DIM
100
AcDbTrace
 10
65.8826686937
 20
33.6801117886
 30
0.0
 11
64.8826686937
 21
33.9301117886
 31
0.0
 12
64.8826686937
 22
33.4301117886
 32
0.0
 13
64.8826686937
 23
33.4301117886
 33
0.0
  0
LINE
  5
277
330
272
100
AcDbEntity
  8
DIM
100
AcDbLine
 10
50.6656549059
 20
34.9301117552
 30
0.0
 11
49.1656548581
 21
32.4301116754
 31
0.0
  0
LINE
  5
278
330
272
100
AcDbEntity
  8
DIM
100
AcDbLine
 10
33.6326686937
 20
40.7302103577
 30
0.0
 11
33.6326686937
 21
33.6407417099
 31
0.0
  0
LINE
  5
279
330
272
100
AcDbEntity
  8
DIM
100
AcDbLine
 10
65.8826686937
 20
40.7302103577
 30
0.0
 11
65.8826686937
 21
33.6407417099
 31
0.0
  0
LINE
  5
27A
330
272
100
AcDbEntity
  8
DIM
100
AcDbLine
 10
33.6326686937
 20
33.6801117886
 30
0.0
 11
47.1448216509
 21
33.6801117886
 31
0.0
  0
LINE
  5
27B
330
272
100
AcDbEntity
  8
DIM
100
AcDbLine
 10
65.8826686937
 20
33.6801117886
 30
0.0
 11
52.3705157366
 21
33.6801117886
 31
0.0
  0
MTEXT
  5
27C
330
272
100
AcDbEntity
  8
DIM
100
AcDbMText
 10
47.1448216509
 20
34.396481182
 30
-1.4988676662
 40
1.25
 41
0.0
 71
     1
 72
     1
  1
32
  7
SLDTEXTSTYLE0
 73
     1
 44
1.0
  0
MTEXT
  5
27D
330
272
100
AcDbEntity
  8
DIM
100
AcDbMText
 10
48.992043805
 20
35.2914463167
 30
-1.4988676662
 40
1.25
 41
0.0
 71
     1
 72
     1
  1
1
  7
SLDTEXTSTYLE0
 73
     1
 44
1.0
  0
MTEXT
  5
27E
330
272
100
AcDbEntity
  8
DIM
100
AcDbMText
 10
49.915654882
 20
33.6751268952
 30
-1.4988676662
 40
1.25
 41
0.0
 71
     1
 72
     1
  1
4
  7
SLDTEXTSTYLE0
 73
     1
 44
1.0
  0
MTEXT
  5
27F
330
272
100
AcDbEntity
  8
DIM
100
AcDbMText
 10
50.839265959
 20
34.396481182
 30
-1.4988676662
 40
1.25
 41
0.0
 71
     1
 72
     1
  1
"
  7
SLDTEXTSTYLE0
 73
     1
 44
1.0
  0
ENDBLK
  5
274
330
272
100
AcDbEntity
  8
0
100
AcDbBlockEnd
  0
BLOCK
  5
283
330
282
100
AcDbEntity
  8
0
100
AcDbBlockBegin
  2
_D_15
 70
     0
 10
0.0
 20
0.0
 30
0.0
  3
_D_15
  1

  0
SOLID
  5
285
330
282
100
AcDbEntity
  8
DIM
100
AcDbTrace
 10
53.4945955541
 20
48.7100336419
 30
0.0
 11
53.7646790233
 21
47.7152698912
 31
0.0
 12
54.2010286155
 22
47.9593990239
 32
0.0
 13
54.2010286155
 23
47.9593990239
 33
0.0
  0
LINE
  5
286
330
282
100
AcDbEntity
  8
DIM
100
AcDbLine
 10
53.4945955541
 20
48.7100336419
 30
0.0
 11
55.3563695261
 21
45.3823508512
 31
0.0
  0
LINE
  5
287
330
282
100
AcDbEntity
  8
DIM
100
AcDbLine
 10
55.3563695261
 20
45.3823508512
 30
0.0
 11
54.5592410168
 21
45.3823508512
 31
0.0
  0
MTEXT
  5
288
330
282
100
AcDbEntity
  8
DIM
100
AcDbMText
 10
50.2192235531
 20
45.9919494647
 30
-1.4988676662
 40
1.25
 41
0.0
 71
     1
 72
     1
  1
%%c
  7
SLDTEXTSTYLE0
 73
     1
 44
1.0
  0
MTEXT
  5
289
330
282
100
AcDbEntity
  8
DIM
100
AcDbMText
 10
52.1043798689
 20
46.0110467108
 30
-1.4988676662
 40
1.25
 41
0.0
 71
     1
 72
     1
  1
3"
  7
SLDTEXTSTYLE0
 73
     1
 44
1.0
  0
ENDBLK
  5
284
330
282
100
AcDbEntity
  8
0
100
AcDbBlockEnd
  0
BLOCK
  5
28C
330
28B
100
AcDbEntity
  8
0
100
AcDbBlockBegin
  2
_D_16
 70
     0
 10
0.0
 20
0.0
 30
0.0
  3
_D_16
  1

  0
SOLID
  5
28E
330
28B
100
AcDbEntity
  8
DIM
100
AcDbTrace
 10
46.1857388277
 20
50.847100738
 30
0.0
 11
45.5708486022
 21
50.0198099725
 31
0.0
 12
46.0325019301
 22
49.8277781918
 32
0.0
 13
46.0325019301
 23
49.8277781918
 33
0.0
  0
LINE
  5
28F
330
28B
100
AcDbEntity
  8
DIM
100
AcDbLine
 10
46.1857388277
 20
50.847100738
 30
0.0
 11
44.525806742
 21
46.8565468388
 31
0.0
  0
LINE
  5
290
330
28B
100
AcDbEntity
  8
DIM
100
AcDbLine
 10
44.525806742
 20
46.8565468388
 30
0.0
 11
45.3996941947
 21
46.8565468388
 31
0.0
  0
MTEXT
  5
291
330
28B
100
AcDbEntity
  8
DIM
100
AcDbMText
 10
45.3996941947
 20
47.4661454523
 30
-1.4988676662
 40
1.25
 41
0.0
 71
     1
 72
     1
  1
%%c
  7
SLDTEXTSTYLE0
 73
     1
 44
1.0
  0
MTEXT
  5
292
330
28B
100
AcDbEntity
  8
DIM
100
AcDbMText
 10
47.2848505106
 20
47.4852426984
 30
-1.4988676662
 40
1.25
 41
0.0
 71
     1
 72
     1
  1
3"
  7
SLDTEXTSTYLE0
 73
     1
 44
1.0
  0
ENDBLK
  5
28D
330
28B
100
AcDbEntity
  8
0
100
AcDbBlockEnd
  0
BLOCK
  5
294
330
293
100
AcDbEntity
  8
0
100
AcDbBlockBegin
  2
SW_CENTERMARKSYMBOL_0
 70
     0
 10
0.0
 20
0.0
 30
0.0
  3
SW_CENTERMARKSYMBOL_0
  1

  0
LINE
  5
296
330
293
100
AcDbEntity
  8
DIM
 62
     0
100
AcDbLine
 10
0.0
 20
0.0
 30
0.0
 11
0.0
 21
0.0984251969
 31
0.0
  0
LINE
  5
297
330
293
100
AcDbEntity
  8
DIM
 62
     0
100
AcDbLine
 10
0.0
 20
0.0
 30
0.0
 11
-0.0984251969
 21
0.0
 31
0.0
  0
LINE
  5
298
330
293
100
AcDbEntity
  8
DIM
 62
     0
100
AcDbLine
 10
0.0
 20
0.0
 30
0.0
 11
0.0
 21
-0.0984251969
 31
0.0
  0
LINE
  5
299
330
293
100
AcDbEntity
  8
DIM
 62
     0
100
AcDbLine
 10
0.0
 20
0.0
 30
0.0
 11
0.0984251969
 21
0.0
 31
0.0
  0
LINE
  5
29A
330
293
100
AcDbEntity
  8
DIM
 62
     0
100
AcDbLine
 10
0.0
 20
0.1968503937
 30
0.0
 11
0.0
 21
1.4634988509
 31
0.0
  0
LINE
  5
29B
330
293
100
AcDbEntity
  8
DIM
 62
     0
100
AcDbLine
 10
-0.1968503937
 20
0.0
 30
0.0
 11
-1.4634988509
 21
0.0
 31
0.0
  0
LINE
  5
29C
330
293
100
AcDbEntity
  8
DIM
 62
     0
100
AcDbLine
 10
0.0
 20
-0.1968503937
 30
0.0
 11
0.0
 21
-1.4634988509
 31
0.0
  0
LINE
  5
29D
330
293
100
AcDbEntity
  8
DIM
 62
     0
100
AcDbLine
 10
0.1968503937
 20
0.0
 30
0.0
 11
1.4634988509
 21
0.0
 31
0.0
  0
ENDBLK
  5
295
330
293
100
AcDbEntity
  8
0
100
AcDbBlockEnd
  0
BLOCK
  5
2A0
330
29F
100
AcDbEntity
  8
0
100
AcDbBlockBegin
  2
SW_CENTERMARKSYMBOL_1
 70
     0
 10
0.0
 20
0.0
 30
0.0
  3
SW_CENTERMARKSYMBOL_1
  1

  0
LINE
  5
2A2
330
29F
100
AcDbEntity
  8
DIM
 62
     0
100
AcDbLine
 10
0.0
 20
0.0
 30
0.0
 11
0.0
 21
0.0984251969
 31
0.0
  0
LINE
  5
2A3
330
29F
100
AcDbEntity
  8
DIM
 62
     0
100
AcDbLine
 10
0.0
 20
0.0
 30
0.0
 11
-0.0984251969
 21
0.0
 31
0.0
  0
LINE
  5
2A4
330
29F
100
AcDbEntity
  8
DIM
 62
     0
100
AcDbLine
 10
0.0
 20
0.0
 30
0.0
 11
0.0
 21
-0.0984251969
 31
0.0
  0
LINE
  5
2A5
330
29F
100
AcDbEntity
  8
DIM
 62
     0
100
AcDbLine
 10
0.0
 20
0.0
 30
0.0
 11
0.0984251969
 21
0.0
 31
0.0
  0
LINE
  5
2A6
330
29F
100
AcDbEntity
  8
DIM
 62
     0
100
AcDbLine
 10
0.0
 20
0.1968503937
 30
0.0
 11
0.0
 21
1.4634988509
 31
0.0
  0
LINE
  5
2A7
330
29F
100
AcDbEntity
  8
DIM
 62
     0
100
AcDbLine
 10
-0.1968503937
 20
0.0
 30
0.0
 11
-1.4634988509
 21
0.0
 31
0.0
  0
LINE
  5
2A8
330
29F
100
AcDbEntity
  8
DIM
 62
     0
100
AcDbLine
 10
0.0
 20
-0.1968503937
 30
0.0
 11
0.0
 21
-1.4634988509
 31
0.0
  0
LINE
  5
2A9
330
29F
100
AcDbEntity
  8
DIM
 62
     0
100
AcDbLine
 10
0.1968503937
 20
0.0
 30
0.0
 11
1.4634988509
 21
0.0
 31
0.0
  0
ENDBLK
  5
2A1
330
29F
100
AcDbEntity
  8
0
100
AcDbBlockEnd
  0
BLOCK
  5
3B0
330
3AF
100
AcDbEntity
  8
0
100
AcDbBlockBegin
  2
_D_17
 70
     0
 10
0.0
 20
0.0
 30
0.0
  3
_D_17
  1

  0
SOLID
  5
3B2
330
3AF
100
AcDbEntity
  8
DIM
100
AcDbTrace
 10
84.3467449384
 20
29.7680484946
 30
0.0
 11
85.3467449384
 21
29.5180484946
 31
0.0
 12
85.3467449384
 22
30.0180484946
 32
0.0
 13
85.3467449384
 23
30.0180484946
 33
0.0
  0
SOLID
  5
3B3
330
3AF
100
AcDbEntity
  8
DIM
100
AcDbTrace
 10
99.3975909384
 20
29.7680484946
 30
0.0
 11
98.3975909384
 21
30.0180484946
 31
0.0
 12
98.3975909384
 22
29.5180484946
 32
0.0
 13
98.3975909384
 23
29.5180484946
 33
0.0
  0
LINE
  5
3B4
330
3AF
100
AcDbEntity
  8
DIM
100
AcDbLine
 10
92.3183483921
 20
31.0180484612
 30
0.0
 11
90.8183483442
 21
28.5180483814
 31
0.0
  0
LINE
  5
3B5
330
3AF
100
AcDbEntity
  8
DIM
100
AcDbLine
 10
84.3467449384
 20
25.9689268923
 30
0.0
 11
84.3467449384
 21
29.8074185734
 31
0.0
  0
LINE
  5
3B6
330
3AF
100
AcDbEntity
  8
DIM
100
AcDbLine
 10
99.3975909384
 20
24.4306282155
 30
0.0
 11
99.3975909384
 21
29.8074185734
 31
0.0
  0
LINE
  5
3B7
330
3AF
100
AcDbEntity
  8
DIM
100
AcDbLine
 10
84.3467449384
 20
29.7680484946
 30
0.0
 11
88.797515137
 21
29.7680484946
 31
0.0
  0
LINE
  5
3B8
330
3AF
100
AcDbEntity
  8
DIM
100
AcDbLine
 10
99.3975909384
 20
29.7680484946
 30
0.0
 11
94.9468207397
 21
29.7680484946
 31
0.0
  0
MTEXT
  5
3B9
330
3AF
100
AcDbEntity
  8
DIM
100
AcDbMText
 10
88.797515137
 20
30.4844178881
 30
0.0039370079
 40
1.25
 41
0.0
 71
     1
 72
     1
  1
15
  7
SLDTEXTSTYLE0
 73
     1
 44
1.0
  0
MTEXT
  5
3BA
330
3AF
100
AcDbEntity
  8
DIM
100
AcDbMText
 10
90.6447372911
 20
31.3793830227
 30
0.0039370079
 40
1.25
 41
0.0
 71
     1
 72
     1
  1
1
  7
SLDTEXTSTYLE0
 73
     1
 44
1.0
  0
MTEXT
  5
3BB
330
3AF
100
AcDbEntity
  8
DIM
100
AcDbMText
 10
91.5683483681
 20
29.7630636012
 30
0.0039370079
 40
1.25
 41
0.0
 71
     1
 72
     1
  1
16
  7
SLDTEXTSTYLE0
 73
     1
 44
1.0
  0
MTEXT
  5
3BC
330
3AF
100
AcDbEntity
  8
DIM
100
AcDbMText
 10
93.4155706689
 20
30.4844178881
 30
0.0039370079
 40
1.25
 41
0.0
 71
     1
 72
     1
  1
"
  7
SLDTEXTSTYLE0
 73
     1
 44
1.0
  0
ENDBLK
  5
3B1
330
3AF
100
AcDbEntity
  8
0
100
AcDbBlockEnd
  0
BLOCK
  5
3BF
330
3BE
100
AcDbEntity
  8
0
100
AcDbBlockBegin
  2
_D_18
 70
     0
 10
0.0
 20
0.0
 30
0.0
  3
_D_18
  1

  0
SOLID
  5
3C1
330
3BE
100
AcDbEntity
  8
DIM
100
AcDbTrace
 10
103.3975909384
 20
24.5651081368
 30
0.0
 11
103.1475909384
 21
23.5651081368
 31
0.0
 12
103.6475909384
 22
23.5651081368
 32
0.0
 13
103.6475909384
 23
23.5651081368
 33
0.0
  0
SOLID
  5
3C2
330
3BE
100
AcDbEntity
  8
DIM
100
AcDbTrace
 10
103.3975909384
 20
26.0950818437
 30
0.0
 11
103.6475909384
 21
27.0950818437
 31
0.0
 12
103.1475909384
 22
27.0950818437
 32
0.0
 13
103.1475909384
 23
27.0950818437
 33
0.0
  0
LINE
  5
3C3
330
3BE
100
AcDbEntity
  8
DIM
100
AcDbLine
 10
107.3983416847
 20
31.0180484612
 30
0.0
 11
105.8983416368
 21
28.5180483814
 31
0.0
  0
LINE
  5
3C4
330
3BE
100
AcDbEntity
  8
DIM
100
AcDbLine
 10
99.3588610171
 20
24.5651081368
 30
0.0
 11
103.4369610171
 21
24.5651081368
 31
0.0
  0
LINE
  5
3C5
330
3BE
100
AcDbEntity
  8
DIM
100
AcDbLine
 10
97.2140648012
 20
26.0950818437
 30
0.0
 11
103.4369610171
 21
26.0950818437
 31
0.0
  0
LINE
  5
3C6
330
3BE
100
AcDbEntity
  8
DIM
100
AcDbLine
 10
104.8011195067
 20
29.7680484946
 30
0.0
 11
103.3975909384
 21
29.7680484946
 31
0.0
  0
LINE
  5
3C7
330
3BE
100
AcDbEntity
  8
DIM
100
AcDbLine
 10
103.3975909384
 20
29.7680484946
 30
0.0
 11
103.3975909384
 21
26.0950818437
 31
0.0
  0
LINE
  5
3C8
330
3BE
100
AcDbEntity
  8
DIM
100
AcDbLine
 10
103.3975909384
 20
24.5651081368
 30
0.0
 11
103.3975909384
 21
23.0651081368
 31
0.0
  0
MTEXT
  5
3C9
330
3BE
100
AcDbEntity
  8
DIM
100
AcDbMText
 10
104.8011195067
 20
30.4844178881
 30
0.0039370079
 40
1.25
 41
0.0
 71
     1
 72
     1
  1
1
  7
SLDTEXTSTYLE0
 73
     1
 44
1.0
  0
MTEXT
  5
3CA
330
3BE
100
AcDbEntity
  8
DIM
100
AcDbMText
 10
105.7247305837
 20
31.3793830227
 30
0.0039370079
 40
1.25
 41
0.0
 71
     1
 72
     1
  1
1
  7
SLDTEXTSTYLE0
 73
     1
 44
1.0
  0
MTEXT
  5
3CB
330
3BE
100
AcDbEntity
  8
DIM
100
AcDbMText
 10
106.6483416608
 20
29.7630636012
 30
0.0039370079
 40
1.25
 41
0.0
 71
     1
 72
     1
  1
2
  7
SLDTEXTSTYLE0
 73
     1
 44
1.0
  0
MTEXT
  5
3CC
330
3BE
100
AcDbEntity
  8
DIM
100
AcDbMText
 10
107.5719528845
 20
30.4844178881
 30
0.0039370079
 40
1.25
 41
0.0
 71
     1
 72
     1
  1
"
  7
SLDTEXTSTYLE0
 73
     1
 44
1.0
  0
ENDBLK
  5
3C0
330
3BE
100
AcDbEntity
  8
0
100
AcDbBlockEnd
  0
BLOCK
  5
3CF
330
3CE
100
AcDbEntity
  8
0
100
AcDbBlockBegin
  2
_D_19
 70
     0
 10
0.0
 20
0.0
 30
0.0
  3
_D_19
  1

  0
SOLID
  5
3D1
330
3CE
100
AcDbEntity
  8
DIM
100
AcDbTrace
 10
103.3975909384
 20
3.2053081368
 30
0.0
 11
103.6475909384
 21
4.2053081368
 31
0.0
 12
103.1475909384
 22
4.2053081368
 32
0.0
 13
103.1475909384
 23
4.2053081368
 33
0.0
  0
SOLID
  5
3D2
330
3CE
100
AcDbEntity
  8
DIM
100
AcDbTrace
 10
103.3975909384
 20
24.5651081368
 30
0.0
 11
103.1475909384
 21
23.5651081368
 31
0.0
 12
103.6475909384
 22
23.5651081368
 32
0.0
 13
103.6475909384
 23
23.5651081368
 33
0.0
  0
LINE
  5
3D3
330
3CE
100
AcDbEntity
  8
DIM
100
AcDbLine
 10
104.3055771506
 20
15.1352081033
 30
0.0
 11
102.8055771027
 21
12.6352080236
 31
0.0
  0
LINE
  5
3D4
330
3CE
100
AcDbEntity
  8
DIM
100
AcDbLine
 10
99.3431614644
 20
3.2053081368
 30
0.0
 11
103.4369610171
 21
3.2053081368
 31
0.0
  0
LINE
  5
3D5
330
3CE
100
AcDbEntity
  8
DIM
100
AcDbLine
 10
99.3588610171
 20
24.5651081368
 30
0.0
 11
103.4369610171
 21
24.5651081368
 31
0.0
  0
LINE
  5
3D6
330
3CE
100
AcDbEntity
  8
DIM
100
AcDbLine
 10
103.3975909384
 20
3.2053081368
 30
0.0
 11
103.3975909384
 21
12.2688887153
 31
0.0
  0
LINE
  5
3D7
330
3CE
100
AcDbEntity
  8
DIM
100
AcDbLine
 10
103.3975909384
 20
24.5651081368
 30
0.0
 11
103.3975909384
 21
15.5015275583
 31
0.0
  0
MTEXT
  5
3D8
330
3CE
100
AcDbEntity
  8
DIM
100
AcDbMText
 10
100.7847438955
 20
14.6015775302
 30
0.0039370079
 40
1.25
 41
0.0
 71
     1
 72
     1
  1
21
  7
SLDTEXTSTYLE0
 73
     1
 44
1.0
  0
MTEXT
  5
3D9
330
3CE
100
AcDbEntity
  8
DIM
100
AcDbMText
 10
102.6319660496
 20
15.4965426648
 30
0.0039370079
 40
1.25
 41
0.0
 71
     1
 72
     1
  1
3
  7
SLDTEXTSTYLE0
 73
     1
 44
1.0
  0
MTEXT
  5
3DA
330
3CE
100
AcDbEntity
  8
DIM
100
AcDbMText
 10
103.5555771266
 20
13.8802232434
 30
0.0039370079
 40
1.25
 41
0.0
 71
     1
 72
     1
  1
8
  7
SLDTEXTSTYLE0
 73
     1
 44
1.0
  0
MTEXT
  5
3DB
330
3CE
100
AcDbEntity
  8
DIM
100
AcDbMText
 10
104.4791882037
 20
14.6015775302
 30
0.0039370079
 40
1.25
 41
0.0
 71
     1
 72
     1
  1
"
  7
SLDTEXTSTYLE0
 73
     1
 44
1.0
  0
ENDBLK
  5
3D0
330
3CE
100
AcDbEntity
  8
0
100
AcDbBlockEnd
  0
ENDSEC
  0
SECTION
  2
ENTITIES
  0
INSERT
  5
4D
330
1F
100
AcDbEntity
  8
NOTES
100
AcDbBlockReference
  2
SW_NOTE_0
 10
1.5189157956
 20
61.257297979
 30
0.0
  0
MTEXT
  5
4E
330
1F
100
AcDbEntity
  8
NOTES
100
AcDbMText
 10
1.5189157956
 20
56.4609649796
 30
0.0
 40
1.0
 41
0.0
 71
     1
 72
     1
  1
REQUIRES DECORATIVE SURROUND
  7
SLDTEXTSTYLE0
 73
     1
 44
1.0
  0
LINE
  5
4F
330
1F
100
AcDbEntity
  8
SLD-0
  6
Continuous
370
    15
100
AcDbLine
 10
54.1772049722
 20
25.9295566175
 30
0.0
 11
54.1669988501
 21
26.0975079573
 31
0.0
  0
LINE
  5
50
330
1F
100
AcDbEntity
  8
SLD-0
  6
Continuous
370
    15
100
AcDbLine
 10
51.3569988848
 20
26.0975079573
 30
0.0
 11
51.346792616
 21
25.9295566175
 31
0.0
  0
LINE
  5
51
330
1F
100
AcDbEntity
  8
SLD-0
  6
Continuous
370
    15
100
AcDbLine
 10
48.1772050447
 20
25.9295566175
 30
0.0
 11
48.1669987759
 21
26.0975079573
 31
0.0
  0
LINE
  5
52
330
1F
100
AcDbEntity
  8
SLD-0
  6
Continuous
370
    15
100
AcDbLine
 10
45.3569988106
 20
26.0975079573
 30
0.0
 11
45.3467926885
 21
25.9295566175
 31
0.0
  0
LINE
  5
53
330
1F
100
AcDbEntity
  8
SLD-0
  6
Continuous
370
    15
100
AcDbLine
 10
64.7139184245
 20
3.7901018143
 30
0.0
 11
34.8014189629
 21
3.7901018143
 31
0.0
  0
LINE
  5
54
330
1F
100
AcDbEntity
  8
SLD-0
  6
Continuous
370
    15
100
AcDbLine
 10
63.2177456284
 20
21.9490581205
 30
0.0
 11
63.217729202
 21
21.9491032933
 31
0.0
  0
LINE
  5
55
330
1F
100
AcDbEntity
  8
SLD-0
  6
Continuous
370
    15
100
AcDbLine
 10
36.2976081855
 20
21.9491032933
 30
0.0
 11
36.297591759
 21
21.9490581205
 31
0.0
  0
LINE
  5
56
330
1F
100
AcDbEntity
  8
SLD-0
  6
Continuous
370
    15
100
AcDbLine
 10
54.1669988501
 20
26.0975079573
 30
0.0
 11
51.3569988848
 21
26.0975079573
 31
0.0
  0
LINE
  5
57
330
1F
100
AcDbEntity
  8
SLD-0
  6
Continuous
370
    15
100
AcDbLine
 10
46.7619987933
 20
26.0975079573
 30
0.0
 11
45.3569988106
 21
26.0975079573
 31
0.0
  0
LINE
  5
58
330
1F
100
AcDbEntity
  8
SLD-0
  6
Continuous
370
    15
100
AcDbLine
 10
48.1669987759
 20
26.0975079573
 30
0.0
 11
46.7619987933
 21
26.0975079573
 31
0.0
  0
LINE
  5
59
330
1F
100
AcDbEntity
  8
SLD-0
  6
Continuous
370
    15
100
AcDbLine
 10
65.882668123
 20
25.5545565762
 30
0.0
 11
65.507669255
 21
25.9295566175
 31
0.0
  0
LINE
  5
5A
330
1F
100
AcDbEntity
  8
SLD-0
  6
Continuous
370
    15
100
AcDbLine
 10
65.882668123
 20
25.5545565762
 30
0.0
 11
65.882668123
 21
24.3175079333
 31
0.0
  0
LINE
  5
5B
330
1F
100
AcDbEntity
  8
SLD-0
  6
Continuous
370
    15
100
AcDbLine
 10
65.882668123
 20
24.3175079333
 30
0.0
 11
33.6326692644
 21
24.3175079333
 31
0.0
  0
LINE
  5
5C
330
1F
100
AcDbEntity
  8
SLD-0
  6
Continuous
370
    15
100
AcDbLine
 10
33.6326692644
 20
24.3175079333
 30
0.0
 11
33.6326692644
 21
25.5545565762
 31
0.0
  0
LINE
  5
5D
330
1F
100
AcDbEntity
  8
SLD-0
  6
Continuous
370
    15
100
AcDbLine
 10
34.0076681324
 20
25.9295566175
 30
0.0
 11
33.6326692644
 21
25.5545565762
 31
0.0
  0
LINE
  5
5E
330
1F
100
AcDbEntity
  8
SLD-0
  6
Continuous
370
    15
100
AcDbLine
 10
34.0076681324
 20
25.9295566175
 30
0.0
 11
65.507669255
 21
25.9295566175
 31
0.0
  0
LINE
  5
5F
330
1F
100
AcDbEntity
  8
SLD-0
  6
Continuous
370
    15
100
AcDbLine
 10
65.882668123
 20
24.2689078547
 30
0.0
 11
33.6326692644
 21
24.2689078547
 31
0.0
  0
LINE
  5
60
330
1F
100
AcDbEntity
  8
SLD-0
  6
Continuous
370
    15
100
AcDbLine
 10
65.882668123
 20
24.3175079333
 30
0.0
 11
65.882668123
 21
24.2689078547
 31
0.0
  0
LINE
  5
61
330
1F
100
AcDbEntity
  8
SLD-0
  6
Continuous
370
    15
100
AcDbLine
 10
33.6326692644
 20
24.2689078547
 30
0.0
 11
33.6326692644
 21
24.3175079333
 31
0.0
  0
LINE
  5
62
330
1F
100
AcDbEntity
  8
SLD-0
  6
Continuous
370
    15
100
AcDbLine
 10
34.8014189629
 20
3.7545332119
 30
0.0
 11
34.8014189629
 21
3.7901018143
 31
0.0
  0
LINE
  5
63
330
1F
100
AcDbEntity
  8
SLD-0
  6
Continuous
370
    15
100
AcDbLine
 10
64.7139184245
 20
3.7901018143
 30
0.0
 11
64.7139184245
 21
3.7545332119
 31
0.0
  0
LINE
  5
64
330
1F
100
AcDbEntity
  8
SLD-0
  6
Continuous
370
    15
100
AcDbLine
 10
34.8014189629
 20
3.7545332119
 30
0.0
 11
64.7139184245
 21
3.7545332119
 31
0.0
  0
LINE
  5
65
330
1F
100
AcDbEntity
  8
SLD-0
  6
Continuous
370
    15
100
AcDbLine
 10
34.8014189629
 20
3.310101386
 30
0.0
 11
34.8014189629
 21
3.7545332119
 31
0.0
  0
LINE
  5
66
330
1F
100
AcDbEntity
  8
SLD-0
  6
Continuous
370
    15
100
AcDbLine
 10
64.7139184245
 20
3.310101386
 30
0.0
 11
64.7139184245
 21
3.7545332119
 31
0.0
  0
LINE
  5
67
330
1F
100
AcDbEntity
  8
SLD-0
  6
Continuous
370
    15
100
AcDbLine
 10
64.7139184245
 20
3.310101386
 30
0.0
 11
34.8014189629
 21
3.310101386
 31
0.0
  0
LINE
  5
68
330
1F
100
AcDbEntity
  8
SLD-0
  6
Continuous
370
    15
100
AcDbLine
 10
64.7139184245
 20
3.2539081685
 30
0.0
 11
34.8014189629
 21
3.2539081685
 31
0.0
  0
LINE
  5
69
330
1F
100
AcDbEntity
  8
SLD-0
  6
Continuous
370
    15
100
AcDbLine
 10
34.8014189629
 20
3.310101386
 30
0.0
 11
34.8014189629
 21
3.2539081685
 31
0.0
  0
LINE
  5
6A
330
1F
100
AcDbEntity
  8
SLD-0
  6
Continuous
370
    15
100
AcDbLine
 10
64.7139184245
 20
3.310101386
 30
0.0
 11
64.7139184245
 21
3.2539081685
 31
0.0
  0
LINE
  5
6B
330
1F
100
AcDbEntity
  8
SLD-0
  6
Continuous
370
    15
100
AcDbLine
 10
64.7139184245
 20
3.2053080899
 30
0.0
 11
34.8014189629
 21
3.2053080899
 31
0.0
  0
LINE
  5
6C
330
1F
100
AcDbEntity
  8
SLD-0
  6
Continuous
370
    15
100
AcDbLine
 10
34.8014189629
 20
3.2539081685
 30
0.0
 11
34.8014189629
 21
3.2053080899
 31
0.0
  0
LINE
  5
6D
330
1F
100
AcDbEntity
  8
SLD-0
  6
Continuous
370
    15
100
AcDbLine
 10
64.7139184245
 20
3.2053080899
 30
0.0
 11
64.7139184245
 21
3.2539081685
 31
0.0
  0
LINE
  5
6E
330
1F
100
AcDbEntity
  8
SLD-0
  6
Continuous
370
    15
100
AcDbLine
 10
64.7576691724
 20
3.2389084484
 30
0.0
 11
64.7576691724
 21
3.2053080899
 31
0.0
  0
LINE
  5
6F
330
1F
100
AcDbEntity
  8
SLD-0
  6
Continuous
370
    15
100
AcDbLine
 10
64.7576691724
 20
3.2389084484
 30
0.0
 11
64.7139184245
 21
3.2389084484
 31
0.0
  0
LINE
  5
70
330
1F
100
AcDbEntity
  8
SLD-0
  6
Continuous
370
    15
100
AcDbLine
 10
64.7576691724
 20
3.2053080899
 30
0.0
 11
64.7139184245
 21
3.2053080899
 31
0.0
  0
LINE
  5
71
330
1F
100
AcDbEntity
  8
SLD-0
  6
Continuous
370
    15
100
AcDbLine
 10
34.757668215
 20
3.2053080899
 30
0.0
 11
34.757668215
 21
3.2389084484
 31
0.0
  0
LINE
  5
72
330
1F
100
AcDbEntity
  8
SLD-0
  6
Continuous
370
    15
100
AcDbLine
 10
34.8014189629
 20
3.2389084484
 30
0.0
 11
34.757668215
 21
3.2389084484
 31
0.0
  0
LINE
  5
73
330
1F
100
AcDbEntity
  8
SLD-0
  6
Continuous
370
    15
100
AcDbLine
 10
34.8014189629
 20
3.2053080899
 30
0.0
 11
34.757668215
 21
3.2053080899
 31
0.0
  0
SPLINE
  5
74
330
1F
100
AcDbEntity
  8
SLD-0
  6
Continuous
370
    15
100
AcDbSpline
210
0.0
220
0.0
230
1.0
 70
     8
 71
     3
 72
    11
 73
     7
 74
     0
 42
0.00000001
 43
0.00000001
 12
1.0
 22
0.0
 32
0.0
 13
1.0
 23
0.0
 33
0.0
 40
0.0
 40
0.0
 40
0.0
 40
0.0
 40
0.2499937709264524
 40
0.4999957183945745
 40
0.7500007471198228
 40
1.0
 40
1.0
 40
1.0
 40
1.0
 10
34.7576682150125
 20
3.205308089909667
 30
0.0
 10
34.75242564069891
 20
3.206038655482077
 30
0.0
 10
34.74194032060294
 20
3.207499810521495
 30
0.0
 10
34.72903154447332
 20
3.218738629685202
 30
0.0
 10
34.72059650209368
 20
3.234802894960245
 30
0.0
 10
34.72056566311413
 20
3.247539793015504
 30
0.0
 10
34.72055024380247
 20
3.253908168477412
 30
0.0
  0
SPLINE
  5
75
330
1F
100
AcDbEntity
  8
SLD-0
  6
Continuous
370
    15
100
AcDbSpline
210
0.0
220
0.0
230
1.0
 70
     8
 71
     3
 72
    11
 73
     7
 74
     0
 42
0.00000001
 43
0.00000001
 12
1.0
 22
0.0
 32
0.0
 13
1.0
 23
0.0
 33
0.0
 40
0.0
 40
0.0
 40
0.0
 40
0.0
 40
0.2499920571340867
 40
0.4999825819264917
 40
0.7500035535861305
 40
1.0
 40
1.0
 40
1.0
 40
1.0
 10
34.7576682150125
 20
3.238908448422125
 30
0.0
 10
34.75650797993814
 20
3.239133887115095
 30
0.0
 10
34.75418751690115
 20
3.23958476311919
 30
0.0
 10
34.75157645623176
 20
3.24305314166645
 30
0.0
 10
34.7503440140787
 20
3.248011844378149
 30
0.0
 10
34.75125083990287
 20
3.251942791380375
 30
0.0
 10
34.75170423057562
 20
3.25390816847741
 30
0.0
  0
SPLINE
  5
76
330
1F
100
AcDbEntity
  8
SLD-0
  6
Continuous
370
    15
100
AcDbSpline
210
0.0
220
0.0
230
1.0
 70
     8
 71
     3
 72
    11
 73
     7
 74
     0
 42
0.00000001
 43
0.00000001
 12
1.0
 22
0.0
 32
0.0
 13
1.0
 23
0.0
 33
0.0
 40
0.0
 40
0.0
 40
0.0
 40
0.0
 40
0.2499992528801771
 40
0.5000042816054255
 40
0.7500062290735476
 40
1.0
 40
1.0
 40
1.0
 40
1.0
 10
64.79478714365148
 20
3.25390816847741
 30
0.0
 10
64.79477172433981
 20
3.2475397930155
 30
0.0
 10
64.79474088536026
 20
3.234802894960245
 30
0.0
 10
64.78630584298062
 20
3.218738629685202
 30
0.0
 10
64.77339706685099
 20
3.207499810521495
 30
0.0
 10
64.76291174675502
 20
3.206038655482077
 30
0.0
 10
64.75766917244144
 20
3.205308089909667
 30
0.0
  0
SPLINE
  5
77
330
1F
100
AcDbEntity
  8
SLD-0
  6
Continuous
370
    15
100
AcDbSpline
210
0.0
220
0.0
230
1.0
 70
     8
 71
     3
 72
    11
 73
     7
 74
     0
 42
0.00000001
 43
0.00000001
 12
1.0
 22
0.0
 32
0.0
 13
1.0
 23
0.0
 33
0.0
 40
0.0
 40
0.0
 40
0.0
 40
0.0
 40
0.2499964464138695
 40
0.5000174180735083
 40
0.7500079428659133
 40
1.0
 40
1.0
 40
1.0
 40
1.0
 10
64.76363315687831
 20
3.253908168477412
 30
0.0
 10
64.76408654755106
 20
3.251942791380377
 30
0.0
 10
64.76499337337525
 20
3.248011844378146
 30
0.0
 10
64.7637609312222
 20
3.243053141666446
 30
0.0
 10
64.76114987055279
 20
3.239584763119192
 30
0.0
 10
64.75882940751579
 20
3.239133887115092
 30
0.0
 10
64.75766917244144
 20
3.238908448422125
 30
0.0
  0
LINE
  5
78
330
1F
100
AcDbEntity
  8
SLD-0
  6
Continuous
370
    15
100
AcDbLine
 10
65.507669255
 20
3.2539081685
 30
0.0
 11
64.7726688925
 21
3.2539081685
 31
0.0
  0
LINE
  5
79
330
1F
100
AcDbEntity
  8
SLD-0
  6
Continuous
370
    15
100
AcDbLine
 10
64.7726688925
 20
24.2539081347
 30
0.0
 11
65.882668123
 21
24.2539081347
 31
0.0
  0
LINE
  5
7A
330
1F
100
AcDbEntity
  8
SLD-0
  6
Continuous
370
    15
100
AcDbLine
 10
65.1326692137
 20
9.2479081786
 30
0.0
 11
65.1326692137
 21
7.7539080774
 31
0.0
  0
LINE
  5
7B
330
1F
100
AcDbEntity
  8
SLD-0
  6
Continuous
370
    15
100
AcDbLine
 10
65.1326692137
 20
7.7539080774
 30
0.0
 11
65.882668123
 21
7.7539080774
 31
0.0
  0
LINE
  5
7C
330
1F
100
AcDbEntity
  8
SLD-0
  6
Continuous
370
    15
100
AcDbLine
 10
65.882668123
 20
3.6289082098
 30
0.0
 11
65.507669255
 21
3.2539081685
 31
0.0
  0
LINE
  5
7D
330
1F
100
AcDbEntity
  8
SLD-0
  6
Continuous
370
    15
100
AcDbLine
 10
65.882668123
 20
7.7539080774
 30
0.0
 11
65.882668123
 21
3.6289082098
 31
0.0
  0
LINE
  5
7E
330
1F
100
AcDbEntity
  8
SLD-0
  6
Continuous
370
    15
100
AcDbLine
 10
65.882668123
 20
24.2539081347
 30
0.0
 11
65.882668123
 21
9.2539082426
 31
0.0
  0
LINE
  5
7F
330
1F
100
AcDbEntity
  8
SLD-0
  6
Continuous
370
    15
100
AcDbLine
 10
64.7180684566
 20
24.2539081347
 30
0.0
 11
64.7726688925
 21
24.2539081347
 31
0.0
  0
LINE
  5
80
330
1F
100
AcDbEntity
  8
SLD-0
  6
Continuous
370
    15
100
AcDbLine
 10
64.7726688925
 20
3.2539081685
 30
0.0
 11
64.7180684566
 21
3.2539081685
 31
0.0
  0
LINE
  5
81
330
1F
100
AcDbEntity
  8
SLD-0
  6
Continuous
370
    15
100
AcDbLine
 10
64.7180684566
 20
24.2539081347
 30
0.0
 11
64.7180684566
 21
21.9340542938
 31
0.0
  0
LINE
  5
82
330
1F
100
AcDbEntity
  8
SLD-0
  6
Continuous
370
    15
100
AcDbLine
 10
64.7180684566
 20
6.2370543469
 30
0.0
 11
64.7180684566
 21
3.2539081685
 31
0.0
  0
LINE
  5
83
330
1F
100
AcDbEntity
  8
SLD-0
  6
Continuous
370
    15
100
AcDbLine
 10
34.7972689309
 20
24.2539081347
 30
0.0
 11
34.7972689309
 21
21.9340542938
 31
0.0
  0
LINE
  5
84
330
1F
100
AcDbEntity
  8
SLD-0
  6
Continuous
370
    15
100
AcDbLine
 10
34.7972689309
 20
6.2370543469
 30
0.0
 11
34.7972689309
 21
3.2539081685
 31
0.0
  0
LINE
  5
85
330
1F
100
AcDbEntity
  8
SLD-0
  6
Continuous
370
    15
100
AcDbLine
 10
34.7972689309
 20
3.2539081685
 30
0.0
 11
34.742668495
 21
3.2539081685
 31
0.0
  0
LINE
  5
86
330
1F
100
AcDbEntity
  8
SLD-0
  6
Continuous
370
    15
100
AcDbLine
 10
34.742668495
 20
24.2539081347
 30
0.0
 11
34.7972689309
 21
24.2539081347
 31
0.0
  0
LINE
  5
87
330
1F
100
AcDbEntity
  8
SLD-0
  6
Continuous
370
    15
100
AcDbLine
 10
34.3826681737
 20
9.2479081786
 30
0.0
 11
34.3826681737
 21
7.7539080774
 31
0.0
  0
LINE
  5
88
330
1F
100
AcDbEntity
  8
SLD-0
  6
Continuous
370
    15
100
AcDbLine
 10
34.742668495
 20
24.2539081347
 30
0.0
 11
33.6326692644
 21
24.2539081347
 31
0.0
  0
LINE
  5
89
330
1F
100
AcDbEntity
  8
SLD-0
  6
Continuous
370
    15
100
AcDbLine
 10
33.6326692644
 20
3.6289082098
 30
0.0
 11
34.0076681324
 21
3.2539081685
 31
0.0
  0
LINE
  5
8A
330
1F
100
AcDbEntity
  8
SLD-0
  6
Continuous
370
    15
100
AcDbLine
 10
33.6326692644
 20
24.2539081347
 30
0.0
 11
33.6326692644
 21
9.2539082426
 31
0.0
  0
LINE
  5
8B
330
1F
100
AcDbEntity
  8
SLD-0
  6
Continuous
370
    15
100
AcDbLine
 10
34.3826681737
 20
7.7539080774
 30
0.0
 11
33.6326692644
 21
7.7539080774
 31
0.0
  0
LINE
  5
8C
330
1F
100
AcDbEntity
  8
SLD-0
  6
Continuous
370
    15
100
AcDbLine
 10
33.6326692644
 20
7.7539080774
 30
0.0
 11
33.6326692644
 21
3.6289082098
 31
0.0
  0
LINE
  5
8D
330
1F
100
AcDbEntity
  8
SLD-0
  6
Continuous
370
    15
100
AcDbLine
 10
34.0076681324
 20
3.2539081685
 30
0.0
 11
34.742668495
 21
3.2539081685
 31
0.0
  0
LINE
  5
8E
330
1F
100
AcDbEntity
  8
SLD-0
  6
Continuous
370
    15
100
AcDbLine
 10
64.7169760959
 20
24.2539081347
 30
0.0
 11
64.7180684566
 21
24.2539081347
 31
0.0
  0
LINE
  5
8F
330
1F
100
AcDbEntity
  8
SLD-0
  6
Continuous
370
    15
100
AcDbLine
 10
64.7180684566
 20
3.2539081685
 30
0.0
 11
64.7169760959
 21
3.2539081685
 31
0.0
  0
LINE
  5
90
330
1F
100
AcDbEntity
  8
SLD-0
  6
Continuous
370
    15
100
AcDbLine
 10
34.7972689309
 20
24.2539081347
 30
0.0
 11
34.7983612916
 21
24.2539081347
 31
0.0
  0
LINE
  5
91
330
1F
100
AcDbEntity
  8
SLD-0
  6
Continuous
370
    15
100
AcDbLine
 10
34.7983612916
 20
3.2539081685
 30
0.0
 11
34.7972689309
 21
3.2539081685
 31
0.0
  0
LINE
  5
92
330
1F
100
AcDbEntity
  8
SLD-0
  6
Continuous
370
    15
100
AcDbLine
 10
64.7169760959
 20
3.2539081685
 30
0.0
 11
64.7139184245
 21
3.2539081685
 31
0.0
  0
LINE
  5
93
330
1F
100
AcDbEntity
  8
SLD-0
  6
Continuous
370
    15
100
AcDbLine
 10
34.7983612916
 20
3.2539081685
 30
0.0
 11
34.8014189629
 21
3.2539081685
 31
0.0
  0
LINE
  5
94
330
1F
100
AcDbEntity
  8
SLD-0
  6
Continuous
370
    15
100
AcDbLine
 10
36.0212714311
 20
6.230558262
 30
0.0
 11
36.0212714311
 21
6.2370543469
 31
0.0
  0
LINE
  5
95
330
1F
100
AcDbEntity
  8
SLD-0
  6
Continuous
370
    15
100
AcDbLine
 10
36.0212714311
 20
6.230558262
 30
0.0
 11
36.2702581014
 21
6.230558262
 31
0.0
  0
LINE
  5
96
330
1F
100
AcDbEntity
  8
SLD-0
  6
Continuous
370
    15
100
AcDbLine
 10
35.2027201404
 20
6.230558262
 30
0.0
 11
36.0212714311
 21
6.230558262
 31
0.0
  0
LINE
  5
97
330
1F
100
AcDbEntity
  8
SLD-0
  6
Continuous
370
    15
100
AcDbLine
 10
64.3126172471
 20
6.230558262
 30
0.0
 11
63.4940659564
 21
6.230558262
 31
0.0
  0
LINE
  5
98
330
1F
100
AcDbEntity
  8
SLD-0
  6
Continuous
370
    15
100
AcDbLine
 10
63.4940659564
 20
6.230558262
 30
0.0
 11
63.4940659564
 21
6.2370543469
 31
0.0
  0
LINE
  5
99
330
1F
100
AcDbEntity
  8
SLD-0
  6
Continuous
370
    15
100
AcDbLine
 10
63.4940659564
 20
6.230558262
 30
0.0
 11
63.245079286
 21
6.230558262
 31
0.0
  0
ARC
  5
9A
330
1F
100
AcDbEntity
  8
SLD-0
  6
Continuous
370
    15
100
AcDbCircle
 10
35.2028350892
 20
6.2783792344
 30
0.0
 40
0.0478211106050684
100
AcDbArc
 50
239.7864418222
 51
269.8622766208
  0
ARC
  5
9B
330
1F
100
AcDbEntity
  8
SLD-0
  6
Continuous
370
    15
100
AcDbCircle
 10
64.3125022983
 20
6.2783792344
 30
0.0
 40
0.0478211106050896
100
AcDbArc
 50
270.1377233791
 51
300.2135581777
  0
LINE
  5
9C
330
1F
100
AcDbEntity
  8
SLD-0
  6
Continuous
370
    15
100
AcDbLine
 10
34.5826687433
 20
6.3120541205
 30
0.0
 11
64.9326686442
 21
6.3120541205
 31
0.0
  0
LINE
  5
9D
330
1F
100
AcDbEntity
  8
SLD-0
  6
Continuous
370
    15
100
AcDbLine
 10
34.5826687433
 20
21.8590545202
 30
0.0
 11
34.5826687433
 21
6.3120541205
 31
0.0
  0
LINE
  5
9E
330
1F
100
AcDbEntity
  8
SLD-0
  6
Continuous
370
    15
100
AcDbLine
 10
64.9326686442
 20
21.8590545202
 30
0.0
 11
34.5826687433
 21
21.8590545202
 31
0.0
  0
LINE
  5
9F
330
1F
100
AcDbEntity
  8
SLD-0
  6
Continuous
370
    15
100
AcDbLine
 10
64.9326686442
 20
6.3120541205
 30
0.0
 11
64.9326686442
 21
21.8590545202
 31
0.0
  0
LINE
  5
A0
330
1F
100
AcDbEntity
  8
SLD-0
  6
Continuous
370
    15
100
AcDbLine
 10
35.8201691142
 20
7.3620544708
 30
0.0
 11
63.6951682732
 21
7.3620544708
 31
0.0
  0
ARC
  5
A1
330
1F
100
AcDbEntity
  8
SLD-0
  6
Continuous
370
    15
100
AcDbCircle
 10
63.6951686937
 20
7.5495543368
 30
0.0
 40
0.1875000000000071
100
AcDbArc
 50
270.0
 51
0.0
  0
ARC
  5
A2
330
1F
100
AcDbEntity
  8
SLD-0
  6
Continuous
370
    15
100
AcDbCircle
 10
63.6951686937
 20
20.6215543368
 30
0.0
 40
0.1875
100
AcDbArc
 50
0.0
 51
90.0
  0
LINE
  5
A3
330
1F
100
AcDbEntity
  8
SLD-0
  6
Continuous
370
    15
100
AcDbLine
 10
63.6951682732
 20
20.8090541699
 30
0.0
 11
35.8201691142
 21
20.8090541699
 31
0.0
  0
ARC
  5
A4
330
1F
100
AcDbEntity
  8
SLD-0
  6
Continuous
370
    15
100
AcDbCircle
 10
35.8201686937
 20
20.6215543368
 30
0.0
 40
0.1875
100
AcDbArc
 50
90.0
 51
180.0
  0
LINE
  5
A5
330
1F
100
AcDbEntity
  8
SLD-0
  6
Continuous
370
    15
100
AcDbLine
 10
63.8826682939
 20
7.5495544915
 30
0.0
 11
63.8826682939
 21
20.6215541493
 31
0.0
  0
LINE
  5
A6
330
1F
100
AcDbEntity
  8
SLD-0
  6
Continuous
370
    15
100
AcDbLine
 10
35.6326690936
 20
20.6215541493
 30
0.0
 11
35.6326690936
 21
7.5495544915
 31
0.0
  0
ARC
  5
A7
330
1F
100
AcDbEntity
  8
SLD-0
  6
Continuous
370
    15
100
AcDbCircle
 10
35.8201686937
 20
7.5495543368
 30
0.0
 40
0.1875
100
AcDbArc
 50
180.0
 51
270.0
  0
LINE
  5
A8
330
1F
100
AcDbEntity
  8
SLD-0
  6
Continuous
370
    15
100
AcDbLine
 10
64.9326686442
 20
6.3120541205
 30
0.0
 11
64.9326686442
 21
6.2370543469
 31
0.0
  0
LINE
  5
A9
330
1F
100
AcDbEntity
  8
SLD-0
  6
Continuous
370
    15
100
AcDbLine
 10
34.5826687433
 20
6.2370543469
 30
0.0
 11
64.9326686442
 21
6.2370543469
 31
0.0
  0
LINE
  5
AA
330
1F
100
AcDbEntity
  8
SLD-0
  6
Continuous
370
    15
100
AcDbLine
 10
34.5826687433
 20
6.2370543469
 30
0.0
 11
34.5826687433
 21
6.3120541205
 31
0.0
  0
LINE
  5
AB
330
1F
100
AcDbEntity
  8
SLD-0
  6
Continuous
370
    15
100
AcDbLine
 10
34.5076689697
 20
6.3120541205
 30
0.0
 11
34.5076689697
 21
21.8590545202
 31
0.0
  0
LINE
  5
AC
330
1F
100
AcDbEntity
  8
SLD-0
  6
Continuous
370
    15
100
AcDbLine
 10
34.5826687433
 20
6.3120541205
 30
0.0
 11
34.5076689697
 21
6.3120541205
 31
0.0
  0
LINE
  5
AD
330
1F
100
AcDbEntity
  8
SLD-0
  6
Continuous
370
    15
100
AcDbLine
 10
34.5076689697
 20
21.8590545202
 30
0.0
 11
34.5826687433
 21
21.8590545202
 31
0.0
  0
LINE
  5
AE
330
1F
100
AcDbEntity
  8
SLD-0
  6
Continuous
370
    15
100
AcDbLine
 10
64.9326686442
 20
21.9340542938
 30
0.0
 11
34.5826687433
 21
21.9340542938
 31
0.0
  0
LINE
  5
AF
330
1F
100
AcDbEntity
  8
SLD-0
  6
Continuous
370
    15
100
AcDbLine
 10
34.5826687433
 20
21.8590545202
 30
0.0
 11
34.5826687433
 21
21.9340542938
 31
0.0
  0
LINE
  5
B0
330
1F
100
AcDbEntity
  8
SLD-0
  6
Continuous
370
    15
100
AcDbLine
 10
64.9326686442
 20
21.9340542938
 30
0.0
 11
64.9326686442
 21
21.8590545202
 31
0.0
  0
LINE
  5
B1
330
1F
100
AcDbEntity
  8
SLD-0
  6
Continuous
370
    15
100
AcDbLine
 10
65.0076684178
 20
21.8590545202
 30
0.0
 11
65.0076684178
 21
6.3120541205
 31
0.0
  0
LINE
  5
B2
330
1F
100
AcDbEntity
  8
SLD-0
  6
Continuous
370
    15
100
AcDbLine
 10
65.0076684178
 20
6.3120541205
 30
0.0
 11
64.9326686442
 21
6.3120541205
 31
0.0
  0
LINE
  5
B3
330
1F
100
AcDbEntity
  8
SLD-0
  6
Continuous
370
    15
100
AcDbLine
 10
64.9326686442
 20
21.8590545202
 30
0.0
 11
65.0076684178
 21
21.8590545202
 31
0.0
  0
LINE
  5
B4
330
1F
100
AcDbEntity
  8
SLD-0
  6
Continuous
370
    15
100
AcDbLine
 10
63.1981230285
 20
6.1903579797
 30
0.0
 11
62.7016691369
 21
5.7404174174
 31
0.0
  0
LINE
  5
B5
330
1F
100
AcDbEntity
  8
SLD-0
  6
Continuous
370
    15
100
AcDbLine
 10
62.7016691369
 20
5.7404174174
 30
0.0
 11
62.7016691369
 21
5.7657740312
 31
0.0
  0
LINE
  5
B6
330
1F
100
AcDbEntity
  8
SLD-0
  6
Continuous
370
    15
100
AcDbLine
 10
63.1981230285
 20
6.2157151801
 30
0.0
 11
62.7016691369
 21
5.7657740312
 31
0.0
  0
LINE
  5
B7
330
1F
100
AcDbEntity
  8
SLD-0
  6
Continuous
370
    15
100
AcDbLine
 10
63.1981230285
 20
6.2157151801
 30
0.0
 11
63.1981230285
 21
6.1903579797
 31
0.0
  0
LINE
  5
B8
330
1F
100
AcDbEntity
  8
SLD-0
  6
Continuous
370
    15
100
AcDbLine
 10
36.317214359
 20
6.2157151801
 30
0.0
 11
63.1981230285
 21
6.2157151801
 31
0.0
  0
LINE
  5
B9
330
1F
100
AcDbEntity
  8
SLD-0
  6
Continuous
370
    15
100
AcDbLine
 10
62.7016691369
 20
5.7657740312
 30
0.0
 11
36.8136682506
 21
5.7657740312
 31
0.0
  0
LINE
  5
BA
330
1F
100
AcDbEntity
  8
SLD-0
  6
Continuous
370
    15
100
AcDbLine
 10
36.8136682506
 20
5.7657740312
 30
0.0
 11
36.317214359
 21
6.2157151801
 31
0.0
  0
LINE
  5
BB
330
1F
100
AcDbEntity
  8
SLD-0
  6
Continuous
370
    15
100
AcDbLine
 10
36.8136682506
 20
5.7404174174
 30
0.0
 11
36.8136682506
 21
5.7657740312
 31
0.0
  0
LINE
  5
BC
330
1F
100
AcDbEntity
  8
SLD-0
  6
Continuous
370
    15
100
AcDbLine
 10
36.8136682506
 20
5.7404174174
 30
0.0
 11
36.317214359
 21
6.1903579797
 31
0.0
  0
LINE
  5
BD
330
1F
100
AcDbEntity
  8
SLD-0
  6
Continuous
370
    15
100
AcDbLine
 10
36.317214359
 20
6.1903579797
 30
0.0
 11
36.317214359
 21
6.2157151801
 31
0.0
  0
LINE
  5
BE
330
1F
100
AcDbEntity
  8
SLD-0
  6
Continuous
370
    15
100
AcDbLine
 10
63.1981230285
 20
21.9553934607
 30
0.0
 11
36.317214359
 21
21.9553934607
 31
0.0
  0
LINE
  5
BF
330
1F
100
AcDbEntity
  8
SLD-0
  6
Continuous
370
    15
100
AcDbLine
 10
36.317214359
 20
21.9553934607
 30
0.0
 11
36.8136682506
 21
22.4053346096
 31
0.0
  0
LINE
  5
C0
330
1F
100
AcDbEntity
  8
SLD-0
  6
Continuous
370
    15
100
AcDbLine
 10
62.7016691369
 20
22.4053346096
 30
0.0
 11
36.8136682506
 21
22.4053346096
 31
0.0
  0
LINE
  5
C1
330
1F
100
AcDbEntity
  8
SLD-0
  6
Continuous
370
    15
100
AcDbLine
 10
62.7016691369
 20
22.4053346096
 30
0.0
 11
63.1981230285
 21
21.9553934607
 31
0.0
  0
LINE
  5
C2
330
1F
100
AcDbEntity
  8
SLD-0
  6
Continuous
370
    15
100
AcDbLine
 10
62.7016691369
 20
22.4306912233
 30
0.0
 11
62.7016691369
 21
22.4053346096
 31
0.0
  0
LINE
  5
C3
330
1F
100
AcDbEntity
  8
SLD-0
  6
Continuous
370
    15
100
AcDbLine
 10
62.7016691369
 20
22.4306912233
 30
0.0
 11
63.1981230285
 21
21.9807506611
 31
0.0
  0
LINE
  5
C4
330
1F
100
AcDbEntity
  8
SLD-0
  6
Continuous
370
    15
100
AcDbLine
 10
63.1981230285
 20
21.9807506611
 30
0.0
 11
63.1981230285
 21
21.9553934607
 31
0.0
  0
LINE
  5
C5
330
1F
100
AcDbEntity
  8
SLD-0
  6
Continuous
370
    15
100
AcDbLine
 10
36.317214359
 20
21.9807506611
 30
0.0
 11
36.8136682506
 21
22.4306912233
 31
0.0
  0
LINE
  5
C6
330
1F
100
AcDbEntity
  8
SLD-0
  6
Continuous
370
    15
100
AcDbLine
 10
36.8136682506
 20
22.4306912233
 30
0.0
 11
36.8136682506
 21
22.4053346096
 31
0.0
  0
LINE
  5
C7
330
1F
100
AcDbEntity
  8
SLD-0
  6
Continuous
370
    15
100
AcDbLine
 10
36.317214359
 20
21.9553934607
 30
0.0
 11
36.317214359
 21
21.9807506611
 31
0.0
  0
LINE
  5
C8
330
1F
100
AcDbEntity
  8
SLD-0
  6
Continuous
370
    15
100
AcDbLine
 10
62.7016691369
 20
5.7404174174
 30
0.0
 11
36.8136682506
 21
5.7404174174
 31
0.0
  0
LINE
  5
C9
330
1F
100
AcDbEntity
  8
SLD-0
  6
Continuous
370
    15
100
AcDbLine
 10
62.7016691369
 20
22.4306912233
 30
0.0
 11
36.8136682506
 21
22.4306912233
 31
0.0
  0
SPLINE
  5
CA
330
1F
100
AcDbEntity
  8
SLD-0
  6
Continuous
370
    15
100
AcDbSpline
210
0.0
220
0.0
230
1.0
 70
     8
 71
     3
 72
    10
 73
     6
 74
     0
 42
0.00000001
 43
0.00000001
 12
1.0
 22
0.0
 32
0.0
 13
1.0
 23
0.0
 33
0.0
 40
0.0
 40
0.0
 40
0.0
 40
0.0
 40
0.4694342061755872
 40
0.8887760967769814
 40
0.9999999999999999
 40
0.9999999999999999
 40
0.9999999999999999
 40
0.9999999999999999
 10
36.31721435900236
 20
6.190357979691949
 30
0.0
 10
36.31427850575439
 20
6.195061503584184
 30
0.0
 10
36.30872007785094
 20
6.203966648439503
 30
0.0
 10
36.30244489860949
 20
6.214709308452532
 30
0.0
 10
36.29908852799124
 20
6.220386881200564
 30
0.0
 10
36.29838492318827
 20
6.221577085712839
 30
0.0
  0
SPLINE
  5
CB
330
1F
100
AcDbEntity
  8
SLD-0
  6
Continuous
370
    15
100
AcDbSpline
210
0.0
220
0.0
230
1.0
 70
     8
 71
     3
 72
    15
 73
    11
 74
     0
 42
0.00000001
 43
0.00000001
 12
1.0
 22
0.0
 32
0.0
 13
1.0
 23
0.0
 33
0.0
 40
0.0
 40
0.0
 40
0.0
 40
0.0
 40
0.1856007262363118
 40
0.3308138369950223
 40
0.4356173395094551
 40
0.5000047920604137
 40
0.564393661929488
 40
0.6691972971307981
 40
0.8143985480866783
 40
1.0
 40
1.0
 40
1.0
 40
1.0
 10
36.31721435900236
 20
6.21571518009674
 30
0.0
 10
36.31164306652075
 20
6.217542996473286
 30
0.0
 10
36.30171282174081
 20
6.220800887544672
 30
0.0
 10
36.28861181993187
 20
6.225282579846612
 30
0.0
 10
36.27914849436506
 20
6.228261537376451
 30
0.0
 10
36.27205319427065
 20
6.230130992213605
 30
0.0
 10
36.26495820491527
 20
6.231874150351273
 30
0.0
 10
36.25549504087836
 20
6.234108186328535
 30
0.0
 10
36.24239458414353
 20
6.236460367122536
 30
0.0
 10
36.23246468409726
 20
6.236840863909857
 30
0.0
 10
36.2268933757314
 20
6.237054346918197
 30
0.0
  0
SPLINE
  5
CC
330
1F
100
AcDbEntity
  8
SLD-0
  6
Continuous
370
    15
100
AcDbSpline
210
0.0
220
0.0
230
1.0
 70
     8
 71
     3
 72
    10
 73
     6
 74
     0
 42
0.00000001
 43
0.00000001
 12
1.0
 22
0.0
 32
0.0
 13
1.0
 23
0.0
 33
0.0
 40
0.0
 40
0.0
 40
0.0
 40
0.0
 40
0.1112239032230185
 40
0.5305657938244127
 40
0.9999999999999999
 40
0.9999999999999999
 40
0.9999999999999999
 40
0.9999999999999999
 10
63.21695246426567
 20
6.221577085712839
 30
0.0
 10
63.2162488594627
 20
6.220386881200563
 30
0.0
 10
63.21289248884444
 20
6.214709308452535
 30
0.0
 10
63.206617309603
 20
6.2039666484395
 30
0.0
 10
63.20105888169955
 20
6.195061503584182
 30
0.0
 10
63.19812302845158
 20
6.190357979691949
 30
0.0
  0
SPLINE
  5
CD
330
1F
100
AcDbEntity
  8
SLD-0
  6
Continuous
370
    15
100
AcDbSpline
210
0.0
220
0.0
230
1.0
 70
     8
 71
     3
 72
    15
 73
    11
 74
     0
 42
0.00000001
 43
0.00000001
 12
1.0
 22
0.0
 32
0.0
 13
1.0
 23
0.0
 33
0.0
 40
0.0
 40
0.0
 40
0.0
 40
0.0
 40
0.1856014519133218
 40
0.3308027028692019
 40
0.4356063380705119
 40
0.4999952079395863
 40
0.5643826604905449
 40
0.6691861630049778
 40
0.8143992737636881
 40
1.0
 40
1.0
 40
1.0
 40
1.0
 10
63.28844401172254
 20
6.237054346918197
 30
0.0
 10
63.28287270335667
 20
6.236840863909857
 30
0.0
 10
63.27294280331041
 20
6.236460367122532
 30
0.0
 10
63.25984234657558
 20
6.234108186328536
 30
0.0
 10
63.25037918253867
 20
6.231874150351273
 30
0.0
 10
63.24328419318329
 20
6.230130992213603
 30
0.0
 10
63.23618889308888
 20
6.228261537376454
 30
0.0
 10
63.22672556752207
 20
6.225282579846614
 30
0.0
 10
63.21362456571313
 20
6.220800887544669
 30
0.0
 10
63.20369432093318
 20
6.217542996473287
 30
0.0
 10
63.19812302845158
 20
6.21571518009674
 30
0.0
  0
SPLINE
  5
CE
330
1F
100
AcDbEntity
  8
SLD-0
  6
Continuous
370
    15
100
AcDbSpline
210
0.0
220
0.0
230
1.0
 70
     8
 71
     3
 72
     9
 73
     5
 74
     0
 42
0.00000001
 43
0.00000001
 12
1.0
 22
0.0
 32
0.0
 13
1.0
 23
0.0
 33
0.0
 40
0.0
 40
0.0
 40
0.0
 40
0.0
 40
0.5761032985336648
 40
1.0
 40
1.0
 40
1.0
 40
1.0
 10
63.19812302845158
 20
21.98075066106158
 30
0.0
 10
63.20188673931315
 20
21.97487789050712
 30
0.0
 10
63.20841978793683
 20
21.96468393645512
 30
0.0
 10
63.21495200391466
 20
21.95373797172556
 30
0.0
 10
63.21772098872093
 20
21.94909801338234
 30
0.0
  0
SPLINE
  5
CF
330
1F
100
AcDbEntity
  8
SLD-0
  6
Continuous
370
    15
100
AcDbSpline
210
0.0
220
0.0
230
1.0
 70
     8
 71
     3
 72
     9
 73
     5
 74
     0
 42
0.00000001
 43
0.00000001
 12
1.0
 22
0.0
 32
0.0
 13
1.0
 23
0.0
 33
0.0
 40
0.0
 40
0.0
 40
0.0
 40
0.0
 40
0.4238967014663352
 40
1.0
 40
1.0
 40
1.0
 40
1.0
 10
36.29761639873301
 20
21.94909801338233
 30
0.0
 10
36.30038538353927
 20
21.95373797172556
 30
0.0
 10
36.30691759951711
 20
21.96468393645513
 30
0.0
 10
36.31345064814078
 20
21.97487789050713
 30
0.0
 10
36.31721435900236
 20
21.98075066106158
 30
0.0
  0
SPLINE
  5
D0
330
1F
100
AcDbEntity
  8
SLD-0
  6
Continuous
370
    15
100
AcDbSpline
210
0.0
220
0.0
230
1.0
 70
     8
 71
     3
 72
    11
 73
     7
 74
     0
 42
0.00000001
 43
0.00000001
 12
1.0
 22
0.0
 32
0.0
 13
1.0
 23
0.0
 33
0.0
 40
0.0
 40
0.0
 40
0.0
 40
0.0
 40
0.2500030719595739
 40
0.5000047749496992
 40
0.7499963617843923
 40
1.0
 40
1.0
 40
1.0
 40
1.0
 10
63.19812302845158
 20
21.95539346065679
 30
0.0
 10
63.20564985710752
 20
21.95295970745855
 30
0.0
 10
63.2207034732039
 20
21.94809221438883
 30
0.0
 10
63.24328389124708
 20
21.94067658716279
 30
0.0
 10
63.26586379192953
 20
21.93517237391164
 30
0.0
 10
63.28091715084787
 20
21.93442699318274
 30
0.0
 10
63.28844401172254
 20
21.93405429383533
 30
0.0
  0
SPLINE
  5
D1
330
1F
100
AcDbEntity
  8
SLD-0
  6
Continuous
370
    15
100
AcDbSpline
210
0.0
220
0.0
230
1.0
 70
     8
 71
     3
 72
    11
 73
     7
 74
     0
 42
0.00000001
 43
0.00000001
 12
1.0
 22
0.0
 32
0.0
 13
1.0
 23
0.0
 33
0.0
 40
0.0
 40
0.0
 40
0.0
 40
0.0
 40
0.2500036382156077
 40
0.4999952250503008
 40
0.7499969280404261
 40
1.0
 40
1.0
 40
1.0
 40
1.0
 10
36.2268933757314
 20
21.93405429383533
 30
0.0
 10
36.23442023660607
 20
21.93442699318274
 30
0.0
 10
36.24947359552441
 20
21.93517237391164
 30
0.0
 10
36.27205349620684
 20
21.9406765871628
 30
0.0
 10
36.29463391425004
 20
21.94809221438882
 30
0.0
 10
36.30968753034642
 20
21.95295970745854
 30
0.0
 10
36.31721435900236
 20
21.95539346065679
 30
0.0
  0
LINE
  5
D2
330
1F
100
AcDbEntity
  8
SLD-0
  6
Continuous
370
    15
100
AcDbLine
 10
33.6563785372
 20
21.819454391
 30
0.0
 11
33.6563785372
 21
20.9744541259
 31
0.0
  0
LINE
  5
D3
330
1F
100
AcDbEntity
  8
SLD-0
  6
Continuous
370
    15
100
AcDbLine
 10
65.8589588502
 20
20.9744541259
 30
0.0
 11
65.8589588502
 21
21.819454391
 31
0.0
  0
LINE
  5
D4
330
1F
100
AcDbEntity
  8
SLD-0
  6
Continuous
370
    15
100
AcDbLine
 10
65.85897645
 20
21.8344541111
 30
0.0
 11
65.85897645
 21
9.2479081786
 31
0.0
  0
LINE
  5
D5
330
1F
100
AcDbEntity
  8
SLD-0
  6
Continuous
370
    15
100
AcDbLine
 10
65.1089763674
 20
9.2479081786
 30
0.0
 11
65.85897645
 21
9.2479081786
 31
0.0
  0
LINE
  5
D6
330
1F
100
AcDbEntity
  8
SLD-0
  6
Continuous
370
    15
100
AcDbLine
 10
65.1089763674
 20
7.7479083067
 30
0.0
 11
65.1089763674
 21
9.2479081786
 31
0.0
  0
LINE
  5
D7
330
1F
100
AcDbEntity
  8
SLD-0
  6
Continuous
370
    15
100
AcDbLine
 10
65.85897645
 20
7.7479083067
 30
0.0
 11
65.1089763674
 21
7.7479083067
 31
0.0
  0
LINE
  5
D8
330
1F
100
AcDbEntity
  8
SLD-0
  6
Continuous
370
    15
100
AcDbLine
 10
65.85897645
 20
7.7479083067
 30
0.0
 11
65.85897645
 21
7.1958818838
 31
0.0
  0
LINE
  5
D9
330
1F
100
AcDbEntity
  8
SLD-0
  6
Continuous
370
    15
100
AcDbLine
 10
65.85897645
 20
6.5535069046
 30
0.0
 11
65.85897645
 21
6.5303045059
 31
0.0
  0
LINE
  5
DA
330
1F
100
AcDbEntity
  8
SLD-0
  6
Continuous
370
    15
100
AcDbLine
 10
33.6563609374
 20
7.7479083067
 30
0.0
 11
33.6563609374
 21
6.5303045059
 31
0.0
  0
LINE
  5
DB
330
1F
100
AcDbEntity
  8
SLD-0
  6
Continuous
370
    15
100
AcDbLine
 10
34.40636102
 20
7.7479083067
 30
0.0
 11
33.6563609374
 21
7.7479083067
 31
0.0
  0
LINE
  5
DC
330
1F
100
AcDbEntity
  8
SLD-0
  6
Continuous
370
    15
100
AcDbLine
 10
34.40636102
 20
9.2479081786
 30
0.0
 11
34.40636102
 21
7.7479083067
 31
0.0
  0
LINE
  5
DD
330
1F
100
AcDbEntity
  8
SLD-0
  6
Continuous
370
    15
100
AcDbLine
 10
33.6563609374
 20
9.2479081786
 30
0.0
 11
34.40636102
 21
9.2479081786
 31
0.0
  0
LINE
  5
DE
330
1F
100
AcDbEntity
  8
SLD-0
  6
Continuous
370
    15
100
AcDbLine
 10
33.6563609374
 20
21.8344541111
 30
0.0
 11
33.6563609374
 21
9.2479081786
 31
0.0
  0
LINE
  5
DF
330
1F
100
AcDbEntity
  8
SLD-0
  6
Continuous
370
    15
100
AcDbLine
 10
33.6563738439
 20
7.1958818838
 30
0.0
 11
33.6563738439
 21
6.5535069046
 31
0.0
  0
LINE
  5
E0
330
1F
100
AcDbEntity
  8
SLD-0
  6
Continuous
370
    15
100
AcDbLine
 10
65.859963212
 20
6.5535069046
 30
0.0
 11
65.859963212
 21
7.1958818838
 31
0.0
  0
LINE
  5
E1
330
1F
100
AcDbEntity
  8
SLD-0
  6
Continuous
370
    15
100
AcDbLine
 10
64.7169760959
 20
24.2539081347
 30
0.0
 11
64.7169760959
 21
21.9340542938
 31
0.0
  0
LINE
  5
E2
330
1F
100
AcDbEntity
  8
SLD-0
  6
Continuous
370
    15
100
AcDbLine
 10
64.7169760959
 20
6.2370543469
 30
0.0
 11
64.7169760959
 21
3.2539081685
 31
0.0
  0
LINE
  5
E3
330
1F
100
AcDbEntity
  8
SLD-0
  6
Continuous
370
    15
100
AcDbLine
 10
34.7983612916
 20
24.2539081347
 30
0.0
 11
34.7983612916
 21
21.9340542938
 31
0.0
  0
LINE
  5
E4
330
1F
100
AcDbEntity
  8
SLD-0
  6
Continuous
370
    15
100
AcDbLine
 10
34.7983612916
 20
6.2370543469
 30
0.0
 11
34.7983612916
 21
3.2539081685
 31
0.0
  0
LINE
  5
E5
330
1F
100
AcDbEntity
  8
SLD-0
  6
Continuous
370
    15
100
AcDbLine
 10
35.2027201404
 20
6.230558262
 30
0.0
 11
35.2027201404
 21
6.2370543469
 31
0.0
  0
LINE
  5
E6
330
1F
100
AcDbEntity
  8
SLD-0
  6
Continuous
370
    15
100
AcDbLine
 10
64.3126172471
 20
6.230558262
 30
0.0
 11
64.3126172471
 21
6.2370543469
 31
0.0
  0
DIMENSION
  5
E7
330
1F
100
AcDbEntity
  8
DIM
100
AcDbDimension
  2
_D
 10
69.8083017133
 20
6.2370543368
 30
0.0
 11
69.8083017133
 21
14.0855543368
 31
0.0
 70
   160
  1
<>
 71
     2
 42
-1.0
  3
SLDDIMSTYLE0
100
AcDbAlignedDimension
 13
64.9326686937
 23
21.9340543368
 33
0.0
 14
64.9326686937
 24
6.2370543368
 34
0.0
 50
90.0
100
AcDbRotatedDimension
  0
DIMENSION
  5
F7
330
1F
100
AcDbEntity
  8
DIM
100
AcDbDimension
  2
_D_1
 10
65.0076686937
 20
14.5268699314
 30
0.0
 11
49.7576686937
 21
14.5268699314
 31
0.0
 70
   160
  1
<>
 71
     2
 42
-1.0
  3
SLDDIMSTYLE0
100
AcDbAlignedDimension
 13
34.5076686937
 23
21.8590543368
 33
0.0
 14
65.0076686937
 24
21.8590543368
 34
0.0
100
AcDbRotatedDimension
  0
DIMENSION
  5
104
330
1F
100
AcDbEntity
  8
DIM
100
AcDbDimension
  2
_D_2
 10
69.8083017133
 20
21.9340543368
 30
0.0
 11
69.8083017133
 21
23.9318055752
 31
0.0
 70
   160
  1
<>
 71
     2
 42
-1.0
  3
SLDDIMSTYLE1
100
AcDbAlignedDimension
 13
65.5076686937
 23
25.9295568136
 33
0.0
 14
64.9326686937
 24
21.9340543368
 34
0.0
 50
90.0
100
AcDbRotatedDimension
  0
DIMENSION
  5
110
330
1F
100
AcDbEntity
  8
DIM
100
AcDbDimension
  2
_D_3
 10
69.8083017133
 20
6.2370543368
 30
0.0
 11
69.8083017133
 21
4.6069079568
 31
0.0
 70
   160
  1
<>
 71
     2
 42
-1.0
  3
SLDDIMSTYLE1
100
AcDbAlignedDimension
 13
64.7139186937
 23
3.2053081368
 33
0.0
 14
64.9326686937
 24
6.2370543368
 34
0.0
 50
90.0
100
AcDbRotatedDimension
  0
DIMENSION
  5
11F
330
1F
100
AcDbEntity
  8
DIM
100
AcDbDimension
  2
_D_4
 10
30.6326677095
 20
3.2053081368
 30
0.0
 11
30.6326677095
 21
14.6501949902
 31
0.0
 70
   160
  1
<>
 71
     2
 42
-1.0
  3
SLDDIMSTYLE0
100
AcDbAlignedDimension
 13
45.3969251736
 23
26.0950818437
 33
0.0
 14
34.8014186937
 24
3.2053081368
 34
0.0
 50
90.0
100
AcDbRotatedDimension
  0
CIRCLE
  5
12E
330
1F
100
AcDbEntity
  8
SLD-0
  6
Continuous
370
    15
100
AcDbCircle
 10
52.7619988277
 20
50.0194565665
 30
0.0
 40
1.500428725075388
  0
CIRCLE
  5
12F
330
1F
100
AcDbEntity
  8
SLD-0
  6
Continuous
370
    15
100
AcDbCircle
 10
52.7619988277
 20
50.0194565665
 30
0.0
 40
1.365073654039456
  0
CIRCLE
  5
130
330
1F
100
AcDbEntity
  8
SLD-0
  6
Continuous
370
    15
100
AcDbCircle
 10
52.7619988277
 20
50.0194565665
 30
0.0
 40
2.124999999999993
  0
CIRCLE
  5
131
330
1F
100
AcDbEntity
  8
SLD-0
  6
Continuous
370
    15
100
AcDbCircle
 10
46.7619988277
 20
52.2324565665
 30
0.0
 40
1.365073654039463
  0
CIRCLE
  5
132
330
1F
100
AcDbEntity
  8
SLD-0
  6
Continuous
370
    15
100
AcDbCircle
 10
46.7619988277
 20
52.2324565665
 30
0.0
 40
1.500428725075388
  0
CIRCLE
  5
133
330
1F
100
AcDbEntity
  8
SLD-0
  6
Continuous
370
    15
100
AcDbCircle
 10
46.7619988277
 20
52.2324565665
 30
0.0
 40
2.125
  0
LINE
  5
134
330
1F
100
AcDbEntity
  8
SLD-0
  6
Continuous
370
    15
100
AcDbLine
 10
45.7576687421
 20
40.9208263676
 30
0.0
 11
45.7576687421
 21
40.8708263719
 31
0.0
  0
LINE
  5
135
330
1F
100
AcDbEntity
  8
SLD-0
  6
Continuous
370
    15
100
AcDbLine
 10
45.7576687421
 20
40.8708263719
 30
0.0
 11
45.0389185651
 21
40.8708263719
 31
0.0
  0
LINE
  5
136
330
1F
100
AcDbEntity
  8
SLD-0
  6
Continuous
370
    15
100
AcDbLine
 10
45.0389185651
 20
40.9208263676
 30
0.0
 11
45.0389185651
 21
40.8708263719
 31
0.0
  0
LINE
  5
137
330
1F
100
AcDbEntity
  8
SLD-0
  6
Continuous
370
    15
100
AcDbLine
 10
45.7576687421
 20
40.9208263676
 30
0.0
 11
45.0389185651
 21
40.9208263676
 31
0.0
  0
LINE
  5
138
330
1F
100
AcDbEntity
  8
SLD-0
  6
Continuous
370
    15
100
AcDbLine
 10
54.4764188223
 20
40.9208263676
 30
0.0
 11
53.7576686454
 21
40.9208263676
 31
0.0
  0
LINE
  5
139
330
1F
100
AcDbEntity
  8
SLD-0
  6
Continuous
370
    15
100
AcDbLine
 10
54.4764188223
 20
40.8708263719
 30
0.0
 11
54.4764188223
 21
40.9208263676
 31
0.0
  0
LINE
  5
13A
330
1F
100
AcDbEntity
  8
SLD-0
  6
Continuous
370
    15
100
AcDbLine
 10
54.4764188223
 20
40.8708263719
 30
0.0
 11
53.7576686454
 21
40.8708263719
 31
0.0
  0
LINE
  5
13B
330
1F
100
AcDbEntity
  8
SLD-0
  6
Continuous
370
    15
100
AcDbLine
 10
53.7576686454
 20
40.8708263719
 30
0.0
 11
53.7576686454
 21
40.9208263676
 31
0.0
  0
LINE
  5
13C
330
1F
100
AcDbEntity
  8
SLD-0
  6
Continuous
370
    15
100
AcDbLine
 10
53.7576686454
 20
40.9208263676
 30
0.0
 11
45.7576687421
 21
40.9208263676
 31
0.0
  0
LINE
  5
13D
330
1F
100
AcDbEntity
  8
SLD-0
  6
Continuous
370
    15
100
AcDbLine
 10
53.7576686454
 20
40.8708263719
 30
0.0
 11
45.7576687421
 21
40.8708263719
 31
0.0
  0
SPLINE
  5
13E
330
1F
100
AcDbEntity
  8
SLD-0
  6
Continuous
370
    15
100
AcDbSpline
210
0.0
220
0.0
230
1.0
 70
     8
 71
     3
 72
    11
 73
     7
 74
     0
 42
0.00000001
 43
0.00000001
 12
1.0
 22
0.0
 32
0.0
 13
1.0
 23
0.0
 33
0.0
 40
0.0
 40
0.0
 40
0.0
 40
0.0
 40
0.2499990573721516
 40
0.5000018621206772
 40
0.7499977599216184
 40
1.0
 40
1.0
 40
1.0
 40
1.0
 10
44.96365391459478
 20
40.95207641994346
 30
0.0
 10
44.9699260353974
 20
40.94798155143683
 30
0.0
 10
44.98247037101897
 20
40.93979175304328
 30
0.0
 10
45.00128598952011
 20
40.92946217609177
 30
0.0
 10
45.02010303021158
 20
40.92223572701006
 30
0.0
 10
45.03264666712092
 20
40.92129615805164
 30
0.0
 10
45.03891856513113
 20
40.92082636761339
 30
0.0
  0
LINE
  5
13F
330
1F
100
AcDbEntity
  8
SLD-0
  6
Continuous
370
    15
100
AcDbLine
 10
54.5516834729
 20
40.9520764199
 30
0.0
 11
44.9636539146
 21
40.9520764199
 31
0.0
  0
SPLINE
  5
140
330
1F
100
AcDbEntity
  8
SLD-0
  6
Continuous
370
    15
100
AcDbSpline
210
0.0
220
0.0
230
1.0
 70
     8
 71
     3
 72
    11
 73
     7
 74
     0
 42
0.00000001
 43
0.00000001
 12
1.0
 22
0.0
 32
0.0
 13
1.0
 23
0.0
 33
0.0
 40
0.0
 40
0.0
 40
0.0
 40
0.0
 40
0.2500022400783816
 40
0.4999981378793227
 40
0.7500009426278484
 40
1.0
 40
1.0
 40
1.0
 40
1.0
 10
54.47641882232282
 20
40.92082636761339
 30
0.0
 10
54.482690720333
 20
40.92129615805164
 30
0.0
 10
54.49523435724235
 20
40.92223572701006
 30
0.0
 10
54.51405139793383
 20
40.92946217609177
 30
0.0
 10
54.53286701643497
 20
40.93979175304328
 30
0.0
 10
54.54541135205654
 20
40.94798155143683
 30
0.0
 10
54.55168347285915
 20
40.95207641994346
 30
0.0
  0
SPLINE
  5
141
330
1F
100
AcDbEntity
  8
SLD-0
  6
Continuous
370
    15
100
AcDbSpline
210
0.0
220
0.0
230
1.0
 70
     8
 71
     3
 72
    15
 73
    11
 74
     0
 42
0.00000001
 43
0.00000001
 12
1.0
 22
0.0
 32
0.0
 13
1.0
 23
0.0
 33
0.0
 40
0.0
 40
0.0
 40
0.0
 40
0.0
 40
0.1250021095245681
 40
0.2499986780525885
 40
0.3749989096020675
 40
0.5000004569608305
 40
0.6250009152241891
 40
0.750000086794003
 40
0.8749998481351965
 40
1.0
 40
1.0
 40
1.0
 40
1.0
 10
54.47641882232282
 20
40.87082637188428
 30
0.0
 10
54.47955477917209
 20
40.87112875739393
 30
0.0
 10
54.48582655386239
 20
40.8717335150093
 30
0.0
 10
54.4952348428863
 20
40.8765650415815
 30
0.0
 10
54.504643201654
 20
40.88407409814273
 30
0.0
 10
54.51405082380047
 20
40.89425642908403
 30
0.0
 10
54.52345931816465
 20
40.90664445114584
 30
0.0
 10
54.53286725848908
 20
40.92078332246116
 30
0.0
 10
54.54227515032406
 20
40.93612306353039
 30
0.0
 10
54.54854736208153
 20
40.94675862893452
 30
0.0
 10
54.55168347285915
 20
40.95207641994346
 30
0.0
  0
SPLINE
  5
142
330
1F
100
AcDbEntity
  8
SLD-0
  6
Continuous
370
    15
100
AcDbSpline
210
0.0
220
0.0
230
1.0
 70
     8
 71
     3
 72
    15
 73
    11
 74
     0
 42
0.00000001
 43
0.00000001
 12
1.0
 22
0.0
 32
0.0
 13
1.0
 23
0.0
 33
0.0
 40
0.0
 40
0.0
 40
0.0
 40
0.0
 40
0.1250001518648035
 40
0.249999913205997
 40
0.374999084775811
 40
0.4999995430391695
 40
0.6250010903979326
 40
0.7500013219474116
 40
0.874997890475432
 40
1.0
 40
1.0
 40
1.0
 40
1.0
 10
44.96365391459479
 20
40.95207641994346
 30
0.0
 10
44.96679002537241
 20
40.94675862893452
 30
0.0
 10
44.97306223712987
 20
40.93612306353039
 30
0.0
 10
44.98247012896486
 20
40.92078332246116
 30
0.0
 10
44.99187806928929
 20
40.90664445114584
 30
0.0
 10
45.00128656365347
 20
40.89425642908403
 30
0.0
 10
45.01069418579993
 20
40.88407409814273
 30
0.0
 10
45.02010254456764
 20
40.8765650415815
 30
0.0
 10
45.02951083359155
 20
40.8717335150093
 30
0.0
 10
45.03578260828184
 20
40.87112875739393
 30
0.0
 10
45.03891856513113
 20
40.87082637188428
 30
0.0
  0
LINE
  5
143
330
1F
100
AcDbEntity
  8
SLD-0
  6
Continuous
370
    15
100
AcDbLine
 10
55.7264185689
 20
42.1268118093
 30
0.0
 11
55.7264185689
 21
43.7423264801
 31
0.0
  0
LINE
  5
144
330
1F
100
AcDbEntity
  8
SLD-0
  6
Continuous
370
    15
100
AcDbLine
 10
55.7264185689
 20
42.1268118093
 30
0.0
 11
54.5516834729
 21
40.9520764199
 31
0.0
  0
LINE
  5
145
330
1F
100
AcDbEntity
  8
SLD-0
  6
Continuous
370
    15
100
AcDbLine
 10
44.9636539146
 20
40.9520764199
 30
0.0
 11
43.7889188186
 21
42.1268118093
 31
0.0
  0
LINE
  5
146
330
1F
100
AcDbEntity
  8
SLD-0
  6
Continuous
370
    15
100
AcDbLine
 10
43.7889188186
 20
42.1268118093
 30
0.0
 11
43.7889188186
 21
43.7423264801
 31
0.0
  0
LINE
  5
147
330
1F
100
AcDbEntity
  8
SLD-0
  6
Continuous
370
    15
100
AcDbLine
 10
55.7264185689
 20
55.8204263128
 30
0.0
 11
43.7889188186
 21
55.8204263128
 31
0.0
  0
LINE
  5
148
330
1F
100
AcDbEntity
  8
SLD-0
  6
Continuous
370
    15
100
AcDbLine
 10
55.7264185689
 20
55.7416273298
 30
0.0
 11
55.7264185689
 21
55.8204263128
 31
0.0
  0
LINE
  5
149
330
1F
100
AcDbEntity
  8
SLD-0
  6
Continuous
370
    15
100
AcDbLine
 10
43.7889188186
 20
55.8204263128
 30
0.0
 11
43.7889188186
 21
55.7416273298
 31
0.0
  0
LINE
  5
14A
330
1F
100
AcDbEntity
  8
SLD-0
  6
Continuous
370
    15
100
AcDbLine
 10
56.3930689477
 20
43.7423264801
 30
0.0
 11
56.3722689213
 21
43.7423264801
 31
0.0
  0
LINE
  5
14B
330
1F
100
AcDbEntity
  8
SLD-0
  6
Continuous
370
    15
100
AcDbLine
 10
56.3722689213
 20
55.7423266284
 30
0.0
 11
56.3930689477
 21
55.7423266284
 31
0.0
  0
LINE
  5
14C
330
1F
100
AcDbEntity
  8
SLD-0
  6
Continuous
370
    15
100
AcDbLine
 10
56.3930689477
 20
55.7423266284
 30
0.0
 11
56.3930689477
 21
43.7423264801
 31
0.0
  0
LINE
  5
14D
330
1F
100
AcDbEntity
  8
SLD-0
  6
Continuous
370
    15
100
AcDbLine
 10
43.7276134468
 20
55.7423266284
 30
0.0
 11
43.7276134468
 21
43.7423264801
 31
0.0
  0
LINE
  5
14E
330
1F
100
AcDbEntity
  8
SLD-0
  6
Continuous
370
    15
100
AcDbLine
 10
44.1900686378
 20
55.7423266284
 30
0.0
 11
43.7276134468
 21
55.7423266284
 31
0.0
  0
LINE
  5
14F
330
1F
100
AcDbEntity
  8
SLD-0
  6
Continuous
370
    15
100
AcDbLine
 10
44.1900686378
 20
55.7423266284
 30
0.0
 11
44.1900686378
 21
43.7423264801
 31
0.0
  0
LINE
  5
150
330
1F
100
AcDbEntity
  8
SLD-0
  6
Continuous
370
    15
100
AcDbLine
 10
44.1900686378
 20
43.7423264801
 30
0.0
 11
43.7276134468
 21
43.7423264801
 31
0.0
  0
LINE
  5
151
330
1F
100
AcDbEntity
  8
SLD-0
  6
Continuous
370
    15
100
AcDbLine
 10
43.7276134468
 20
43.7423264801
 30
0.0
 11
43.6945651352
 21
43.7423264801
 31
0.0
  0
LINE
  5
152
330
1F
100
AcDbEntity
  8
SLD-0
  6
Continuous
370
    15
100
AcDbLine
 10
43.7276134468
 20
55.7423266284
 30
0.0
 11
43.6945651352
 21
55.7423266284
 31
0.0
  0
LINE
  5
153
330
1F
100
AcDbEntity
  8
SLD-0
  6
Continuous
370
    15
100
AcDbLine
 10
43.6945651352
 20
55.7423266284
 30
0.0
 11
43.5318761346
 21
55.7423266284
 31
0.0
  0
LINE
  5
154
330
1F
100
AcDbEntity
  8
SLD-0
  6
Continuous
370
    15
100
AcDbLine
 10
43.6945651352
 20
43.7423264801
 30
0.0
 11
43.5318761346
 21
43.7423264801
 31
0.0
  0
LINE
  5
155
330
1F
100
AcDbEntity
  8
SLD-0
  6
Continuous
370
    15
100
AcDbLine
 10
43.5173651022
 20
55.7423266284
 30
0.0
 11
43.5173651022
 21
43.7423264801
 31
0.0
  0
LINE
  5
156
330
1F
100
AcDbEntity
  8
SLD-0
  6
Continuous
370
    15
100
AcDbLine
 10
43.5318761346
 20
55.7423266284
 30
0.0
 11
43.5173651022
 21
55.7423266284
 31
0.0
  0
LINE
  5
157
330
1F
100
AcDbEntity
  8
SLD-0
  6
Continuous
370
    15
100
AcDbLine
 10
43.5318761346
 20
43.7423264801
 30
0.0
 11
43.5173651022
 21
43.7423264801
 31
0.0
  0
LINE
  5
158
330
1F
100
AcDbEntity
  8
SLD-0
  6
Continuous
370
    15
100
AcDbLine
 10
43.1430684662
 20
55.7423266284
 30
0.0
 11
43.1430684662
 21
43.7423264801
 31
0.0
  0
LINE
  5
159
330
1F
100
AcDbEntity
  8
SLD-0
  6
Continuous
370
    15
100
AcDbLine
 10
43.5173651022
 20
55.7423266284
 30
0.0
 11
43.1430684662
 21
55.7423266284
 31
0.0
  0
LINE
  5
15A
330
1F
100
AcDbEntity
  8
SLD-0
  6
Continuous
370
    15
100
AcDbLine
 10
43.5173651022
 20
43.7423264801
 30
0.0
 11
43.1430684662
 21
43.7423264801
 31
0.0
  0
LINE
  5
15B
330
1F
100
AcDbEntity
  8
SLD-0
  6
Continuous
370
    15
100
AcDbLine
 10
55.7877239407
 20
43.7423264801
 30
0.0
 11
55.7877239407
 21
55.7423266284
 31
0.0
  0
LINE
  5
15C
330
1F
100
AcDbEntity
  8
SLD-0
  6
Continuous
370
    15
100
AcDbLine
 10
55.3252687497
 20
43.7423264801
 30
0.0
 11
55.7877239407
 21
43.7423264801
 31
0.0
  0
LINE
  5
15D
330
1F
100
AcDbEntity
  8
SLD-0
  6
Continuous
370
    15
100
AcDbLine
 10
55.3252687497
 20
43.7423264801
 30
0.0
 11
55.3252687497
 21
55.7423266284
 31
0.0
  0
LINE
  5
15E
330
1F
100
AcDbEntity
  8
SLD-0
  6
Continuous
370
    15
100
AcDbLine
 10
55.3252687497
 20
55.7423266284
 30
0.0
 11
55.7877239407
 21
55.7423266284
 31
0.0
  0
LINE
  5
15F
330
1F
100
AcDbEntity
  8
SLD-0
  6
Continuous
370
    15
100
AcDbLine
 10
55.7877239407
 20
43.7423264801
 30
0.0
 11
55.8207722522
 21
43.7423264801
 31
0.0
  0
LINE
  5
160
330
1F
100
AcDbEntity
  8
SLD-0
  6
Continuous
370
    15
100
AcDbLine
 10
55.7877239407
 20
55.7423266284
 30
0.0
 11
55.8207722522
 21
55.7423266284
 31
0.0
  0
LINE
  5
161
330
1F
100
AcDbEntity
  8
SLD-0
  6
Continuous
370
    15
100
AcDbLine
 10
55.8207722522
 20
43.7423264801
 30
0.0
 11
55.9834612528
 21
43.7423264801
 31
0.0
  0
LINE
  5
162
330
1F
100
AcDbEntity
  8
SLD-0
  6
Continuous
370
    15
100
AcDbLine
 10
55.8207722522
 20
55.7423266284
 30
0.0
 11
55.9834612528
 21
55.7423266284
 31
0.0
  0
LINE
  5
163
330
1F
100
AcDbEntity
  8
SLD-0
  6
Continuous
370
    15
100
AcDbLine
 10
55.9979722852
 20
43.7423264801
 30
0.0
 11
55.9979722852
 21
55.7423266284
 31
0.0
  0
LINE
  5
164
330
1F
100
AcDbEntity
  8
SLD-0
  6
Continuous
370
    15
100
AcDbLine
 10
55.9834612528
 20
43.7423264801
 30
0.0
 11
55.9979722852
 21
43.7423264801
 31
0.0
  0
LINE
  5
165
330
1F
100
AcDbEntity
  8
SLD-0
  6
Continuous
370
    15
100
AcDbLine
 10
55.9834612528
 20
55.7423266284
 30
0.0
 11
55.9979722852
 21
55.7423266284
 31
0.0
  0
LINE
  5
166
330
1F
100
AcDbEntity
  8
SLD-0
  6
Continuous
370
    15
100
AcDbLine
 10
56.3722689213
 20
43.7423264801
 30
0.0
 11
56.3722689213
 21
55.7423266284
 31
0.0
  0
LINE
  5
167
330
1F
100
AcDbEntity
  8
SLD-0
  6
Continuous
370
    15
100
AcDbLine
 10
55.9979722852
 20
43.7423264801
 30
0.0
 11
56.3722689213
 21
43.7423264801
 31
0.0
  0
LINE
  5
168
330
1F
100
AcDbEntity
  8
SLD-0
  6
Continuous
370
    15
100
AcDbLine
 10
55.9979722852
 20
55.7423266284
 30
0.0
 11
56.3722689213
 21
55.7423266284
 31
0.0
  0
LINE
  5
169
330
1F
100
AcDbEntity
  8
SLD-0
  6
Continuous
370
    15
100
AcDbLine
 10
65.507669255
 20
40.7695804615
 30
0.0
 11
65.507669255
 21
40.80318038
 31
0.0
  0
LINE
  5
16A
330
1F
100
AcDbEntity
  8
SLD-0
  6
Continuous
370
    15
100
AcDbLine
 10
34.0076681324
 20
40.7695804615
 30
0.0
 11
65.507669255
 21
40.7695804615
 31
0.0
  0
LINE
  5
16B
330
1F
100
AcDbEntity
  8
SLD-0
  6
Continuous
370
    15
100
AcDbLine
 10
34.0076681324
 20
40.80318038
 30
0.0
 11
34.0076681324
 21
40.7695804615
 31
0.0
  0
LINE
  5
16C
330
1F
100
AcDbEntity
  8
SLD-0
  6
Continuous
370
    15
100
AcDbLine
 10
34.0076681324
 20
40.80318038
 30
0.0
 11
65.507669255
 21
40.80318038
 31
0.0
  0
LINE
  5
16D
330
1F
100
AcDbEntity
  8
SLD-0
  6
Continuous
370
    15
100
AcDbLine
 10
65.882668123
 20
40.80318038
 30
0.0
 11
65.882668123
 21
40.7695804615
 31
0.0
  0
LINE
  5
16E
330
1F
100
AcDbEntity
  8
SLD-0
  6
Continuous
370
    15
100
AcDbLine
 10
65.882668123
 20
40.7695804615
 30
0.0
 11
65.507669255
 21
40.7695804615
 31
0.0
  0
LINE
  5
16F
330
1F
100
AcDbEntity
  8
SLD-0
  6
Continuous
370
    15
100
AcDbLine
 10
65.507669255
 20
40.80318038
 30
0.0
 11
65.882668123
 21
40.80318038
 31
0.0
  0
LINE
  5
170
330
1F
100
AcDbEntity
  8
SLD-0
  6
Continuous
370
    15
100
AcDbLine
 10
33.6326692644
 20
40.7695804615
 30
0.0
 11
33.6326692644
 21
40.80318038
 31
0.0
  0
LINE
  5
171
330
1F
100
AcDbEntity
  8
SLD-0
  6
Continuous
370
    15
100
AcDbLine
 10
34.0076681324
 20
40.7695804615
 30
0.0
 11
33.6326692644
 21
40.7695804615
 31
0.0
  0
LINE
  5
172
330
1F
100
AcDbEntity
  8
SLD-0
  6
Continuous
370
    15
100
AcDbLine
 10
33.6326692644
 20
40.80318038
 30
0.0
 11
34.0076681324
 21
40.80318038
 31
0.0
  0
LINE
  5
173
330
1F
100
AcDbEntity
  8
SLD-0
  6
Continuous
370
    15
100
AcDbLine
 10
65.882668123
 20
40.80318038
 30
0.0
 11
65.882668123
 21
40.8181803934
 31
0.0
  0
LINE
  5
174
330
1F
100
AcDbEntity
  8
SLD-0
  6
Continuous
370
    15
100
AcDbLine
 10
65.882668123
 20
40.8181803934
 30
0.0
 11
33.6326692644
 21
40.8181803934
 31
0.0
  0
LINE
  5
175
330
1F
100
AcDbEntity
  8
SLD-0
  6
Continuous
370
    15
100
AcDbLine
 10
33.6326692644
 20
40.8181803934
 30
0.0
 11
33.6326692644
 21
40.80318038
 31
0.0
  0
SPLINE
  5
176
330
1F
100
AcDbEntity
  8
SLD-0
  6
Continuous
370
    15
100
AcDbSpline
210
0.0
220
0.0
230
1.0
 70
     8
 71
     3
 72
    11
 73
     7
 74
     0
 42
0.00000001
 43
0.00000001
 12
1.0
 22
0.0
 32
0.0
 13
1.0
 23
0.0
 33
0.0
 40
0.0
 40
0.0
 40
0.0
 40
0.0
 40
0.2499980279237378
 40
0.5000009609334737
 40
0.7500019720762623
 40
1.0
 40
1.0
 40
1.0
 40
1.0
 10
59.13437279990766
 20
55.72182638519818
 30
0.0
 10
59.13269109850102
 20
55.72819475462624
 30
0.0
 10
59.12932766269191
 20
55.74093161843295
 30
0.0
 10
59.12428148040789
 20
55.75699596704595
 30
0.0
 10
59.11923647213384
 20
55.76823481810744
 30
0.0
 10
59.11587289272055
 20
55.76969591811896
 30
0.0
 10
59.11419111304823
 20
55.77042646376592
 30
0.0
  0
SPLINE
  5
177
330
1F
100
AcDbEntity
  8
SLD-0
  6
Continuous
370
    15
100
AcDbSpline
210
0.0
220
0.0
230
1.0
 70
     8
 71
     3
 72
    11
 73
     7
 74
     0
 42
0.00000001
 43
0.00000001
 12
1.0
 22
0.0
 32
0.0
 13
1.0
 23
0.0
 33
0.0
 40
0.0
 40
0.0
 40
0.0
 40
0.0
 40
0.2499980279237378
 40
0.4999990390665263
 40
0.7500019720762622
 40
1.0
 40
1.0
 40
1.0
 40
1.0
 10
40.40114627440571
 20
55.77042646376592
 30
0.0
 10
40.39946449473339
 20
55.76969591811896
 30
0.0
 10
40.3961009153201
 20
55.76823481810746
 30
0.0
 10
40.39105590704605
 20
55.75699596704594
 30
0.0
 10
40.38600972476203
 20
55.74093161843294
 30
0.0
 10
40.38264628895292
 20
55.72819475462624
 30
0.0
 10
40.38096458754628
 20
55.72182638519818
 30
0.0
  0
LINE
  5
178
330
1F
100
AcDbEntity
  8
SLD-0
  6
Continuous
370
    15
100
AcDbLine
 10
59.114191113
 20
55.7704264638
 30
0.0
 11
55.7264185689
 21
55.7704264638
 31
0.0
  0
LINE
  5
179
330
1F
100
AcDbEntity
  8
SLD-0
  6
Continuous
370
    15
100
AcDbLine
 10
43.7889188186
 20
55.7704264638
 30
0.0
 11
40.4011462744
 21
55.7704264638
 31
0.0
  0
LINE
  5
17A
330
1F
100
AcDbEntity
  8
SLD-0
  6
Continuous
370
    15
100
AcDbLine
 10
33.6326692644
 20
41.0381804919
 30
0.0
 11
33.6326692644
 21
40.8181803934
 31
0.0
  0
LINE
  5
17B
330
1F
100
AcDbEntity
  8
SLD-0
  6
Continuous
370
    15
100
AcDbLine
 10
34.757668215
 20
41.0381804919
 30
0.0
 11
33.6326692644
 21
41.0381804919
 31
0.0
  0
LINE
  5
17C
330
1F
100
AcDbEntity
  8
SLD-0
  6
Continuous
370
    15
100
AcDbLine
 10
34.757668215
 20
41.8036804221
 30
0.0
 11
34.757668215
 21
41.0381804919
 31
0.0
  0
LINE
  5
17D
330
1F
100
AcDbEntity
  8
SLD-0
  6
Continuous
370
    15
100
AcDbLine
 10
40.2394569423
 20
55.3715833912
 30
0.0
 11
34.757668215
 21
41.8036804221
 31
0.0
  0
LINE
  5
17E
330
1F
100
AcDbEntity
  8
SLD-0
  6
Continuous
370
    15
100
AcDbLine
 10
40.3809645875
 20
55.7218263852
 30
0.0
 11
40.2394569423
 21
55.3715833912
 31
0.0
  0
LINE
  5
17F
330
1F
100
AcDbEntity
  8
SLD-0
  6
Continuous
370
    15
100
AcDbLine
 10
59.1343727999
 20
55.7218263852
 30
0.0
 11
59.2758804452
 21
55.3715833912
 31
0.0
  0
LINE
  5
180
330
1F
100
AcDbEntity
  8
SLD-0
  6
Continuous
370
    15
100
AcDbLine
 10
59.2758804452
 20
55.3715833912
 30
0.0
 11
64.7576691724
 21
41.8036804221
 31
0.0
  0
LINE
  5
181
330
1F
100
AcDbEntity
  8
SLD-0
  6
Continuous
370
    15
100
AcDbLine
 10
64.7576691724
 20
41.0381804919
 30
0.0
 11
64.7576691724
 21
41.8036804221
 31
0.0
  0
LINE
  5
182
330
1F
100
AcDbEntity
  8
SLD-0
  6
Continuous
370
    15
100
AcDbLine
 10
65.882668123
 20
41.0381804919
 30
0.0
 11
64.7576691724
 21
41.0381804919
 31
0.0
  0
LINE
  5
183
330
1F
100
AcDbEntity
  8
SLD-0
  6
Continuous
370
    15
100
AcDbLine
 10
65.882668123
 20
40.8181803934
 30
0.0
 11
65.882668123
 21
41.0381804919
 31
0.0
  0
SPLINE
  5
184
330
1F
100
AcDbEntity
  8
SLD-0
  6
Continuous
370
    15
100
AcDbSpline
210
0.0
220
0.0
230
1.0
 70
     8
 71
     3
 72
    11
 73
     7
 74
     0
 42
0.00000001
 43
0.00000001
 12
1.0
 22
0.0
 32
0.0
 13
1.0
 23
0.0
 33
0.0
 40
0.0
 40
0.0
 40
0.0
 40
0.0
 40
0.2499955776988418
 40
0.4999970843624382
 40
0.749999996121688
 40
1.0
 40
1.0
 40
1.0
 40
1.0
 10
64.75766917244144
 20
41.80368042214135
 30
0.0
 10
64.7629117377639
 20
41.80770435944083
 30
0.0
 10
64.77339699274295
 20
41.8157523294726
 30
0.0
 10
64.78630581019716
 20
41.82668494623691
 30
0.0
 10
64.7947409172208
 20
41.83580950738048
 30
0.0
 10
64.79477173490099
 20
41.83963351302042
 30
0.0
 10
64.79478714365148
 20
41.84154550472069
 30
0.0
  0
SPLINE
  5
185
330
1F
100
AcDbEntity
  8
SLD-0
  6
Continuous
370
    15
100
AcDbSpline
210
0.0
220
0.0
230
1.0
 70
     8
 71
     3
 72
    11
 73
     7
 74
     0
 42
0.00000001
 43
0.00000001
 12
1.0
 22
0.0
 32
0.0
 13
1.0
 23
0.0
 33
0.0
 40
0.0
 40
0.0
 40
0.0
 40
0.0
 40
0.2499966074248824
 40
0.5000019788011605
 40
0.7499967980321213
 40
1.0
 40
1.0
 40
1.0
 40
1.0
 10
59.33965330848971
 20
55.34347416928859
 30
0.0
 10
59.33741681375
 20
55.3470599538471
 30
0.0
 10
59.3329437458674
 20
55.35423164866838
 30
0.0
 10
59.31784504144767
 20
55.36160066296218
 30
0.0
 10
59.29827241470228
 20
55.36716067129911
 30
0.0
 10
59.28334451845835
 20
55.37010913477892
 30
0.0
 10
59.27588044519926
 20
55.37158339123513
 30
0.0
  0
LINE
  5
186
330
1F
100
AcDbEntity
  8
SLD-0
  6
Continuous
370
    15
100
AcDbLine
 10
59.3396533085
 20
55.3434741693
 30
0.0
 11
64.7947871437
 21
41.8415455047
 31
0.0
  0
SPLINE
  5
187
330
1F
100
AcDbEntity
  8
SLD-0
  6
Continuous
370
    15
100
AcDbSpline
210
0.0
220
0.0
230
1.0
 70
     8
 71
     3
 72
    11
 73
     7
 74
     0
 42
0.00000001
 43
0.00000001
 12
1.0
 22
0.0
 32
0.0
 13
1.0
 23
0.0
 33
0.0
 40
0.0
 40
0.0
 40
0.0
 40
0.0
 40
0.2500000038783119
 40
0.5000029156375618
 40
0.7500044223011583
 40
1.0
 40
1.0
 40
1.0
 40
1.0
 10
34.72055024380247
 20
41.84154550472069
 30
0.0
 10
34.72056565255294
 20
41.83963351302042
 30
0.0
 10
34.72059647023313
 20
41.83580950738048
 30
0.0
 10
34.72903157725678
 20
41.82668494623691
 30
0.0
 10
34.74194039471099
 20
41.8157523294726
 30
0.0
 10
34.75242564969004
 20
41.80770435944083
 30
0.0
 10
34.7576682150125
 20
41.80368042214135
 30
0.0
  0
LINE
  5
188
330
1F
100
AcDbEntity
  8
SLD-0
  6
Continuous
370
    15
100
AcDbLine
 10
40.175684079
 20
55.3434741693
 30
0.0
 11
34.7205502438
 21
41.8415455047
 31
0.0
  0
SPLINE
  5
189
330
1F
100
AcDbEntity
  8
SLD-0
  6
Continuous
370
    15
100
AcDbSpline
210
0.0
220
0.0
230
1.0
 70
     8
 71
     3
 72
    11
 73
     7
 74
     0
 42
0.00000001
 43
0.00000001
 12
1.0
 22
0.0
 32
0.0
 13
1.0
 23
0.0
 33
0.0
 40
0.0
 40
0.0
 40
0.0
 40
0.0
 40
0.2500032019678786
 40
0.4999980211988395
 40
0.7500033925751175
 40
1.0
 40
1.0
 40
1.0
 40
1.0
 10
40.23945694225468
 20
55.37158339123513
 30
0.0
 10
40.23199286899559
 20
55.37010913477892
 30
0.0
 10
40.21706497275167
 20
55.36716067129911
 30
0.0
 10
40.19749234600627
 20
55.36160066296218
 30
0.0
 10
40.18239364158654
 20
55.35423164866838
 30
0.0
 10
40.17792057370394
 20
55.3470599538471
 30
0.0
 10
40.17568407896424
 20
55.34347416928859
 30
0.0
  0
LINE
  5
18A
330
1F
100
AcDbEntity
  8
SLD-0
  6
Continuous
370
    15
100
AcDbLine
 10
58.8882930293
 20
55.775226515
 30
0.0
 11
58.692340413
 21
55.775226515
 31
0.0
  0
LINE
  5
18B
330
1F
100
AcDbEntity
  8
SLD-0
  6
Continuous
370
    15
100
AcDbLine
 10
58.8882930293
 20
55.7704264638
 30
0.0
 11
58.8882930293
 21
55.775226515
 31
0.0
  0
LINE
  5
18C
330
1F
100
AcDbEntity
  8
SLD-0
  6
Continuous
370
    15
100
AcDbLine
 10
58.692340413
 20
55.7704264638
 30
0.0
 11
58.692340413
 21
55.775226515
 31
0.0
  0
LINE
  5
18D
330
1F
100
AcDbEntity
  8
SLD-0
  6
Continuous
370
    15
100
AcDbLine
 10
64.791522968
 20
41.8331732814
 30
0.0
 11
64.7947871437
 21
41.8344917995
 31
0.0
  0
LINE
  5
18E
330
1F
100
AcDbEntity
  8
SLD-0
  6
Continuous
370
    15
100
AcDbLine
 10
40.8229969745
 20
55.7704264638
 30
0.0
 11
40.8229969745
 21
55.775226515
 31
0.0
  0
LINE
  5
18F
330
1F
100
AcDbEntity
  8
SLD-0
  6
Continuous
370
    15
100
AcDbLine
 10
40.6270443581
 20
55.7704264638
 30
0.0
 11
40.6270443581
 21
55.775226515
 31
0.0
  0
LINE
  5
190
330
1F
100
AcDbEntity
  8
SLD-0
  6
Continuous
370
    15
100
AcDbLine
 10
40.8229969745
 20
55.775226515
 30
0.0
 11
40.6270443581
 21
55.775226515
 31
0.0
  0
LINE
  5
191
330
1F
100
AcDbEntity
  8
SLD-0
  6
Continuous
370
    15
100
AcDbLine
 10
34.7205502438
 20
41.8344917995
 30
0.0
 11
34.7238144194
 21
41.8331732814
 31
0.0
  0
LINE
  5
192
330
1F
100
AcDbEntity
  8
SLD-0
  6
Continuous
370
    15
100
AcDbLine
 10
40.8229969745
 20
55.775226515
 30
0.0
 11
43.7889188186
 21
55.775226515
 31
0.0
  0
LINE
  5
193
330
1F
100
AcDbEntity
  8
SLD-0
  6
Continuous
370
    15
100
AcDbLine
 10
55.7264185689
 20
55.775226515
 30
0.0
 11
58.692340413
 21
55.775226515
 31
0.0
  0
SPLINE
  5
194
330
1F
100
AcDbEntity
  8
SLD-0
  6
Continuous
370
    15
100
AcDbSpline
210
0.0
220
0.0
230
1.0
 70
     8
 71
     3
 72
    11
 73
     7
 74
     0
 42
0.00000001
 43
0.00000001
 12
1.0
 22
0.0
 32
0.0
 13
1.0
 23
0.0
 33
0.0
 40
0.0
 40
0.0
 40
0.0
 40
0.0
 40
0.2499992528801771
 40
0.5000042816054255
 40
0.7500062290735476
 40
1.0
 40
1.0
 40
1.0
 40
1.0
 10
64.79478714365148
 20
41.83449179953903
 30
0.0
 10
64.79477172433981
 20
41.83257995250369
 30
0.0
 10
64.79474088536026
 20
41.82875621426274
 30
0.0
 10
64.78630584298062
 20
41.81963117428232
 30
0.0
 10
64.77339706685099
 20
41.80869863407901
 30
0.0
 10
64.76291174675502
 20
41.80065084101698
 30
0.0
 10
64.75766917244144
 20
41.79662701028964
 30
0.0
  0
SPLINE
  5
195
330
1F
100
AcDbEntity
  8
SLD-0
  6
Continuous
370
    15
100
AcDbSpline
210
0.0
220
0.0
230
1.0
 70
     8
 71
     3
 72
     9
 73
     5
 74
     0
 42
0.00000001
 43
0.00000001
 12
1.0
 22
0.0
 32
0.0
 13
1.0
 23
0.0
 33
0.0
 40
0.0
 40
0.0
 40
0.0
 40
0.0
 40
0.3515786926917362
 40
1.0
 40
1.0
 40
1.0
 40
1.0
 10
64.76237535807519
 20
41.8073452864712
 30
0.0
 10
64.76194422424399
 20
41.80613798524244
 30
0.0
 10
64.76071794449453
 20
41.80270404213426
 30
0.0
 10
64.75886843427553
 20
41.79901746527574
 30
0.0
 10
64.75766917244144
 20
41.79662701028964
 30
0.0
  0
SPLINE
  5
196
330
1F
100
AcDbEntity
  8
SLD-0
  6
Continuous
370
    15
100
AcDbSpline
210
0.0
220
0.0
230
1.0
 70
     8
 71
     3
 72
     9
 73
     5
 74
     0
 42
0.00000001
 43
0.00000001
 12
1.0
 22
0.0
 32
0.0
 13
1.0
 23
0.0
 33
0.0
 40
0.0
 40
0.0
 40
0.0
 40
0.0
 40
0.0945971475274464
 40
1.0
 40
1.0
 40
1.0
 40
1.0
 10
40.62147167585454
 20
55.77042646376592
 30
0.0
 10
40.62164748257604
 20
55.77080457959718
 30
0.0
 10
40.62350596061797
 20
55.77480169622417
 30
0.0
 10
40.62536299443239
 20
55.77502465104827
 30
0.0
 10
40.62704435814511
 20
55.77522651498199
 30
0.0
  0
SPLINE
  5
197
330
1F
100
AcDbEntity
  8
SLD-0
  6
Continuous
370
    15
100
AcDbSpline
210
0.0
220
0.0
230
1.0
 70
     8
 71
     3
 72
     9
 73
     5
 74
     0
 42
0.00000001
 43
0.00000001
 12
1.0
 22
0.0
 32
0.0
 13
1.0
 23
0.0
 33
0.0
 40
0.0
 40
0.0
 40
0.0
 40
0.0
 40
0.9054028524725535
 40
1.0
 40
1.0
 40
1.0
 40
1.0
 10
58.88829302930883
 20
55.77522651498199
 30
0.0
 10
58.88997439302155
 20
55.77502465104826
 30
0.0
 10
58.89183142683597
 20
55.77480169622415
 30
0.0
 10
58.89368990487788
 20
55.77080457959718
 30
0.0
 10
58.8938657115994
 20
55.77042646376592
 30
0.0
  0
SPLINE
  5
198
330
1F
100
AcDbEntity
  8
SLD-0
  6
Continuous
370
    15
100
AcDbSpline
210
0.0
220
0.0
230
1.0
 70
     8
 71
     3
 72
    11
 73
     7
 74
     0
 42
0.00000001
 43
0.00000001
 12
1.0
 22
0.0
 32
0.0
 13
1.0
 23
0.0
 33
0.0
 40
0.0
 40
0.0
 40
0.0
 40
0.0
 40
0.2879930377735128
 40
0.5759903606325344
 40
0.8639898995039469
 40
1.0
 40
1.0
 40
1.0
 40
1.0
 10
40.18125734791469
 20
55.3502148914192
 30
0.0
 10
40.18256048349817
 20
55.3515022322577
 30
0.0
 10
40.18516677405466
 20
55.35407693308923
 30
0.0
 10
40.19753894898535
 20
55.35452081242369
 30
0.0
 10
40.21117798761895
 20
55.35349504788091
 30
0.0
 10
40.22072000010778
 20
55.35230942526168
 30
0.0
 10
40.22378080334678
 20
55.35192911161638
 30
0.0
  0
SPLINE
  5
199
330
1F
100
AcDbEntity
  8
SLD-0
  6
Continuous
370
    15
100
AcDbSpline
210
0.0
220
0.0
230
1.0
 70
     8
 71
     3
 72
    11
 73
     7
 74
     0
 42
0.00000001
 43
0.00000001
 12
1.0
 22
0.0
 32
0.0
 13
1.0
 23
0.0
 33
0.0
 40
0.0
 40
0.0
 40
0.0
 40
0.0
 40
0.2499937709264524
 40
0.4999957183945745
 40
0.7500007471198228
 40
1.0
 40
1.0
 40
1.0
 40
1.0
 10
34.7576682150125
 20
41.79662701028964
 30
0.0
 10
34.75242564069891
 20
41.80065084101698
 30
0.0
 10
34.74194032060294
 20
41.80869863407901
 30
0.0
 10
34.72903154447332
 20
41.81963117428232
 30
0.0
 10
34.72059650209368
 20
41.82875621426274
 30
0.0
 10
34.72056566311413
 20
41.83257995250369
 30
0.0
 10
34.72055024380247
 20
41.83449179953903
 30
0.0
  0
SPLINE
  5
19A
330
1F
100
AcDbEntity
  8
SLD-0
  6
Continuous
370
    15
100
AcDbSpline
210
0.0
220
0.0
230
1.0
 70
     8
 71
     3
 72
     9
 73
     5
 74
     0
 42
0.00000001
 43
0.00000001
 12
1.0
 22
0.0
 32
0.0
 13
1.0
 23
0.0
 33
0.0
 40
0.0
 40
0.0
 40
0.0
 40
0.0
 40
0.6484213073082639
 40
1.0
 40
1.0
 40
1.0
 40
1.0
 10
34.7576682150125
 20
41.79662701028964
 30
0.0
 10
34.75646895317841
 20
41.79901746527574
 30
0.0
 10
34.75461944295942
 20
41.80270404213426
 30
0.0
 10
34.75339316320995
 20
41.80613798524244
 30
0.0
 10
34.75296202937876
 20
41.8073452864712
 30
0.0
  0
ARC
  5
19B
330
1F
100
AcDbEntity
  8
SLD-0
  6
Continuous
370
    15
100
AcDbCircle
 10
40.4153097126
 20
55.6802268838
 30
0.0
 40
0.0546000000000114
100
AcDbArc
 50
128.9938637004
 51
158.0
  0
ARC
  5
19C
330
1F
100
AcDbEntity
  8
SLD-0
  6
Continuous
370
    15
100
AcDbCircle
 10
59.1000276749
 20
55.6802268838
 30
0.0
 40
0.0546000000000022
100
AcDbArc
 50
22.0
 51
51.0378482426
  0
LINE
  5
19D
330
1F
100
AcDbEntity
  8
SLD-0
  6
Continuous
370
    15
100
AcDbLine
 10
40.2310031732
 20
55.3698046385
 30
0.0
 11
40.3646853623
 21
55.7006808161
 31
0.0
  0
LINE
  5
19E
330
1F
100
AcDbEntity
  8
SLD-0
  6
Continuous
370
    15
100
AcDbLine
 10
59.2843342142
 20
55.3698046385
 30
0.0
 11
59.1506520252
 21
55.7006808161
 31
0.0
  0
LWPOLYLINE
  5
19F
330
1F
100
AcDbEntity
  8
SLD-0
  6
Continuous
370
    15
100
AcDbPolyline
 90
        3
 70
   128
 43
0.0
 10
34.742668495
 20
40.7682268905
 10
34.7533210652
 20
40.769275985
 10
34.7547501687
 20
40.7695804615
  0
LINE
  5
1A0
330
1F
100
AcDbEntity
  8
SLD-0
  6
Continuous
370
    15
100
AcDbLine
 10
34.742668495
 20
40.7682268905
 30
0.0
 11
33.6326692644
 21
40.7682268905
 31
0.0
  0
LINE
  5
1A1
330
1F
100
AcDbEntity
  8
SLD-0
  6
Continuous
370
    15
100
AcDbLine
 10
33.6326692644
 20
40.7682268905
 30
0.0
 11
33.6326692644
 21
40.7695804615
 31
0.0
  0
LINE
  5
1A2
330
1F
100
AcDbEntity
  8
SLD-0
  6
Continuous
370
    15
100
AcDbLine
 10
65.882668123
 20
40.7682268905
 30
0.0
 11
65.882668123
 21
40.7695804615
 31
0.0
  0
LINE
  5
1A3
330
1F
100
AcDbEntity
  8
SLD-0
  6
Continuous
370
    15
100
AcDbLine
 10
64.7726688925
 20
40.7682268905
 30
0.0
 11
65.882668123
 21
40.7682268905
 31
0.0
  0
LWPOLYLINE
  5
1A4
330
1F
100
AcDbEntity
  8
SLD-0
  6
Continuous
370
    15
100
AcDbPolyline
 90
        3
 70
   128
 43
0.0
 10
64.7605872187
 20
40.7695804615
 10
64.7620163222
 20
40.769275985
 10
64.7726688925
 20
40.7682268905
  0
ARC
  5
1A5
330
1F
100
AcDbEntity
  8
SLD-0
  6
Continuous
370
    15
100
AcDbCircle
 10
34.7261686937
 20
40.5619117886
 30
0.0
 40
0.0624999999999953
100
AcDbArc
 50
90.0
 51
121.6575711521
  0
LINE
  5
1A6
330
1F
100
AcDbEntity
  8
SLD-0
  6
Continuous
370
    15
100
AcDbLine
 10
34.7261692722
 20
40.6244117652
 30
0.0
 11
35.6886681267
 21
40.6244117652
 31
0.0
  0
LINE
  5
1A7
330
1F
100
AcDbEntity
  8
SLD-0
  6
Continuous
370
    15
100
AcDbLine
 10
63.8266692608
 20
40.6244117652
 30
0.0
 11
64.7891681152
 21
40.6244117652
 31
0.0
  0
ARC
  5
1A8
330
1F
100
AcDbEntity
  8
SLD-0
  6
Continuous
370
    15
100
AcDbCircle
 10
64.7891686937
 20
40.5619117886
 30
0.0
 40
0.0625000000000037
100
AcDbArc
 50
58.3424288479
 51
90.0
  0
LINE
  5
1A9
330
1F
100
AcDbEntity
  8
SLD-0
  6
Continuous
370
    15
100
AcDbLine
 10
63.8266692608
 20
40.6151117393
 30
0.0
 11
64.9326686442
 21
40.6151117393
 31
0.0
  0
LINE
  5
1AA
330
1F
100
AcDbEntity
  8
SLD-0
  6
Continuous
370
    15
100
AcDbLine
 10
64.9326686442
 20
40.2551117847
 30
0.0
 11
64.9326686442
 21
40.6151117393
 31
0.0
  0
LINE
  5
1AB
330
1F
100
AcDbEntity
  8
SLD-0
  6
Continuous
370
    15
100
AcDbLine
 10
64.9326686442
 20
40.2551117847
 30
0.0
 11
34.5826687433
 21
40.2551117847
 31
0.0
  0
LINE
  5
1AC
330
1F
100
AcDbEntity
  8
SLD-0
  6
Continuous
370
    15
100
AcDbLine
 10
34.5826687433
 20
40.2551117847
 30
0.0
 11
34.5826687433
 21
40.6151117393
 31
0.0
  0
LINE
  5
1AD
330
1F
100
AcDbEntity
  8
SLD-0
  6
Continuous
370
    15
100
AcDbLine
 10
34.5826687433
 20
40.6151117393
 30
0.0
 11
35.6886681267
 21
40.6151117393
 31
0.0
  0
LINE
  5
1AE
330
1F
100
AcDbEntity
  8
SLD-0
  6
Continuous
370
    15
100
AcDbLine
 10
35.6886681267
 20
40.6151117393
 30
0.0
 11
35.6886681267
 21
40.7695804615
 31
0.0
  0
LINE
  5
1AF
330
1F
100
AcDbEntity
  8
SLD-0
  6
Continuous
370
    15
100
AcDbLine
 10
63.8266692608
 20
40.7695804615
 30
0.0
 11
63.8266692608
 21
40.6151117393
 31
0.0
  0
LINE
  5
1B0
330
1F
100
AcDbEntity
  8
SLD-0
  6
Continuous
370
    15
100
AcDbLine
 10
64.9326686442
 20
40.1801117911
 30
0.0
 11
34.5826687433
 21
40.1801117911
 31
0.0
  0
LINE
  5
1B1
330
1F
100
AcDbEntity
  8
SLD-0
  6
Continuous
370
    15
100
AcDbLine
 10
64.9326686442
 20
40.2551117847
 30
0.0
 11
64.9326686442
 21
40.1801117911
 31
0.0
  0
LINE
  5
1B2
330
1F
100
AcDbEntity
  8
SLD-0
  6
Continuous
370
    15
100
AcDbLine
 10
34.5826687433
 20
40.1801117911
 30
0.0
 11
34.5826687433
 21
40.2551117847
 31
0.0
  0
LINE
  5
1B3
330
1F
100
AcDbEntity
  8
SLD-0
  6
Continuous
370
    15
100
AcDbLine
 10
64.9476683642
 20
40.7401118019
 30
0.0
 11
65.0076684178
 21
40.7401118019
 31
0.0
  0
LINE
  5
1B4
330
1F
100
AcDbEntity
  8
SLD-0
  6
Continuous
370
    15
100
AcDbLine
 10
65.0076684178
 20
40.2551117847
 30
0.0
 11
64.9476683642
 21
40.2551117847
 31
0.0
  0
LINE
  5
1B5
330
1F
100
AcDbEntity
  8
SLD-0
  6
Continuous
370
    15
100
AcDbLine
 10
64.9476683642
 20
40.2551117847
 30
0.0
 11
64.9476683642
 21
40.7401118019
 31
0.0
  0
LINE
  5
1B6
330
1F
100
AcDbEntity
  8
SLD-0
  6
Continuous
370
    15
100
AcDbLine
 10
65.0076684178
 20
40.2551117847
 30
0.0
 11
65.0076684178
 21
40.7401118019
 31
0.0
  0
ARC
  5
1B7
330
1F
100
AcDbEntity
  8
SLD-0
  6
Continuous
370
    15
100
AcDbCircle
 10
64.9326686937
 20
40.2551117886
 30
0.0
 40
0.0150000000000006
100
AcDbArc
 50
269.9999999999
 51
0.0
  0
ARC
  5
1B8
330
1F
100
AcDbEntity
  8
SLD-0
  6
Continuous
370
    15
100
AcDbCircle
 10
64.9326686937
 20
40.2551117886
 30
0.0
 40
0.0750000000000028
100
AcDbArc
 50
270.0
 51
0.0
  0
ARC
  5
1B9
330
1F
100
AcDbEntity
  8
SLD-0
  6
Continuous
370
    15
100
AcDbCircle
 10
34.5826686937
 20
40.2551117886
 30
0.0
 40
0.0150000000000006
100
AcDbArc
 50
180.0
 51
270.0
  0
ARC
  5
1BA
330
1F
100
AcDbEntity
  8
SLD-0
  6
Continuous
370
    15
100
AcDbCircle
 10
34.5826686937
 20
40.2551117886
 30
0.0
 40
0.0750000000000028
100
AcDbArc
 50
180.0
 51
270.0
  0
LINE
  5
1BB
330
1F
100
AcDbEntity
  8
SLD-0
  6
Continuous
370
    15
100
AcDbLine
 10
34.5676690232
 20
40.2551117847
 30
0.0
 11
34.5076689697
 21
40.2551117847
 31
0.0
  0
LINE
  5
1BC
330
1F
100
AcDbEntity
  8
SLD-0
  6
Continuous
370
    15
100
AcDbLine
 10
34.5076689697
 20
40.7401118019
 30
0.0
 11
34.5076689697
 21
40.2551117847
 31
0.0
  0
LINE
  5
1BD
330
1F
100
AcDbEntity
  8
SLD-0
  6
Continuous
370
    15
100
AcDbLine
 10
34.5676690232
 20
40.7401118019
 30
0.0
 11
34.5676690232
 21
40.2551117847
 31
0.0
  0
LINE
  5
1BE
330
1F
100
AcDbEntity
  8
SLD-0
  6
Continuous
370
    15
100
AcDbLine
 10
34.5676690232
 20
40.7401118019
 30
0.0
 11
34.5076689697
 21
40.7401118019
 31
0.0
  0
LINE
  5
1BF
330
1F
100
AcDbEntity
  8
SLD-0
  6
Continuous
370
    15
100
AcDbLine
 10
35.0903782915
 20
40.7695804615
 30
0.0
 11
35.0903782915
 21
40.7496268387
 31
0.0
  0
LINE
  5
1C0
330
1F
100
AcDbEntity
  8
SLD-0
  6
Continuous
370
    15
100
AcDbLine
 10
64.4249590959
 20
40.7496268387
 30
0.0
 11
64.4249590959
 21
40.7695804615
 31
0.0
  0
LINE
  5
1C1
330
1F
100
AcDbEntity
  8
SLD-0
  6
Continuous
370
    15
100
AcDbLine
 10
35.0903782915
 20
40.6950268427
 30
0.0
 11
35.6886681267
 21
40.6950268427
 31
0.0
  0
LINE
  5
1C2
330
1F
100
AcDbEntity
  8
SLD-0
  6
Continuous
370
    15
100
AcDbLine
 10
63.8266692608
 20
40.6950268427
 30
0.0
 11
64.4249590959
 21
40.6950268427
 31
0.0
  0
LINE
  5
1C3
330
1F
100
AcDbEntity
  8
SLD-0
  6
Continuous
370
    15
100
AcDbLine
 10
64.4249590959
 20
40.7496268387
 30
0.0
 11
64.4249590959
 21
40.6950268427
 31
0.0
  0
LINE
  5
1C4
330
1F
100
AcDbEntity
  8
SLD-0
  6
Continuous
370
    15
100
AcDbLine
 10
35.0903782915
 20
40.7496268387
 30
0.0
 11
35.0903782915
 21
40.6950268427
 31
0.0
  0
LINE
  5
1C5
330
1F
100
AcDbEntity
  8
SLD-0
  6
Continuous
370
    15
100
AcDbLine
 10
65.8589588502
 20
40.6950268427
 30
0.0
 11
65.0076684178
 21
40.6950268427
 31
0.0
  0
LINE
  5
1C6
330
1F
100
AcDbEntity
  8
SLD-0
  6
Continuous
370
    15
100
AcDbLine
 10
64.9476683642
 20
40.6950268427
 30
0.0
 11
64.4249590959
 21
40.6950268427
 31
0.0
  0
LINE
  5
1C7
330
1F
100
AcDbEntity
  8
SLD-0
  6
Continuous
370
    15
100
AcDbLine
 10
65.8589588502
 20
40.7286269079
 30
0.0
 11
65.8589588502
 21
40.6950268427
 31
0.0
  0
LINE
  5
1C8
330
1F
100
AcDbEntity
  8
SLD-0
  6
Continuous
370
    15
100
AcDbLine
 10
33.6563785372
 20
40.7286269079
 30
0.0
 11
33.6563785372
 21
40.6950268427
 31
0.0
  0
LINE
  5
1C9
330
1F
100
AcDbEntity
  8
SLD-0
  6
Continuous
370
    15
100
AcDbLine
 10
35.0903782915
 20
40.6950268427
 30
0.0
 11
34.5676690232
 21
40.6950268427
 31
0.0
  0
LINE
  5
1CA
330
1F
100
AcDbEntity
  8
SLD-0
  6
Continuous
370
    15
100
AcDbLine
 10
34.5076689697
 20
40.6950268427
 30
0.0
 11
33.6563785372
 21
40.6950268427
 31
0.0
  0
LINE
  5
1CB
330
1F
100
AcDbEntity
  8
SLD-0
  6
Continuous
370
    15
100
AcDbLine
 10
64.4249590959
 20
40.7682268905
 30
0.0
 11
64.7726688925
 21
40.7682268905
 31
0.0
  0
LINE
  5
1CC
330
1F
100
AcDbEntity
  8
SLD-0
  6
Continuous
370
    15
100
AcDbLine
 10
65.85897645
 20
40.7286269079
 30
0.0
 11
65.85897645
 21
40.7682268905
 31
0.0
  0
LINE
  5
1CD
330
1F
100
AcDbEntity
  8
SLD-0
  6
Continuous
370
    15
100
AcDbLine
 10
64.4249590959
 20
40.7286269079
 30
0.0
 11
64.9476683642
 21
40.7286269079
 31
0.0
  0
LINE
  5
1CE
330
1F
100
AcDbEntity
  8
SLD-0
  6
Continuous
370
    15
100
AcDbLine
 10
65.0076684178
 20
40.7286269079
 30
0.0
 11
65.85897645
 21
40.7286269079
 31
0.0
  0
LINE
  5
1CF
330
1F
100
AcDbEntity
  8
SLD-0
  6
Continuous
370
    15
100
AcDbLine
 10
35.0903782915
 20
40.7682268905
 30
0.0
 11
34.742668495
 21
40.7682268905
 31
0.0
  0
LINE
  5
1D0
330
1F
100
AcDbEntity
  8
SLD-0
  6
Continuous
370
    15
100
AcDbLine
 10
35.0903782915
 20
40.7286269079
 30
0.0
 11
34.5676690232
 21
40.7286269079
 31
0.0
  0
LINE
  5
1D1
330
1F
100
AcDbEntity
  8
SLD-0
  6
Continuous
370
    15
100
AcDbLine
 10
34.5076689697
 20
40.7286269079
 30
0.0
 11
33.6563609374
 21
40.7286269079
 31
0.0
  0
LINE
  5
1D2
330
1F
100
AcDbEntity
  8
SLD-0
  6
Continuous
370
    15
100
AcDbLine
 10
33.6563609374
 20
40.7286269079
 30
0.0
 11
33.6563609374
 21
40.7682268905
 31
0.0
  0
LINE
  5
1D3
330
1F
100
AcDbEntity
  8
SLD-0
  6
Continuous
370
    15
100
AcDbLine
 10
63.9581057157
 20
40.6926268171
 30
0.0
 11
63.8266692608
 21
40.6926268171
 31
0.0
  0
LINE
  5
1D4
330
1F
100
AcDbEntity
  8
SLD-0
  6
Continuous
370
    15
100
AcDbLine
 10
35.6886681267
 20
40.6926268171
 30
0.0
 11
35.5572316717
 21
40.6926268171
 31
0.0
  0
SPLINE
  5
1D5
330
1F
100
AcDbEntity
  8
SLD-0
  6
Continuous
370
    15
100
AcDbSpline
210
0.0
220
0.0
230
1.0
 70
     8
 71
     3
 72
     9
 73
     5
 74
     0
 42
0.00000001
 43
0.00000001
 12
1.0
 22
0.0
 32
0.0
 13
1.0
 23
0.0
 33
0.0
 40
0.0
 40
0.0
 40
0.0
 40
0.0
 40
0.1783670887915706
 40
1.0
 40
1.0
 40
1.0
 40
1.0
 10
35.55650773341688
 20
40.69502684273544
 30
0.0
 10
35.55661318540567
 20
40.694703071585
 30
0.0
 10
35.55720439306349
 20
40.69288787600919
 30
0.0
 10
35.55721936790112
 20
40.69274456564179
 30
0.0
 10
35.55723167172055
 20
40.69262681712741
 30
0.0
  0
SPLINE
  5
1D6
330
1F
100
AcDbEntity
  8
SLD-0
  6
Continuous
370
    15
100
AcDbSpline
210
0.0
220
0.0
230
1.0
 70
     8
 71
     3
 72
     9
 73
     5
 74
     0
 42
0.00000001
 43
0.00000001
 12
1.0
 22
0.0
 32
0.0
 13
1.0
 23
0.0
 33
0.0
 40
0.0
 40
0.0
 40
0.0
 40
0.0
 40
0.9077104308402785
 40
1.0
 40
1.0
 40
1.0
 40
1.0
 10
63.95810571573339
 20
40.69262681712741
 30
0.0
 10
63.95851730885795
 20
40.69273104672436
 30
0.0
 10
63.95897074985695
 20
40.69284587364868
 30
0.0
 10
63.9598351955153
 20
40.69484256861706
 30
0.0
 10
63.95991497483268
 20
40.69502684273544
 30
0.0
  0
LINE
  5
1D7
330
1F
100
AcDbEntity
  8
SLD-0
  6
Continuous
370
    15
100
AcDbLine
 10
64.0831053384
 20
40.6926268171
 30
0.0
 11
64.0831053384
 21
40.6950268427
 31
0.0
  0
LINE
  5
1D8
330
1F
100
AcDbEntity
  8
SLD-0
  6
Continuous
370
    15
100
AcDbLine
 10
64.0831053384
 20
40.6926268171
 30
0.0
 11
63.9581057157
 21
40.6926268171
 31
0.0
  0
LINE
  5
1D9
330
1F
100
AcDbEntity
  8
SLD-0
  6
Continuous
370
    15
100
AcDbLine
 10
35.4322320491
 20
40.6950268427
 30
0.0
 11
35.4322320491
 21
40.6926268171
 31
0.0
  0
LINE
  5
1DA
330
1F
100
AcDbEntity
  8
SLD-0
  6
Continuous
370
    15
100
AcDbLine
 10
35.5572316717
 20
40.6926268171
 30
0.0
 11
35.4322320491
 21
40.6926268171
 31
0.0
  0
LINE
  5
1DB
330
1F
100
AcDbEntity
  8
SLD-0
  6
Continuous
370
    15
100
AcDbLine
 10
65.859963212
 20
40.6926268171
 30
0.0
 11
65.859963212
 21
40.7286269079
 31
0.0
  0
LINE
  5
1DC
330
1F
100
AcDbEntity
  8
SLD-0
  6
Continuous
370
    15
100
AcDbLine
 10
65.85897645
 20
40.7286269079
 30
0.0
 11
65.859963212
 21
40.7286269079
 31
0.0
  0
LINE
  5
1DD
330
1F
100
AcDbEntity
  8
SLD-0
  6
Continuous
370
    15
100
AcDbLine
 10
64.0831053384
 20
40.6926268171
 30
0.0
 11
64.9476683642
 21
40.6926268171
 31
0.0
  0
LINE
  5
1DE
330
1F
100
AcDbEntity
  8
SLD-0
  6
Continuous
370
    15
100
AcDbLine
 10
65.0076684178
 20
40.6926268171
 30
0.0
 11
65.859963212
 21
40.6926268171
 31
0.0
  0
LINE
  5
1DF
330
1F
100
AcDbEntity
  8
SLD-0
  6
Continuous
370
    15
100
AcDbLine
 10
33.6563738439
 20
40.6926268171
 30
0.0
 11
33.6563738439
 21
40.7286269079
 31
0.0
  0
LINE
  5
1E0
330
1F
100
AcDbEntity
  8
SLD-0
  6
Continuous
370
    15
100
AcDbLine
 10
33.6563738439
 20
40.6926268171
 30
0.0
 11
34.5076689697
 21
40.6926268171
 31
0.0
  0
LINE
  5
1E1
330
1F
100
AcDbEntity
  8
SLD-0
  6
Continuous
370
    15
100
AcDbLine
 10
34.5676690232
 20
40.6926268171
 30
0.0
 11
35.4322320491
 21
40.6926268171
 31
0.0
  0
LINE
  5
1E2
330
1F
100
AcDbEntity
  8
SLD-0
  6
Continuous
370
    15
100
AcDbLine
 10
34.8283736382
 20
40.7695804615
 30
0.0
 11
34.8283736382
 21
40.7682268905
 31
0.0
  0
LINE
  5
1E3
330
1F
100
AcDbEntity
  8
SLD-0
  6
Continuous
370
    15
100
AcDbLine
 10
64.6879634177
 20
40.7682268905
 30
0.0
 11
64.6879634177
 21
40.7695804615
 31
0.0
  0
LINE
  5
1E4
330
1F
100
AcDbEntity
  8
SLD-0
  6
Continuous
370
    15
100
AcDbLine
 10
55.3252687497
 20
55.7391762648
 30
0.0
 11
44.1900686378
 21
55.7391762648
 31
0.0
  0
LINE
  5
1E5
330
1F
100
AcDbEntity
  8
SLD-0
  6
Continuous
370
    15
100
AcDbLine
 10
59.1343727999
 20
55.7218263852
 30
0.0
 11
56.3930689477
 21
55.7218263852
 31
0.0
  0
LINE
  5
1E6
330
1F
100
AcDbEntity
  8
SLD-0
  6
Continuous
370
    15
100
AcDbLine
 10
43.1430684662
 20
55.7218263852
 30
0.0
 11
40.3809645875
 21
55.7218263852
 31
0.0
  0
LINE
  5
1E7
330
1F
100
AcDbEntity
  8
SLD-0
  6
Continuous
370
    15
100
AcDbLine
 10
40.3713357388
 20
55.6979939138
 30
0.0
 11
40.3646853623
 21
55.7006808161
 31
0.0
  0
LINE
  5
1E8
330
1F
100
AcDbEntity
  8
SLD-0
  6
Continuous
370
    15
100
AcDbLine
 10
59.1440016487
 20
55.6979939138
 30
0.0
 11
59.1506520252
 21
55.7006808161
 31
0.0
  0
LINE
  5
1E9
330
1F
100
AcDbEntity
  8
SLD-0
  6
Continuous
370
    15
100
AcDbLine
 10
34.742668495
 20
40.7695804615
 30
0.0
 11
34.742668495
 21
40.7682268905
 31
0.0
  0
LINE
  5
1EA
330
1F
100
AcDbEntity
  8
SLD-0
  6
Continuous
370
    15
100
AcDbLine
 10
64.7726688925
 20
40.7695804615
 30
0.0
 11
64.7726688925
 21
40.7682268905
 31
0.0
  0
LINE
  5
1EB
330
1F
100
AcDbEntity
  8
SLD-0
  6
Continuous
370
    15
100
AcDbLine
 10
35.0903782915
 20
40.7496268387
 30
0.0
 11
35.6886681267
 21
40.7496268387
 31
0.0
  0
LINE
  5
1EC
330
1F
100
AcDbEntity
  8
SLD-0
  6
Continuous
370
    15
100
AcDbLine
 10
63.8266692608
 20
40.7496268387
 30
0.0
 11
64.4249590959
 21
40.7496268387
 31
0.0
  0
DIMENSION
  5
1ED
330
1F
100
AcDbEntity
  8
DIM
100
AcDbDimension
  2
_D_5
 10
59.1141910501
 20
62.3204264365
 30
0.0
 11
49.7576686937
 21
62.3204264365
 31
0.0
 70
   160
  1
<>
 71
     2
 42
-1.0
  3
SLDDIMSTYLE0
100
AcDbAlignedDimension
 13
40.4011463373
 23
55.7704264365
 33
0.0
 14
59.1141910501
 24
55.7704264365
 34
0.0
100
AcDbRotatedDimension
  0
DIMENSION
  5
1FC
330
1F
100
AcDbEntity
  8
DIM
100
AcDbDimension
  2
_D_6
 10
46.7619988277
 20
58.8204264365
 30
0.0
 11
35.6880475217
 21
58.8204264365
 31
0.0
 70
   160
  1
<>
 71
     2
 42
-1.0
  3
SLDDIMSTYLE1
100
AcDbAlignedDimension
 13
40.4011463373
 23
55.7704264365
 33
0.0
 14
46.7619988277
 24
53.6959554174
 34
0.0
100
AcDbRotatedDimension
  0
DIMENSION
  5
20B
330
1F
100
AcDbEntity
  8
DIM
100
AcDbDimension
  2
_D_7
 10
52.7619988277
 20
58.8204264365
 30
0.0
 11
64.162784414
 21
58.8204264365
 31
0.0
 70
   160
  1
<>
 71
     2
 42
-1.0
  3
SLDDIMSTYLE1
100
AcDbAlignedDimension
 13
59.1141910501
 23
55.7704264365
 33
0.0
 14
52.7619988277
 24
51.4829554174
 34
0.0
100
AcDbRotatedDimension
  0
DIMENSION
  5
21A
330
1F
100
AcDbEntity
  8
DIM
100
AcDbDimension
  2
_D_8
 10
30.6326677095
 20
52.2324565665
 30
0.0
 11
30.6326677095
 21
58.8204264365
 31
0.0
 70
   160
  1
<>
 71
     2
 42
-1.0
  3
SLDDIMSTYLE1
100
AcDbAlignedDimension
 13
43.7889186937
 23
55.8204264365
 33
0.0
 14
45.2984999768
 24
52.2324565665
 34
0.0
 50
90.0
100
AcDbRotatedDimension
  0
DIMENSION
  5
22A
330
1F
100
AcDbEntity
  8
DIM
100
AcDbDimension
  2
_D_9
 10
30.6326677095
 20
52.2324565665
 30
0.0
 11
30.6326677095
 21
46.6353185015
 31
0.0
 70
   160
  1
<>
 71
     2
 42
-1.0
  3
SLDDIMSTYLE0
100
AcDbAlignedDimension
 13
33.6326686937
 23
41.0381804365
 33
0.0
 14
45.2984999768
 24
52.2324565665
 34
0.0
 50
90.0
100
AcDbRotatedDimension
  0
DIMENSION
  5
239
330
1F
100
AcDbEntity
  8
DIM
100
AcDbDimension
  2
_D_10
 10
68.882669678
 20
55.8204264365
 30
0.0
 11
68.882669678
 21
52.9199415015
 31
0.0
 70
   160
  1
<>
 71
     2
 42
-1.0
  3
SLDDIMSTYLE1
100
AcDbAlignedDimension
 13
54.2254976786
 23
50.0194565665
 33
0.0
 14
55.7264186937
 24
55.8204264365
 34
0.0
 50
90.0
100
AcDbRotatedDimension
  0
DIMENSION
  5
248
330
1F
100
AcDbEntity
  8
DIM
100
AcDbDimension
  2
_D_11
 10
68.882669678
 20
50.0194565665
 30
0.0
 11
68.882669678
 21
45.5288185015
 31
0.0
 70
   160
  1
<>
 71
     2
 42
-1.0
  3
SLDDIMSTYLE0
100
AcDbAlignedDimension
 13
65.8826686937
 23
41.0381804365
 33
0.0
 14
54.2254976786
 24
50.0194565665
 34
0.0
 50
90.0
100
AcDbRotatedDimension
  0
DIMENSION
  5
253
330
1F
100
AcDbEntity
  8
DIM
100
AcDbDimension
  2
_D_12
 10
65.0076686937
 20
37.1801117886
 30
0.0
 11
49.7576686937
 21
37.1801117886
 31
0.0
 70
   160
  1
<>
 71
     2
 42
-1.0
  3
SLDDIMSTYLE0
100
AcDbAlignedDimension
 13
34.5076686937
 23
40.2551117886
 33
0.0
 14
65.0076686937
 24
40.2551117886
 34
0.0
 50
0.0
100
AcDbRotatedDimension
  0
DIMENSION
  5
262
330
1F
100
AcDbEntity
  8
DIM
100
AcDbDimension
  2
_D_13
 10
68.882669678
 20
41.0381804365
 30
0.0
 11
68.882669678
 21
37.1801117886
 31
0.0
 70
   160
  1
<>
 71
     2
 42
-1.0
  3
SLDDIMSTYLE1
100
AcDbAlignedDimension
 13
64.9326686937
 23
40.1801117886
 33
0.0
 14
65.8826686937
 24
41.0381804365
 34
0.0
 50
90.0
100
AcDbRotatedDimension
  0
DIMENSION
  5
271
330
1F
100
AcDbEntity
  8
DIM
100
AcDbDimension
  2
_D_14
 10
65.8826686937
 20
33.6801117886
 30
0.0
 11
49.7576686937
 21
33.6801117886
 31
0.0
 70
   160
  1
<>
 71
     2
 42
-1.0
  3
SLDDIMSTYLE0
100
AcDbAlignedDimension
 13
33.6326686937
 23
40.7695804365
 33
0.0
 14
65.8826686937
 24
40.7695804365
 34
0.0
100
AcDbRotatedDimension
  0
DIMENSION
  5
280
330
1F
100
AcDbEntity
  8
DIM
100
AcDbDimension
  2
_D_15
 10
52.0294021012
 20
51.328879491
 30
0.0
 11
52.389232285
 21
45.3823508512
 31
0.0
 70
   163
  1
<>
 71
     1
 42
-1.0
  3
SLDDIMSTYLE2
100
AcDbDiametricDimension
 15
53.4945955541
 25
48.7100336419
 35
0.0
 40
0.0
  0
DIMENSION
  5
28A
330
1F
100
AcDbEntity
  8
DIM
100
AcDbDimension
  2
_D_16
 10
47.3382588276
 20
53.6178123949
 30
0.0
 11
47.5697029266
 21
46.8565468388
 31
0.0
 70
   163
  1
<>
 71
     1
 42
-1.0
  3
SLDDIMSTYLE2
100
AcDbDiametricDimension
 15
46.1857388277
 25
50.847100738
 35
0.0
 40
0.0
  0
INSERT
  5
29E
330
1F
100
AcDbEntity
  8
DIM
100
AcDbBlockReference
  2
SW_CENTERMARKSYMBOL_0
 10
52.7619988277
 20
50.0194565665
 30
0.0
  0
INSERT
  5
2AA
330
1F
100
AcDbEntity
  8
DIM
100
AcDbBlockReference
  2
SW_CENTERMARKSYMBOL_1
 10
46.7619988277
 20
52.2324565665
 30
0.0
  0
LINE
  5
2AB
330
1F
100
AcDbEntity
  8
SLD-0
  6
Continuous
370
    15
100
AcDbLine
 10
95.0947444149
 20
24.5651077397
 30
0.0
 11
95.001621544
 21
26.0975079573
 31
0.0
  0
LINE
  5
2AC
330
1F
100
AcDbEntity
  8
SLD-0
  6
Continuous
370
    15
100
AcDbLine
 10
92.191620992
 20
26.0975079573
 30
0.0
 11
92.0984981211
 21
24.5651077397
 31
0.0
  0
LINE
  5
2AD
330
1F
100
AcDbEntity
  8
SLD-0
  6
Continuous
370
    15
100
AcDbLine
 10
97.3077440235
 20
24.5651077397
 30
0.0
 11
97.2146211526
 21
26.0975079573
 31
0.0
  0
LINE
  5
2AE
330
1F
100
AcDbEntity
  8
SLD-0
  6
Continuous
370
    15
100
AcDbLine
 10
86.3760004946
 20
4.0351578634
 30
0.0
 11
86.3877069994
 21
4.0351578634
 31
0.0
  0
LINE
  5
2AF
330
1F
100
AcDbEntity
  8
SLD-0
  6
Continuous
370
    15
100
AcDbLine
 10
86.3760004946
 20
4.2226578841
 30
0.0
 11
86.3760004946
 21
4.0351578634
 31
0.0
  0
LINE
  5
2B0
330
1F
100
AcDbEntity
  8
SLD-0
  6
Continuous
370
    15
100
AcDbLine
 10
86.3525874851
 20
4.2226578841
 30
0.0
 11
86.3525874851
 21
4.2539080831
 31
0.0
  0
LINE
  5
2B1
330
1F
100
AcDbEntity
  8
SLD-0
  6
Continuous
370
    15
100
AcDbLine
 10
86.3525874851
 20
4.2539080831
 30
0.0
 11
86.3877069994
 21
4.2539080831
 31
0.0
  0
LINE
  5
2B2
330
1F
100
AcDbEntity
  8
SLD-0
  6
Continuous
370
    15
100
AcDbLine
 10
86.3877069994
 20
4.2539080831
 30
0.0
 11
86.3877069994
 21
4.0351578634
 31
0.0
  0
LINE
  5
2B3
330
1F
100
AcDbEntity
  8
SLD-0
  6
Continuous
370
    15
100
AcDbLine
 10
92.1826057895
 20
4.2539080831
 30
0.0
 11
92.1826057895
 21
4.0351578634
 31
0.0
  0
LINE
  5
2B4
330
1F
100
AcDbEntity
  8
SLD-0
  6
Continuous
370
    15
100
AcDbLine
 10
92.1826057895
 20
4.0351578634
 30
0.0
 11
86.3877069994
 21
4.0351578634
 31
0.0
  0
LINE
  5
2B5
330
1F
100
AcDbEntity
  8
SLD-0
  6
Continuous
370
    15
100
AcDbLine
 10
92.1826057895
 20
4.2539080831
 30
0.0
 11
86.3877069994
 21
4.2539080831
 31
0.0
  0
LINE
  5
2B6
330
1F
100
AcDbEntity
  8
SLD-0
  6
Continuous
370
    15
100
AcDbLine
 10
95.001621544
 20
26.0975079573
 30
0.0
 11
92.191620992
 21
26.0975079573
 31
0.0
  0
LINE
  5
2B7
330
1F
100
AcDbEntity
  8
SLD-0
  6
Continuous
370
    15
100
AcDbLine
 10
97.2146211526
 20
26.0975079573
 30
0.0
 11
95.001621544
 21
26.0975079573
 31
0.0
  0
LINE
  5
2B8
330
1F
100
AcDbEntity
  8
SLD-0
  6
Continuous
370
    15
100
AcDbLine
 10
85.7039763112
 20
24.4725081694
 30
0.0
 11
85.7039763112
 21
24.4225083203
 31
0.0
  0
LINE
  5
2B9
330
1F
100
AcDbEntity
  8
SLD-0
  6
Continuous
370
    15
100
AcDbLine
 10
84.5292409218
 20
24.4725081694
 30
0.0
 11
84.5292409218
 21
24.4225083203
 31
0.0
  0
LINE
  5
2BA
330
1F
100
AcDbEntity
  8
SLD-0
  6
Continuous
370
    15
100
AcDbLine
 10
85.7039763112
 20
24.4225083203
 30
0.0
 11
84.5292409218
 21
24.4225083203
 31
0.0
  0
LINE
  5
2BB
330
1F
100
AcDbEntity
  8
SLD-0
  6
Continuous
370
    15
100
AcDbLine
 10
85.7039763112
 20
24.4725081694
 30
0.0
 11
84.5292409218
 21
24.4725081694
 31
0.0
  0
LINE
  5
2BC
330
1F
100
AcDbEntity
  8
SLD-0
  6
Continuous
370
    15
100
AcDbLine
 10
85.7039763112
 20
24.4225083203
 30
0.0
 11
87.319490982
 21
24.4225083203
 31
0.0
  0
LINE
  5
2BD
330
1F
100
AcDbEntity
  8
SLD-0
  6
Continuous
370
    15
100
AcDbLine
 10
85.7039763112
 20
24.4725081694
 30
0.0
 11
87.319490982
 21
24.4725081694
 31
0.0
  0
ARC
  5
2BE
330
1F
100
AcDbEntity
  8
SLD-0
  6
Continuous
370
    15
100
AcDbCircle
 10
99.3163409384
 20
24.3912581368
 30
0.0
 40
0.0812500000000031
100
AcDbArc
 50
360.0
 51
87.7781298665
  0
LINE
  5
2BF
330
1F
100
AcDbEntity
  8
SLD-0
  6
Continuous
370
    15
100
AcDbLine
 10
99.3975908147
 20
24.3912581213
 30
0.0
 11
99.3475909657
 21
24.3912581213
 31
0.0
  0
ARC
  5
2C0
330
1F
100
AcDbEntity
  8
SLD-0
  6
Continuous
370
    15
100
AcDbCircle
 10
99.3163409384
 20
24.3912581368
 30
0.0
 40
0.0312500000000012
100
AcDbArc
 50
360.0
 51
84.2147601161
  0
LINE
  5
2C1
330
1F
100
AcDbEntity
  8
SLD-0
  6
Continuous
370
    15
100
AcDbLine
 10
99.3975908147
 20
23.5165083332
 30
0.0
 11
99.3475909657
 21
23.5165083332
 31
0.0
  0
LINE
  5
2C2
330
1F
100
AcDbEntity
  8
SLD-0
  6
Continuous
370
    15
100
AcDbLine
 10
99.3475909657
 20
24.3912581213
 30
0.0
 11
99.3475909657
 21
24.2539081347
 31
0.0
  0
LINE
  5
2C3
330
1F
100
AcDbEntity
  8
SLD-0
  6
Continuous
370
    15
100
AcDbLine
 10
99.3475909657
 20
23.7689081908
 30
0.0
 11
99.3475909657
 21
23.5165083332
 31
0.0
  0
LINE
  5
2C4
330
1F
100
AcDbEntity
  8
SLD-0
  6
Continuous
370
    15
100
AcDbLine
 10
99.3975908147
 20
24.3912581213
 30
0.0
 11
99.3975908147
 21
23.5165083332
 31
0.0
  0
LINE
  5
2C5
330
1F
100
AcDbEntity
  8
SLD-0
  6
Continuous
370
    15
100
AcDbLine
 10
84.4479908738
 20
24.5037583684
 30
0.0
 11
84.4979908695
 21
24.5037583684
 31
0.0
  0
SPLINE
  5
2C6
330
1F
100
AcDbEntity
  8
SLD-0
  6
Continuous
370
    15
100
AcDbSpline
210
0.0
220
0.0
230
1.0
 70
     8
 71
     3
 72
    11
 73
     7
 74
     0
 42
0.00000001
 43
0.00000001
 12
1.0
 22
0.0
 32
0.0
 13
1.0
 23
0.0
 33
0.0
 40
0.0
 40
0.0
 40
0.0
 40
0.0
 40
0.2500022400783816
 40
0.4999981378793227
 40
0.7500009426278484
 40
1.0
 40
1.0
 40
1.0
 40
1.0
 10
84.49799086951226
 20
24.50375836839458
 30
0.0
 10
84.49846065995051
 20
24.49966304909148
 30
0.0
 10
84.49940022890893
 20
24.49147251437895
 30
0.0
 10
84.50662667799065
 20
24.48114446760622
 30
0.0
 10
84.51695625494216
 20
24.47391659475254
 30
0.0
 10
84.52514605333569
 20
24.47297764217148
 30
0.0
 10
84.52924092184233
 20
24.47250816939955
 30
0.0
  0
SPLINE
  5
2C7
330
1F
100
AcDbEntity
  8
SLD-0
  6
Continuous
370
    15
100
AcDbSpline
210
0.0
220
0.0
230
1.0
 70
     8
 71
     3
 72
    15
 73
    11
 74
     0
 42
0.00000001
 43
0.00000001
 12
1.0
 22
0.0
 32
0.0
 13
1.0
 23
0.0
 33
0.0
 40
0.0
 40
0.0
 40
0.0
 40
0.0
 40
0.1250021095245681
 40
0.2499986780525885
 40
0.3749989096020675
 40
0.5000004569608305
 40
0.6250009152241891
 40
0.750000086794003
 40
0.8749998481351965
 40
1.0
 40
1.0
 40
1.0
 40
1.0
 10
84.44799087378316
 20
24.50375836839458
 30
0.0
 10
84.44829325929278
 20
24.49844041764839
 30
0.0
 10
84.44889801690816
 20
24.487804751886
 30
0.0
 10
84.45372954348035
 20
24.4724650016667
 30
0.0
 10
84.4612386000416
 20
24.45832677619588
 30
0.0
 10
84.47142093098289
 20
24.44593792478184
 30
0.0
 10
84.4838089530447
 20
24.43575529814428
 30
0.0
 10
84.49794782436004
 20
24.4282468858001
 30
0.0
 10
84.51328756542925
 20
24.42341444479928
 30
0.0
 10
84.5239231308334
 20
24.4228103621379
 30
0.0
 10
84.52924092184233
 20
24.4225083203354
 30
0.0
  0
LINE
  5
2C8
330
1F
100
AcDbEntity
  8
SLD-0
  6
Continuous
370
    15
100
AcDbLine
 10
84.4979908695
 20
24.5037583684
 30
0.0
 11
84.4979908695
 21
25.222508252
 31
0.0
  0
LINE
  5
2C9
330
1F
100
AcDbEntity
  8
SLD-0
  6
Continuous
370
    15
100
AcDbLine
 10
84.4479908738
 20
24.5037583684
 30
0.0
 11
84.4479908738
 21
25.222508252
 31
0.0
  0
LINE
  5
2CA
330
1F
100
AcDbEntity
  8
SLD-0
  6
Continuous
370
    15
100
AcDbLine
 10
84.4479908738
 20
25.222508252
 30
0.0
 11
84.4979908695
 21
25.222508252
 31
0.0
  0
LINE
  5
2CB
330
1F
100
AcDbEntity
  8
SLD-0
  6
Continuous
370
    15
100
AcDbLine
 10
99.3194911303
 20
24.3025082133
 30
0.0
 11
99.3194911303
 21
24.4275078359
 31
0.0
  0
LINE
  5
2CC
330
1F
100
AcDbEntity
  8
SLD-0
  6
Continuous
370
    15
100
AcDbLine
 10
99.3194911303
 20
24.3025082133
 30
0.0
 11
99.2989908871
 21
24.3025082133
 31
0.0
  0
LINE
  5
2CD
330
1F
100
AcDbEntity
  8
SLD-0
  6
Continuous
370
    15
100
AcDbLine
 10
87.319490982
 20
24.3025082133
 30
0.0
 11
87.319490982
 21
24.4275078359
 31
0.0
  0
LINE
  5
2CE
330
1F
100
AcDbEntity
  8
SLD-0
  6
Continuous
370
    15
100
AcDbLine
 10
99.3194911303
 20
24.4275078359
 30
0.0
 11
87.319490982
 21
24.4275078359
 31
0.0
  0
LINE
  5
2CF
330
1F
100
AcDbEntity
  8
SLD-0
  6
Continuous
370
    15
100
AcDbLine
 10
87.319490982
 20
24.4671085518
 30
0.0
 11
87.319490982
 21
24.4275078359
 31
0.0
  0
LINE
  5
2D0
330
1F
100
AcDbEntity
  8
SLD-0
  6
Continuous
370
    15
100
AcDbLine
 10
87.319490982
 20
24.4671085518
 30
0.0
 11
99.3194911303
 21
24.4671085518
 31
0.0
  0
LINE
  5
2D1
330
1F
100
AcDbEntity
  8
SLD-0
  6
Continuous
370
    15
100
AcDbLine
 10
99.3194911303
 20
24.4671085518
 30
0.0
 11
99.3194911303
 21
24.4275078359
 31
0.0
  0
LINE
  5
2D2
330
1F
100
AcDbEntity
  8
SLD-0
  6
Continuous
370
    15
100
AcDbLine
 10
87.319490982
 20
24.4707141635
 30
0.0
 11
87.319490982
 21
24.4671085518
 31
0.0
  0
LINE
  5
2D3
330
1F
100
AcDbEntity
  8
SLD-0
  6
Continuous
370
    15
100
AcDbLine
 10
87.319490982
 20
24.4707141635
 30
0.0
 11
99.3194911303
 21
24.4707141635
 31
0.0
  0
LINE
  5
2D4
330
1F
100
AcDbEntity
  8
SLD-0
  6
Continuous
370
    15
100
AcDbLine
 10
99.3194911303
 20
24.4707141635
 30
0.0
 11
99.3194911303
 21
24.4671085518
 31
0.0
  0
LINE
  5
2D5
330
1F
100
AcDbEntity
  8
SLD-0
  6
Continuous
370
    15
100
AcDbLine
 10
87.319490982
 20
24.5568956745
 30
0.0
 11
87.319490982
 21
24.4707141635
 31
0.0
  0
LINE
  5
2D6
330
1F
100
AcDbEntity
  8
SLD-0
  6
Continuous
370
    15
100
AcDbLine
 10
87.319490982
 20
24.5568956745
 30
0.0
 11
99.3194911303
 21
24.5568956745
 31
0.0
  0
LINE
  5
2D7
330
1F
100
AcDbEntity
  8
SLD-0
  6
Continuous
370
    15
100
AcDbLine
 10
99.3194911303
 20
24.5568956745
 30
0.0
 11
99.3194911303
 21
24.4707141635
 31
0.0
  0
LINE
  5
2D8
330
1F
100
AcDbEntity
  8
SLD-0
  6
Continuous
370
    15
100
AcDbLine
 10
87.319490982
 20
24.5651077397
 30
0.0
 11
87.319490982
 21
24.5568956745
 31
0.0
  0
LINE
  5
2D9
330
1F
100
AcDbEntity
  8
SLD-0
  6
Continuous
370
    15
100
AcDbLine
 10
87.319490982
 20
24.5651077397
 30
0.0
 11
99.3194911303
 21
24.5651077397
 31
0.0
  0
LINE
  5
2DA
330
1F
100
AcDbEntity
  8
SLD-0
  6
Continuous
370
    15
100
AcDbLine
 10
99.3194911303
 20
24.5651077397
 30
0.0
 11
99.3194911303
 21
24.5568956745
 31
0.0
  0
LINE
  5
2DB
330
1F
100
AcDbEntity
  8
SLD-0
  6
Continuous
370
    15
100
AcDbLine
 10
84.3467449634
 20
25.9295566175
 30
0.0
 11
84.3803448819
 21
25.9295566175
 31
0.0
  0
LINE
  5
2DC
330
1F
100
AcDbEntity
  8
SLD-0
  6
Continuous
370
    15
100
AcDbLine
 10
84.3803448819
 20
25.9295566175
 30
0.0
 11
84.3803448819
 21
25.5545565762
 31
0.0
  0
LINE
  5
2DD
330
1F
100
AcDbEntity
  8
SLD-0
  6
Continuous
370
    15
100
AcDbLine
 10
84.3803448819
 20
25.5545565762
 30
0.0
 11
84.3467449634
 21
25.5545565762
 31
0.0
  0
LINE
  5
2DE
330
1F
100
AcDbEntity
  8
SLD-0
  6
Continuous
370
    15
100
AcDbLine
 10
84.3467449634
 20
25.5545565762
 30
0.0
 11
84.3467449634
 21
25.9295566175
 31
0.0
  0
LINE
  5
2DF
330
1F
100
AcDbEntity
  8
SLD-0
  6
Continuous
370
    15
100
AcDbLine
 10
84.3803448819
 20
24.3175079333
 30
0.0
 11
84.3467449634
 21
24.3175079333
 31
0.0
  0
LINE
  5
2E0
330
1F
100
AcDbEntity
  8
SLD-0
  6
Continuous
370
    15
100
AcDbLine
 10
84.3467449634
 20
25.5545565762
 30
0.0
 11
84.3467449634
 21
24.3175079333
 31
0.0
  0
LINE
  5
2E1
330
1F
100
AcDbEntity
  8
SLD-0
  6
Continuous
370
    15
100
AcDbLine
 10
84.3803448819
 20
25.5545565762
 30
0.0
 11
84.3803448819
 21
24.3175079333
 31
0.0
  0
ARC
  5
2E2
330
1F
100
AcDbEntity
  8
SLD-0
  6
Continuous
370
    15
100
AcDbCircle
 10
84.3953449384
 20
24.3175081368
 30
0.0
 40
0.0150000000000041
100
AcDbArc
 50
180.0
 51
270.0
  0
LINE
  5
2E3
330
1F
100
AcDbEntity
  8
SLD-0
  6
Continuous
370
    15
100
AcDbLine
 10
84.3953448953
 20
24.3025082133
 30
0.0
 11
84.3953448953
 21
24.2689078547
 31
0.0
  0
ARC
  5
2E4
330
1F
100
AcDbEntity
  8
SLD-0
  6
Continuous
370
    15
100
AcDbCircle
 10
84.3953449384
 20
24.3175081368
 30
0.0
 40
0.048600000000004
100
AcDbArc
 50
180.0
 51
270.0
  0
LINE
  5
2E5
330
1F
100
AcDbEntity
  8
SLD-0
  6
Continuous
370
    15
100
AcDbLine
 10
84.6153449938
 20
24.2689078547
 30
0.0
 11
84.6153449938
 21
24.3025082133
 31
0.0
  0
LINE
  5
2E6
330
1F
100
AcDbEntity
  8
SLD-0
  6
Continuous
370
    15
100
AcDbLine
 10
84.3953448953
 20
24.2689078547
 30
0.0
 11
84.6153449938
 21
24.2689078547
 31
0.0
  0
LINE
  5
2E7
330
1F
100
AcDbEntity
  8
SLD-0
  6
Continuous
370
    15
100
AcDbLine
 10
84.3953448953
 20
24.3025082133
 30
0.0
 11
84.6153449938
 21
24.3025082133
 31
0.0
  0
SPLINE
  5
2E8
330
1F
100
AcDbEntity
  8
SLD-0
  6
Continuous
370
    15
100
AcDbSpline
210
0.0
220
0.0
230
1.0
 70
     8
 71
     3
 72
    11
 73
     7
 74
     0
 42
0.00000001
 43
0.00000001
 12
1.0
 22
0.0
 32
0.0
 13
1.0
 23
0.0
 33
0.0
 40
0.0
 40
0.0
 40
0.0
 40
0.0
 40
0.2499955776988418
 40
0.4999970843624382
 40
0.749999996121688
 40
1.0
 40
1.0
 40
1.0
 40
1.0
 10
85.38084492404023
 20
24.30250821325355
 30
0.0
 10
85.3848688613397
 20
24.30177765329965
 30
0.0
 10
85.39291683137148
 20
24.30031651606568
 30
0.0
 10
85.40384944813579
 20
24.28907774576945
 30
0.0
 10
85.41297400927934
 20
24.27301328143065
 30
0.0
 10
85.4167980149193
 20
24.26027649224286
 30
0.0
 10
85.41871000661956
 20
24.2539081346858
 30
0.0
  0
SPLINE
  5
2E9
330
1F
100
AcDbEntity
  8
SLD-0
  6
Continuous
370
    15
100
AcDbSpline
210
0.0
220
0.0
230
1.0
 70
     8
 71
     3
 72
    11
 73
     7
 74
     0
 42
0.00000001
 43
0.00000001
 12
1.0
 22
0.0
 32
0.0
 13
1.0
 23
0.0
 33
0.0
 40
0.0
 40
0.0
 40
0.0
 40
0.0
 40
0.2499966074248824
 40
0.5000019788011605
 40
0.7499967980321213
 40
1.0
 40
1.0
 40
1.0
 40
1.0
 10
98.92063867118746
 20
24.2539081346858
 30
0.0
 10
98.92422445574597
 20
24.26027653501841
 30
0.0
 10
98.93139615056725
 20
24.27301355893607
 30
0.0
 10
98.93876516486104
 20
24.28907740095211
 30
0.0
 10
98.94432517319798
 20
24.30031679225245
 30
0.0
 10
98.94727363667779
 20
24.30177773142203
 30
0.0
 10
98.948747893134
 20
24.30250821325355
 30
0.0
  0
LINE
  5
2EA
330
1F
100
AcDbEntity
  8
SLD-0
  6
Continuous
370
    15
100
AcDbLine
 10
98.9206386712
 20
24.2539081347
 30
0.0
 11
85.4187100066
 21
24.2539081347
 31
0.0
  0
LINE
  5
2EB
330
1F
100
AcDbEntity
  8
SLD-0
  6
Continuous
370
    15
100
AcDbLine
 10
98.9487478931
 20
24.3025082133
 30
0.0
 11
85.380844924
 21
24.3025082133
 31
0.0
  0
LINE
  5
2EC
330
1F
100
AcDbEntity
  8
SLD-0
  6
Continuous
370
    15
100
AcDbLine
 10
85.4187100066
 20
24.2539081347
 30
0.0
 11
85.4061232187
 21
24.2539081347
 31
0.0
  0
SPLINE
  5
2ED
330
1F
100
AcDbEntity
  8
SLD-0
  6
Continuous
370
    15
100
AcDbSpline
210
0.0
220
0.0
230
1.0
 70
     8
 71
     3
 72
    11
 73
     7
 74
     0
 42
0.00000001
 43
0.00000001
 12
1.0
 22
0.0
 32
0.0
 13
1.0
 23
0.0
 33
0.0
 40
0.0
 40
0.0
 40
0.0
 40
0.0
 40
0.2499900760874176
 40
0.4999865442837441
 40
0.7500055346675824
 40
1.0
 40
1.0
 40
1.0
 40
1.0
 10
85.38084492404023
 20
24.26890785474109
 30
0.0
 10
85.38321950427571
 20
24.26868240178198
 30
0.0
 10
85.38796872546342
 20
24.26823149009905
 30
0.0
 10
85.39474120654685
 20
24.26476324465751
 30
0.0
 10
85.40095481528317
 20
24.25980445109375
 30
0.0
 10
85.40440047388944
 20
24.25587350921915
 30
0.0
 10
85.40612321868988
 20
24.2539081346858
 30
0.0
  0
LINE
  5
2EE
330
1F
100
AcDbEntity
  8
SLD-0
  6
Continuous
370
    15
100
AcDbLine
 10
85.380844924
 20
24.3025082133
 30
0.0
 11
85.380844924
 21
24.2689078547
 31
0.0
  0
LINE
  5
2EF
330
1F
100
AcDbEntity
  8
SLD-0
  6
Continuous
370
    15
100
AcDbLine
 10
98.4709544793
 20
23.7689081908
 30
0.0
 11
98.9206386712
 21
24.2539081347
 31
0.0
  0
LINE
  5
2F0
330
1F
100
AcDbEntity
  8
SLD-0
  6
Continuous
370
    15
100
AcDbLine
 10
98.4709544793
 20
23.7689081908
 30
0.0
 11
85.6095894816
 21
23.7689081908
 31
0.0
  0
LINE
  5
2F1
330
1F
100
AcDbEntity
  8
SLD-0
  6
Continuous
370
    15
100
AcDbLine
 10
85.4187100066
 20
24.2539081347
 30
0.0
 11
85.6095894816
 21
23.7689081908
 31
0.0
  0
LINE
  5
2F2
330
1F
100
AcDbEntity
  8
SLD-0
  6
Continuous
370
    15
100
AcDbLine
 10
85.4061232187
 20
24.2539081347
 30
0.0
 11
85.5970026936
 21
23.7689081908
 31
0.0
  0
LINE
  5
2F3
330
1F
100
AcDbEntity
  8
SLD-0
  6
Continuous
370
    15
100
AcDbLine
 10
85.6095894816
 20
23.7689081908
 30
0.0
 11
85.5970026936
 21
23.7689081908
 31
0.0
  0
SPLINE
  5
2F4
330
1F
100
AcDbEntity
  8
SLD-0
  6
Continuous
370
    15
100
AcDbSpline
210
0.0
220
0.0
230
1.0
 70
     8
 71
     3
 72
    10
 73
     6
 74
     0
 42
0.00000001
 43
0.00000001
 12
1.0
 22
0.0
 32
0.0
 13
1.0
 23
0.0
 33
0.0
 40
0.0
 40
0.0
 40
0.0
 40
0.0
 40
0.1682261943016652
 40
0.5841007094428152
 40
1.0
 40
1.0
 40
1.0
 40
1.0
 10
98.92537301649591
 20
24.26254611489912
 30
0.0
 10
98.92678122234128
 20
24.26322559205624
 30
0.0
 10
98.93167067512083
 20
24.26558481495353
 30
0.0
 10
98.93934975883221
 20
24.26818735188413
 30
0.0
 10
98.94561511949289
 20
24.26866768235302
 30
0.0
 10
98.948747893134
 20
24.26890785474109
 30
0.0
  0
LINE
  5
2F5
330
1F
100
AcDbEntity
  8
SLD-0
  6
Continuous
370
    15
100
AcDbLine
 10
84.6153449938
 20
24.2689078547
 30
0.0
 11
85.380844924
 21
24.2689078547
 31
0.0
  0
LINE
  5
2F6
330
1F
100
AcDbEntity
  8
SLD-0
  6
Continuous
370
    15
100
AcDbLine
 10
84.6153449938
 20
24.3025082133
 30
0.0
 11
85.380844924
 21
24.3025082133
 31
0.0
  0
LINE
  5
2F7
330
1F
100
AcDbEntity
  8
SLD-0
  6
Continuous
370
    15
100
AcDbLine
 10
98.9487478931
 20
24.3025082133
 30
0.0
 11
98.9487478931
 21
24.2689078547
 31
0.0
  0
LINE
  5
2F8
330
1F
100
AcDbEntity
  8
SLD-0
  6
Continuous
370
    15
100
AcDbLine
 10
99.2989908871
 20
24.3025082133
 30
0.0
 11
99.2989908871
 21
24.2689078547
 31
0.0
  0
LINE
  5
2F9
330
1F
100
AcDbEntity
  8
SLD-0
  6
Continuous
370
    15
100
AcDbLine
 10
99.2989908871
 20
24.2689078547
 30
0.0
 11
98.9487478931
 21
24.2689078547
 31
0.0
  0
LINE
  5
2FA
330
1F
100
AcDbEntity
  8
SLD-0
  6
Continuous
370
    15
100
AcDbLine
 10
99.2989908871
 20
24.3025082133
 30
0.0
 11
98.9487478931
 21
24.3025082133
 31
0.0
  0
SPLINE
  5
2FB
330
1F
100
AcDbEntity
  8
SLD-0
  6
Continuous
370
    15
100
AcDbSpline
210
0.0
220
0.0
230
1.0
 70
     8
 71
     3
 72
    11
 73
     7
 74
     0
 42
0.00000001
 43
0.00000001
 12
1.0
 22
0.0
 32
0.0
 13
1.0
 23
0.0
 33
0.0
 40
0.0
 40
0.0
 40
0.0
 40
0.0
 40
0.2499980279237378
 40
0.5000009609334737
 40
0.7500019720762623
 40
1.0
 40
1.0
 40
1.0
 40
1.0
 10
99.29899088709705
 20
24.30250821325355
 30
0.0
 10
99.30535925652511
 20
24.30177765248456
 30
0.0
 10
99.31809612033182
 20
24.30031651661261
 30
0.0
 10
99.33416046894482
 20
24.2890778576115
 30
0.0
 10
99.34539932000631
 20
24.27301327437773
 30
0.0
 10
99.34686042001782
 20
24.26027648925198
 30
0.0
 10
99.34759096566479
 20
24.2539081346858
 30
0.0
  0
LINE
  5
2FC
330
1F
100
AcDbEntity
  8
SLD-0
  6
Continuous
370
    15
100
AcDbLine
 10
99.3475909657
 20
24.2539081347
 30
0.0
 11
99.3139906072
 21
24.2539081347
 31
0.0
  0
SPLINE
  5
2FD
330
1F
100
AcDbEntity
  8
SLD-0
  6
Continuous
370
    15
100
AcDbSpline
210
0.0
220
0.0
230
1.0
 70
     8
 71
     3
 72
    11
 73
     7
 74
     0
 42
0.00000001
 43
0.00000001
 12
1.0
 22
0.0
 32
0.0
 13
1.0
 23
0.0
 33
0.0
 40
0.0
 40
0.0
 40
0.0
 40
0.0
 40
0.2499883248186861
 40
0.5000061964014368
 40
0.750011675181314
 40
1.0
 40
1.0
 40
1.0
 40
1.0
 10
99.29899088709705
 20
24.26890785474109
 30
0.0
 10
99.30095626711295
 20
24.26868235334842
 30
0.0
 10
99.30488725943809
 20
24.26823132391051
 30
0.0
 10
99.30984609471788
 20
24.2647636230814
 30
0.0
 10
99.31331417777487
 20
24.25980432086369
 30
0.0
 10
99.31376513585037
 20
24.25587348512494
 30
0.0
 10
99.31399060715233
 20
24.2539081346858
 30
0.0
  0
LINE
  5
2FE
330
1F
100
AcDbEntity
  8
SLD-0
  6
Continuous
370
    15
100
AcDbLine
 10
99.3139906072
 20
24.2539081347
 30
0.0
 11
99.3139906072
 21
23.7689081908
 31
0.0
  0
LINE
  5
2FF
330
1F
100
AcDbEntity
  8
SLD-0
  6
Continuous
370
    15
100
AcDbLine
 10
99.3475909657
 20
24.2539081347
 30
0.0
 11
99.3475909657
 21
23.7689081908
 31
0.0
  0
LINE
  5
300
330
1F
100
AcDbEntity
  8
SLD-0
  6
Continuous
370
    15
100
AcDbLine
 10
99.3475909657
 20
23.7689081908
 30
0.0
 11
99.3139906072
 21
23.7689081908
 31
0.0
  0
SPLINE
  5
301
330
1F
100
AcDbEntity
  8
SLD-0
  6
Continuous
370
    15
100
AcDbSpline
210
0.0
220
0.0
230
1.0
 70
     8
 71
     3
 72
    11
 73
     7
 74
     0
 42
0.00000001
 43
0.00000001
 12
1.0
 22
0.0
 32
0.0
 13
1.0
 23
0.0
 33
0.0
 40
0.0
 40
0.0
 40
0.0
 40
0.0
 40
0.2499992528801771
 40
0.5000042816054255
 40
0.7500062290735476
 40
1.0
 40
1.0
 40
1.0
 40
1.0
 10
85.4116563014379
 20
3.25390816847741
 30
0.0
 10
85.40974445440256
 20
3.2475397930155
 30
0.0
 10
85.4059207161616
 20
3.234802894960245
 30
0.0
 10
85.3967956761812
 20
3.218738629685202
 30
0.0
 10
85.38586313597787
 20
3.207499810521495
 30
0.0
 10
85.37781534291585
 20
3.206038655482077
 30
0.0
 10
85.37379151218852
 20
3.205308089909667
 30
0.0
  0
LINE
  5
302
330
1F
100
AcDbEntity
  8
SLD-0
  6
Continuous
370
    15
100
AcDbLine
 10
85.4116563014
 20
3.2539081685
 30
0.0
 11
98.9273793933
 21
3.2539081685
 31
0.0
  0
SPLINE
  5
303
330
1F
100
AcDbEntity
  8
SLD-0
  6
Continuous
370
    15
100
AcDbSpline
210
0.0
220
0.0
230
1.0
 70
     8
 71
     3
 72
    11
 73
     7
 74
     0
 42
0.00000001
 43
0.00000001
 12
1.0
 22
0.0
 32
0.0
 13
1.0
 23
0.0
 33
0.0
 40
0.0
 40
0.0
 40
0.0
 40
0.0
 40
0.2499967787333644
 40
0.5000003748412357
 40
0.7500020472964898
 40
1.0
 40
1.0
 40
1.0
 40
1.0
 10
98.92788626746261
 20
3.205308089909667
 30
0.0
 10
98.92871258124246
 20
3.206038658493472
 30
0.0
 10
98.93036523133561
 20
3.207499815583579
 30
0.0
 10
98.93170541137091
 20
3.218738449245027
 30
0.0
 10
98.93123641082933
 20
3.234802997631859
 30
0.0
 10
98.9286650594453
 20
3.247539809780768
 30
0.0
 10
98.92737939331806
 20
3.25390816847741
 30
0.0
  0
LINE
  5
304
330
1F
100
AcDbEntity
  8
SLD-0
  6
Continuous
370
    15
100
AcDbLine
 10
98.9278862675
 20
3.2053080899
 30
0.0
 11
85.3737915122
 21
3.2053080899
 31
0.0
  0
LINE
  5
305
330
1F
100
AcDbEntity
  8
SLD-0
  6
Continuous
370
    15
100
AcDbLine
 10
85.3737915122
 20
3.2389084484
 30
0.0
 11
85.3737915122
 21
3.2053080899
 31
0.0
  0
SPLINE
  5
306
330
1F
100
AcDbEntity
  8
SLD-0
  6
Continuous
370
    15
100
AcDbSpline
210
0.0
220
0.0
230
1.0
 70
     8
 71
     3
 72
    11
 73
     7
 74
     0
 42
0.00000001
 43
0.00000001
 12
1.0
 22
0.0
 32
0.0
 13
1.0
 23
0.0
 33
0.0
 40
0.0
 40
0.0
 40
0.0
 40
0.0
 40
0.2499964464138695
 40
0.5000174180735083
 40
0.7500079428659133
 40
1.0
 40
1.0
 40
1.0
 40
1.0
 10
85.39906951350822
 20
3.253908168477412
 30
0.0
 10
85.39734677093637
 20
3.251942791380377
 30
0.0
 10
85.3939011167875
 20
3.248011844378146
 30
0.0
 10
85.38768754027114
 20
3.243053141666446
 30
0.0
 10
85.38091526663055
 20
3.239584763119192
 30
0.0
 10
85.37616610185425
 20
3.239133887115092
 30
0.0
 10
85.37379151218852
 20
3.238908448422125
 30
0.0
  0
LINE
  5
307
330
1F
100
AcDbEntity
  8
SLD-0
  6
Continuous
370
    15
100
AcDbLine
 10
85.3990695135
 20
3.2539081685
 30
0.0
 11
85.4116563014
 21
3.2539081685
 31
0.0
  0
LINE
  5
308
330
1F
100
AcDbEntity
  8
SLD-0
  6
Continuous
370
    15
100
AcDbLine
 10
98.4783053277
 20
3.7389081124
 30
0.0
 11
98.9269663848
 21
3.2550110891
 31
0.0
  0
LINE
  5
309
330
1F
100
AcDbEntity
  8
SLD-0
  6
Continuous
370
    15
100
AcDbLine
 10
98.9269663848
 20
3.2550110891
 30
0.0
 11
98.9273793933
 21
3.2539081685
 31
0.0
  0
LINE
  5
30A
330
1F
100
AcDbEntity
  8
SLD-0
  6
Continuous
370
    15
100
AcDbLine
 10
85.4116563014
 20
3.2539081685
 30
0.0
 11
85.6025360697
 21
3.7389081124
 31
0.0
  0
LINE
  5
30B
330
1F
100
AcDbEntity
  8
SLD-0
  6
Continuous
370
    15
100
AcDbLine
 10
98.4783053277
 20
3.7389081124
 30
0.0
 11
85.6025360697
 21
3.7389081124
 31
0.0
  0
LINE
  5
30C
330
1F
100
AcDbEntity
  8
SLD-0
  6
Continuous
370
    15
100
AcDbLine
 10
85.3990695135
 20
3.2539081685
 30
0.0
 11
85.5899492818
 21
3.7389081124
 31
0.0
  0
LINE
  5
30D
330
1F
100
AcDbEntity
  8
SLD-0
  6
Continuous
370
    15
100
AcDbLine
 10
85.5899492818
 20
3.7389081124
 30
0.0
 11
85.6025360697
 21
3.7389081124
 31
0.0
  0
LINE
  5
30E
330
1F
100
AcDbEntity
  8
SLD-0
  6
Continuous
370
    15
100
AcDbLine
 10
85.3737915122
 20
3.2053080899
 30
0.0
 11
85.3300413509
 21
3.2053080899
 31
0.0
  0
LINE
  5
30F
330
1F
100
AcDbEntity
  8
SLD-0
  6
Continuous
370
    15
100
AcDbLine
 10
85.3300413509
 20
3.2389084484
 30
0.0
 11
85.3300413509
 21
3.2053080899
 31
0.0
  0
LINE
  5
310
330
1F
100
AcDbEntity
  8
SLD-0
  6
Continuous
370
    15
100
AcDbLine
 10
85.3737915122
 20
3.2389084484
 30
0.0
 11
85.3300413509
 21
3.2389084484
 31
0.0
  0
LINE
  5
311
330
1F
100
AcDbEntity
  8
SLD-0
  6
Continuous
370
    15
100
AcDbLine
 10
84.4380414154
 20
3.2389084484
 30
0.0
 11
84.4380414154
 21
3.2053080899
 31
0.0
  0
LINE
  5
312
330
1F
100
AcDbEntity
  8
SLD-0
  6
Continuous
370
    15
100
AcDbLine
 10
85.3300413509
 20
3.2053080899
 30
0.0
 11
84.4380414154
 21
3.2053080899
 31
0.0
  0
LINE
  5
313
330
1F
100
AcDbEntity
  8
SLD-0
  6
Continuous
370
    15
100
AcDbLine
 10
85.3300413509
 20
3.2389084484
 30
0.0
 11
84.4380414154
 21
3.2389084484
 31
0.0
  0
ARC
  5
314
330
1F
100
AcDbEntity
  8
SLD-0
  6
Continuous
370
    15
100
AcDbCircle
 10
84.4380413857
 20
3.2539081368
 30
0.0
 40
0.0486000000000022
100
AcDbArc
 50
180.0
 51
270.0
  0
ARC
  5
315
330
1F
100
AcDbEntity
  8
SLD-0
  6
Continuous
370
    15
100
AcDbCircle
 10
84.4380413857
 20
3.2539081368
 30
0.0
 40
0.0150000000000032
100
AcDbArc
 50
180.0
 51
270.0
  0
LINE
  5
316
330
1F
100
AcDbEntity
  8
SLD-0
  6
Continuous
370
    15
100
AcDbLine
 10
99.3037909383
 20
3.2389084484
 30
0.0
 11
99.3037909383
 21
3.2053080899
 31
0.0
  0
LINE
  5
317
330
1F
100
AcDbEntity
  8
SLD-0
  6
Continuous
370
    15
100
AcDbLine
 10
98.9278862675
 20
3.2053080899
 30
0.0
 11
99.3037909383
 21
3.2053080899
 31
0.0
  0
LINE
  5
318
330
1F
100
AcDbEntity
  8
SLD-0
  6
Continuous
370
    15
100
AcDbLine
 10
98.930034616
 20
3.2389084484
 30
0.0
 11
99.3037909383
 21
3.2389084484
 31
0.0
  0
LINE
  5
319
330
1F
100
AcDbEntity
  8
SLD-0
  6
Continuous
370
    15
100
AcDbLine
 10
99.3187918317
 20
3.2539081685
 30
0.0
 11
99.3523910169
 21
3.2539081685
 31
0.0
  0
SPLINE
  5
31A
330
1F
100
AcDbEntity
  8
SLD-0
  6
Continuous
370
    15
100
AcDbSpline
210
0.0
220
0.0
230
1.0
 70
     8
 71
     3
 72
    11
 73
     7
 74
     0
 42
0.00000001
 43
0.00000001
 12
1.0
 22
0.0
 32
0.0
 13
1.0
 23
0.0
 33
0.0
 40
0.0
 40
0.0
 40
0.0
 40
0.0
 40
0.2499980279180045
 40
0.4999990390550597
 40
0.7500000501921149
 40
1.0
 40
1.0
 40
1.0
 40
1.0
 10
99.35239101688086
 20
3.253908168477412
 30
0.0
 10
99.35166046642517
 20
3.247539811865231
 30
0.0
 10
99.35019935679618
 20
3.234803022647456
 30
0.0
 10
99.33896060666585
 20
3.218738511269411
 30
0.0
 10
99.32289600249896
 20
3.207499717094446
 30
0.0
 10
99.31015928402985
 20
3.206038631270797
 30
0.0
 10
99.30379093831311
 20
3.205308089909667
 30
0.0
  0
SPLINE
  5
31B
330
1F
100
AcDbEntity
  8
SLD-0
  6
Continuous
370
    15
100
AcDbSpline
210
0.0
220
0.0
230
1.0
 70
     8
 71
     3
 72
    11
 73
     7
 74
     0
 42
0.00000001
 43
0.00000001
 12
1.0
 22
0.0
 32
0.0
 13
1.0
 23
0.0
 33
0.0
 40
0.0
 40
0.0
 40
0.0
 40
0.0
 40
0.2499914603235912
 40
0.4999944630132964
 40
0.7499735590127098
 40
1.0
 40
1.0
 40
1.0
 40
1.0
 10
99.31879183168819
 20
3.253908168477412
 30
0.0
 10
99.3185658851573
 20
3.251942815885097
 30
0.0
 10
99.31811398166337
 20
3.248012019958082
 30
0.0
 10
99.31464623823331
 20
3.243053053755945
 30
0.0
 10
99.30968813377925
 20
3.239584556012817
 30
0.0
 10
99.30575679421992
 20
3.239133831845218
 30
0.0
 10
99.30379093831311
 20
3.238908448422125
 30
0.0
  0
LINE
  5
31C
330
1F
100
AcDbEntity
  8
SLD-0
  6
Continuous
370
    15
100
AcDbLine
 10
99.3523910169
 20
3.2539081685
 30
0.0
 11
99.3523910169
 21
3.7389081124
 31
0.0
  0
LINE
  5
31D
330
1F
100
AcDbEntity
  8
SLD-0
  6
Continuous
370
    15
100
AcDbLine
 10
99.3187918317
 20
3.2539081685
 30
0.0
 11
99.3187918317
 21
3.7389081124
 31
0.0
  0
LINE
  5
31E
330
1F
100
AcDbEntity
  8
SLD-0
  6
Continuous
370
    15
100
AcDbLine
 10
99.3187918317
 20
3.7389081124
 30
0.0
 11
99.3523910169
 21
3.7389081124
 31
0.0
  0
LINE
  5
31F
330
1F
100
AcDbEntity
  8
SLD-0
  6
Continuous
370
    15
100
AcDbLine
 10
98.9273793933
 20
3.2539081685
 30
0.0
 11
98.930034616
 21
3.2389084484
 31
0.0
  0
LINE
  5
320
330
1F
100
AcDbEntity
  8
SLD-0
  6
Continuous
370
    15
100
AcDbLine
 10
84.3453913924
 20
9.2539082426
 30
0.0
 11
84.3849913749
 21
9.2539082426
 31
0.0
  0
LINE
  5
321
330
1F
100
AcDbEntity
  8
SLD-0
  6
Continuous
370
    15
100
AcDbLine
 10
84.3453913924
 20
24.2539081347
 30
0.0
 11
84.3453913924
 21
9.2539082426
 31
0.0
  0
LINE
  5
322
330
1F
100
AcDbEntity
  8
SLD-0
  6
Continuous
370
    15
100
AcDbLine
 10
84.3453913924
 20
24.2539081347
 30
0.0
 11
84.3849913749
 21
24.2539081347
 31
0.0
  0
LINE
  5
323
330
1F
100
AcDbEntity
  8
SLD-0
  6
Continuous
370
    15
100
AcDbLine
 10
84.3849913749
 20
24.2539081347
 30
0.0
 11
84.3849913749
 21
9.2539082426
 31
0.0
  0
LINE
  5
324
330
1F
100
AcDbEntity
  8
SLD-0
  6
Continuous
370
    15
100
AcDbLine
 10
84.3849913749
 20
3.6289082098
 30
0.0
 11
84.3453913924
 21
3.6289082098
 31
0.0
  0
LINE
  5
325
330
1F
100
AcDbEntity
  8
SLD-0
  6
Continuous
370
    15
100
AcDbLine
 10
84.3453913924
 20
3.2539081685
 30
0.0
 11
84.3849913749
 21
3.2539081685
 31
0.0
  0
LINE
  5
326
330
1F
100
AcDbEntity
  8
SLD-0
  6
Continuous
370
    15
100
AcDbLine
 10
84.3453913924
 20
3.6289082098
 30
0.0
 11
84.3453913924
 21
3.2539081685
 31
0.0
  0
LINE
  5
327
330
1F
100
AcDbEntity
  8
SLD-0
  6
Continuous
370
    15
100
AcDbLine
 10
84.3849913749
 20
3.2539081685
 30
0.0
 11
84.3849913749
 21
3.6289082098
 31
0.0
  0
LINE
  5
328
330
1F
100
AcDbEntity
  8
SLD-0
  6
Continuous
370
    15
100
AcDbLine
 10
84.3453913924
 20
7.7539080774
 30
0.0
 11
84.3453913924
 21
3.6289082098
 31
0.0
  0
LINE
  5
329
330
1F
100
AcDbEntity
  8
SLD-0
  6
Continuous
370
    15
100
AcDbLine
 10
84.3453913924
 20
7.7539080774
 30
0.0
 11
84.3849913749
 21
7.7539080774
 31
0.0
  0
LINE
  5
32A
330
1F
100
AcDbEntity
  8
SLD-0
  6
Continuous
370
    15
100
AcDbLine
 10
84.3849913749
 20
7.7539080774
 30
0.0
 11
84.3849913749
 21
3.6289082098
 31
0.0
  0
LINE
  5
32B
330
1F
100
AcDbEntity
  8
SLD-0
  6
Continuous
370
    15
100
AcDbLine
 10
84.3453913924
 20
9.2479081786
 30
0.0
 11
84.3453913924
 21
7.7539080774
 31
0.0
  0
LINE
  5
32C
330
1F
100
AcDbEntity
  8
SLD-0
  6
Continuous
370
    15
100
AcDbLine
 10
84.3849913749
 20
9.2539082426
 30
0.0
 11
84.3849913749
 21
7.7539080774
 31
0.0
  0
LINE
  5
32D
330
1F
100
AcDbEntity
  8
SLD-0
  6
Continuous
370
    15
100
AcDbLine
 10
84.3999913883
 20
24.2539081347
 30
0.0
 11
84.3999913883
 21
3.2539081685
 31
0.0
  0
LINE
  5
32E
330
1F
100
AcDbEntity
  8
SLD-0
  6
Continuous
370
    15
100
AcDbLine
 10
84.3849913749
 20
3.2539081685
 30
0.0
 11
84.3999913883
 21
3.2539081685
 31
0.0
  0
LINE
  5
32F
330
1F
100
AcDbEntity
  8
SLD-0
  6
Continuous
370
    15
100
AcDbLine
 10
84.3999913883
 20
24.2539081347
 30
0.0
 11
84.3849913749
 21
24.2539081347
 31
0.0
  0
LINE
  5
330
330
1F
100
AcDbEntity
  8
SLD-0
  6
Continuous
370
    15
100
AcDbLine
 10
84.3999913883
 20
24.2539081347
 30
0.0
 11
85.3893781855
 21
24.2539081347
 31
0.0
  0
LINE
  5
331
330
1F
100
AcDbEntity
  8
SLD-0
  6
Continuous
370
    15
100
AcDbLine
 10
85.3893781855
 20
24.2539081347
 30
0.0
 11
85.3893781855
 21
3.2539081685
 31
0.0
  0
LINE
  5
332
330
1F
100
AcDbEntity
  8
SLD-0
  6
Continuous
370
    15
100
AcDbLine
 10
84.3999913883
 20
3.2539081685
 30
0.0
 11
85.3893781855
 21
3.2539081685
 31
0.0
  0
LINE
  5
333
330
1F
100
AcDbEntity
  8
SLD-0
  6
Continuous
370
    15
100
AcDbLine
 10
85.4062604971
 20
24.2539081347
 30
0.0
 11
85.3893781855
 21
24.2539081347
 31
0.0
  0
LINE
  5
334
330
1F
100
AcDbEntity
  8
SLD-0
  6
Continuous
370
    15
100
AcDbLine
 10
85.3893781855
 20
3.2539081685
 30
0.0
 11
85.3992572447
 21
3.2539081685
 31
0.0
  0
LINE
  5
335
330
1F
100
AcDbEntity
  8
SLD-0
  6
Continuous
370
    15
100
AcDbLine
 10
99.277845318
 20
24.2539081347
 30
0.0
 11
99.277845318
 21
3.2539081685
 31
0.0
  0
LWPOLYLINE
  5
336
330
1F
100
AcDbEntity
  8
SLD-0
  6
Continuous
370
    15
100
AcDbPolyline
 90
      142
 70
   128
 43
0.0
 10
92.7761999989
 20
5.2539079976
 10
92.7771492146
 20
5.299846987
 10
92.7799945151
 20
5.345695044
 10
92.784731207
 20
5.3913600631
 10
92.7913487306
 20
5.4367528721
 10
92.7998353526
 20
5.4817825385
 10
92.8101734731
 20
5.5263598903
 10
92.8223419726
 20
5.5703957549
 10
92.8363173845
 20
5.6138038934
 10
92.8520715491
 20
5.6564968936
 10
92.869572787
 20
5.6983908629
 10
92.888788245
 20
5.7394024958
 10
92.9096780303
 20
5.7794502465
 10
92.9322010768
 20
5.8184543293
 10
92.9563127983
 20
5.8563378917
 10
92.9819662619
 20
5.8930252545
 10
93.0091086684
 20
5.928443672
 10
93.0376860449
 20
5.962522745
 10
93.0676444188
 20
5.9951950076
 10
93.0989216042
 20
6.0263953405
 10
93.1314565883
 20
6.0560621444
 10
93.1651848387
 20
6.0841367534
 10
93.2000383027
 20
6.1105622615
 10
93.2359489279
 20
6.1352876292
 10
93.272846315
 20
6.1582629905
 10
93.3106553715
 20
6.1794425858
 10
93.3493010051
 20
6.1987847623
 10
93.3887069499
 20
6.2162508006
 10
93.4287969401
 20
6.2318060875
 10
93.46948767
 20
6.2454201169
 10
93.5107017006
 20
6.2570653157
 10
93.5523545527
 20
6.2667193909
 10
93.5943664407
 20
6.2743623959
 10
93.6366505389
 20
6.2799790777
 10
93.6791258883
 20
6.2835588764
 10
93.7217068364
 20
6.2850941653
 10
93.7643077309
 20
6.2845820112
 10
93.8068464395
 20
6.2820241741
 10
93.8492373098
 20
6.2774247606
 10
93.8913958628
 20
6.2707931572
 10
93.9332376194
 20
6.2621428571
 10
93.9746816206
 20
6.2514902868
 10
94.0156445608
 20
6.2388577394
 10
94.0560454807
 20
6.2242692679
 10
94.0958022481
 20
6.2077542054
 10
94.1348385972
 20
6.1893454047
 10
94.1730759154
 20
6.1690798255
 10
94.2104379372
 20
6.1469967739
 10
94.2468507432
 20
6.1231408362
 10
94.2822415877
 20
6.097558945
 10
94.3165412448
 20
6.0703021399
 10
94.3496804886
 20
6.0414243935
 10
94.3815947866
 20
6.0109831985
 10
94.4122196062
 20
5.9790389809
 10
94.441495108
 20
5.9456550999
 10
94.469362626
 20
5.9108972614
 10
94.4957670143
 20
5.8748358646
 10
94.5206554735
 20
5.8375413088
 10
94.5439787241
 20
5.799087513
 10
94.5656898333
 20
5.7595519164
 10
94.5857477349
 20
5.7190125447
 10
94.6041101894
 20
5.6775491837
 10
94.6207431706
 20
5.6352451391
 10
94.6356114789
 20
5.5921837165
 10
94.6486869545
 20
5.5484511551
 10
94.6599426111
 20
5.504133107
 10
94.669357329
 20
5.4593187447
 10
94.6769111618
 20
5.4140966538
 10
94.6825888562
 20
5.3685560066
 10
94.6863810257
 20
5.3227883219
 10
94.6882794571
 20
5.2768833589
 10
94.6882794571
 20
5.230933223
 10
94.6863810257
 20
5.18502826
 10
94.6825888562
 20
5.1392599887
 10
94.6769111618
 20
5.0937199281
 10
94.669357329
 20
5.0484978372
 10
94.6599426111
 20
5.0036828883
 10
94.6486869545
 20
4.9593654269
 10
94.6356114789
 20
4.9156322788
 10
94.6207431706
 20
4.8725714429
 10
94.6041101894
 20
4.8302668116
 10
94.5857477349
 20
4.7888040372
 10
94.5656898333
 20
4.7482640789
 10
94.5439787241
 20
4.7087284823
 10
94.5206554735
 20
4.6702752732
 10
94.4957670143
 20
4.6329807173
 10
94.469362626
 20
4.5969187339
 10
94.441495108
 20
4.5621614821
 10
94.4122196062
 20
4.5287776011
 10
94.3815947866
 20
4.4968327968
 10
94.3496804886
 20
4.4663916018
 10
94.3165412448
 20
4.4375138554
 10
94.2822415877
 20
4.4102570502
 10
94.2468507432
 20
4.3846757458
 10
94.2104379372
 20
4.3608192213
 10
94.1730759154
 20
4.3387367564
 10
94.1348385972
 20
4.3184705906
 10
94.0958022481
 20
4.3000617899
 10
94.0560454807
 20
4.283547314
 10
94.0156445608
 20
4.2689588425
 10
93.9746816206
 20
4.2563257085
 10
93.9332376194
 20
4.2456737249
 10
93.8913958628
 20
4.2370234248
 10
93.8492373098
 20
4.2303918214
 10
93.8068464395
 20
4.2257924079
 10
93.7643077309
 20
4.2232339841
 10
93.7217068364
 20
4.2227224167
 10
93.6791258883
 20
4.2242577056
 10
93.6366505389
 20
4.2278375042
 10
93.5943664407
 20
4.233454186
 10
93.5523545527
 20
4.2410971911
 10
93.5107017006
 20
4.2507506795
 10
93.46948767
 20
4.262396465
 10
93.4287969401
 20
4.2760099077
 10
93.3887069499
 20
4.2915657814
 10
93.3493010051
 20
4.3090318196
 10
93.3106553715
 20
4.3283739962
 10
93.272846315
 20
4.3495535915
 10
93.2359489279
 20
4.3725289527
 10
93.2000383027
 20
4.3972537338
 10
93.1651848387
 20
4.4236798285
 10
93.1314565883
 20
4.4517538509
 10
93.0989216042
 20
4.4814206548
 10
93.0676444188
 20
4.5126209877
 10
93.0376860449
 20
4.5452932503
 10
93.0091086684
 20
4.5793729099
 10
92.9819662619
 20
4.6147913274
 10
92.9563127983
 20
4.6514781036
 10
92.9322010768
 20
4.689361666
 10
92.9096780303
 20
4.7283657488
 10
92.888788245
 20
4.7684134994
 10
92.869572787
 20
4.8094251323
 10
92.8520715491
 20
4.8513191017
 10
92.8363173845
 20
4.8940126885
 10
92.8223419726
 20
4.9374202404
 10
92.8101734731
 20
4.9814566917
 10
92.7998353526
 20
5.0260340434
 10
92.7913487306
 20
5.0710631232
 10
92.784731207
 20
5.1164559322
 10
92.7799945151
 20
5.162121538
 10
92.7771492146
 20
5.2079690083
 10
92.7761999989
 20
5.2539079976
  0
LWPOLYLINE
  5
337
330
1F
100
AcDbEntity
  8
SLD-0
  6
Continuous
370
    15
100
AcDbPolyline
 90
       86
 70
   128
 43
0.0
 10
91.082159142
 20
23.2539076334
 10
91.0831083577
 20
23.2816026735
 10
91.0859518982
 20
23.3091463553
 10
91.0906733369
 20
23.336388494
 10
91.0972474477
 20
23.3631789045
 10
91.1056378574
 20
23.3893732685
 10
91.1157993934
 20
23.4148284411
 10
91.1276763228
 20
23.4394036239
 10
91.1412029399
 20
23.4629662317
 10
91.1563064987
 20
23.4853871994
 10
91.1729042803
 20
23.5065445016
 10
91.1909047657
 20
23.5263208065
 10
91.210211156
 20
23.5446093419
 10
91.2307166792
 20
23.5613103756
 10
91.2523098697
 20
23.5763335621
 10
91.2748722224
 20
23.5895944222
 10
91.298281712
 20
23.6010225569
 10
91.3224098599
 20
23.6105546068
 10
91.3471246677
 20
23.6181389458
 10
91.3722912037
 20
23.6237333345
 10
91.3977716027
 20
23.6273084399
 10
91.4234279996
 20
23.6288443155
 10
91.4491190095
 20
23.6283315747
 10
91.4747050072
 20
23.6257749109
 10
91.5000463678
 20
23.6211872306
 10
91.5250040529
 20
23.6145931734
 10
91.5494419572
 20
23.6060291124
 10
91.5732269091
 20
23.5955419802
 10
91.5962286701
 20
23.5831880962
 10
91.6183216948
 20
23.5690366864
 10
91.6393857182
 20
23.5531640164
 10
91.6593045814
 20
23.5356580853
 10
91.6779709258
 20
23.5166115853
 10
91.6952820858
 20
23.4961312886
 10
91.7111436092
 20
23.4743274871
 10
91.7254686704
 20
23.4513198596
 10
91.7381786569
 20
23.4272351245
 10
91.7492055162
 20
23.402202347
 10
91.758487649
 20
23.3763599789
 10
91.7659751891
 20
23.3498488185
 10
91.7716270705
 20
23.3228143574
 10
91.7754116135
 20
23.2954032607
 10
91.7773094582
 20
23.26776454
 10
91.7773094582
 20
23.2400519002
 10
91.7754116135
 20
23.2124131795
 10
91.7716270705
 20
23.1850020828
 10
91.7659751891
 20
23.1579676218
 10
91.758487649
 20
23.1314564613
 10
91.7492055162
 20
23.1056140932
 10
91.7381786569
 20
23.0805813157
 10
91.7254686704
 20
23.0564965806
 10
91.7111436092
 20
23.0334889531
 10
91.6952820858
 20
23.0116851516
 10
91.6779709258
 20
22.9912048549
 10
91.6593045814
 20
22.9721589416
 10
91.6393857182
 20
22.9546518371
 10
91.6183216948
 20
22.9387791672
 10
91.5962286701
 20
22.9246277573
 10
91.5732269091
 20
22.91227446
 10
91.5494419572
 20
22.9017873278
 10
91.5250040529
 20
22.8932232668
 10
91.5000463678
 20
22.8866292096
 10
91.4747050072
 20
22.8820415293
 10
91.4491190095
 20
22.8794842788
 10
91.4234279996
 20
22.8789721247
 10
91.3977716027
 20
22.8805080003
 10
91.3722912037
 20
22.8840831057
 10
91.3471246677
 20
22.8896774944
 10
91.3224098599
 20
22.8972618334
 10
91.298281712
 20
22.9067938833
 10
91.2748722224
 20
22.918222018
 10
91.2523098697
 20
22.9314834648
 10
91.2307166792
 20
22.9465054779
 10
91.210211156
 20
22.9632065116
 10
91.1909047657
 20
22.9814956337
 10
91.1729042803
 20
23.0012719386
 10
91.1563064987
 20
23.0224292408
 10
91.1412029399
 20
23.0448490352
 10
91.1276763228
 20
23.068411643
 10
91.1157993934
 20
23.0929879991
 10
91.1056378574
 20
23.1184419984
 10
91.0972474477
 20
23.1446375357
 10
91.0906733369
 20
23.1714279463
 10
91.0859518982
 20
23.1986700849
 10
91.0831083577
 20
23.2262137667
 10
91.082159142
 20
23.2539076334
  0
LINE
  5
338
330
1F
100
AcDbEntity
  8
SLD-0
  6
Continuous
370
    15
100
AcDbLine
 10
86.2890768587
 20
6.2851581112
 30
0.0
 11
86.3762322252
 21
6.2851581112
 31
0.0
  0
LINE
  5
339
330
1F
100
AcDbEntity
  8
SLD-0
  6
Continuous
370
    15
100
AcDbLine
 10
86.2890768587
 20
4.2226578841
 30
0.0
 11
86.2890768587
 21
6.2851581112
 31
0.0
  0
LINE
  5
33A
330
1F
100
AcDbEntity
  8
SLD-0
  6
Continuous
370
    15
100
AcDbLine
 10
92.2578232139
 20
4.2226578841
 30
0.0
 11
92.1826057895
 21
4.2226578841
 31
0.0
  0
LINE
  5
33B
330
1F
100
AcDbEntity
  8
SLD-0
  6
Continuous
370
    15
100
AcDbLine
 10
86.3760004946
 20
4.2226578841
 30
0.0
 11
86.2890768587
 21
4.2226578841
 31
0.0
  0
LINE
  5
33C
330
1F
100
AcDbEntity
  8
SLD-0
  6
Continuous
370
    15
100
AcDbLine
 10
92.2578232139
 20
6.2851581112
 30
0.0
 11
92.2578232139
 21
4.2226578841
 31
0.0
  0
LINE
  5
33D
330
1F
100
AcDbEntity
  8
SLD-0
  6
Continuous
370
    15
100
AcDbLine
 10
92.1706678474
 20
6.2851581112
 30
0.0
 11
92.2578232139
 21
6.2851581112
 31
0.0
  0
LINE
  5
33E
330
1F
100
AcDbEntity
  8
SLD-0
  6
Continuous
370
    15
100
AcDbLine
 10
92.0547696663
 20
6.2851581112
 30
0.0
 11
92.1706678474
 21
6.2851581112
 31
0.0
  0
LINE
  5
33F
330
1F
100
AcDbEntity
  8
SLD-0
  6
Continuous
370
    15
100
AcDbLine
 10
92.0547696663
 20
6.3009081693
 30
0.0
 11
92.0547696663
 21
6.2851581112
 31
0.0
  0
LINE
  5
340
330
1F
100
AcDbEntity
  8
SLD-0
  6
Continuous
370
    15
100
AcDbLine
 10
90.900425988
 20
6.3009081693
 30
0.0
 11
92.0547696663
 21
6.3009081693
 31
0.0
  0
LINE
  5
341
330
1F
100
AcDbEntity
  8
SLD-0
  6
Continuous
370
    15
100
AcDbLine
 10
90.900425988
 20
6.2851581112
 30
0.0
 11
90.900425988
 21
6.3009081693
 31
0.0
  0
LINE
  5
342
330
1F
100
AcDbEntity
  8
SLD-0
  6
Continuous
370
    15
100
AcDbLine
 10
90.7845278069
 20
6.2851581112
 30
0.0
 11
90.900425988
 21
6.2851581112
 31
0.0
  0
LINE
  5
343
330
1F
100
AcDbEntity
  8
SLD-0
  6
Continuous
370
    15
100
AcDbLine
 10
90.7845278069
 20
6.3009081693
 30
0.0
 11
90.7845278069
 21
6.2851581112
 31
0.0
  0
LINE
  5
344
330
1F
100
AcDbEntity
  8
SLD-0
  6
Continuous
370
    15
100
AcDbLine
 10
87.7623722658
 20
6.3009081693
 30
0.0
 11
90.7845278069
 21
6.3009081693
 31
0.0
  0
LINE
  5
345
330
1F
100
AcDbEntity
  8
SLD-0
  6
Continuous
370
    15
100
AcDbLine
 10
87.7623722658
 20
6.2851581112
 30
0.0
 11
87.7623722658
 21
6.3009081693
 31
0.0
  0
LINE
  5
346
330
1F
100
AcDbEntity
  8
SLD-0
  6
Continuous
370
    15
100
AcDbLine
 10
87.6464740846
 20
6.2851581112
 30
0.0
 11
87.7623722658
 21
6.2851581112
 31
0.0
  0
LINE
  5
347
330
1F
100
AcDbEntity
  8
SLD-0
  6
Continuous
370
    15
100
AcDbLine
 10
87.6464740846
 20
6.3009081693
 30
0.0
 11
87.6464740846
 21
6.2851581112
 31
0.0
  0
LINE
  5
348
330
1F
100
AcDbEntity
  8
SLD-0
  6
Continuous
370
    15
100
AcDbLine
 10
86.492130113
 20
6.3009081693
 30
0.0
 11
87.6464740846
 21
6.3009081693
 31
0.0
  0
LINE
  5
349
330
1F
100
AcDbEntity
  8
SLD-0
  6
Continuous
370
    15
100
AcDbLine
 10
86.492130113
 20
6.2851581112
 30
0.0
 11
86.492130113
 21
6.3009081693
 31
0.0
  0
LINE
  5
34A
330
1F
100
AcDbEntity
  8
SLD-0
  6
Continuous
370
    15
100
AcDbLine
 10
86.3762322252
 20
6.2851581112
 30
0.0
 11
86.492130113
 21
6.2851581112
 31
0.0
  0
LINE
  5
34B
330
1F
100
AcDbEntity
  8
SLD-0
  6
Continuous
370
    15
100
AcDbLine
 10
98.9273793933
 20
3.2539081685
 30
0.0
 11
99.277845318
 21
3.2539081685
 31
0.0
  0
LINE
  5
34C
330
1F
100
AcDbEntity
  8
SLD-0
  6
Continuous
370
    15
100
AcDbLine
 10
98.9206386712
 20
24.2539081347
 30
0.0
 11
99.277845318
 21
24.2539081347
 31
0.0
  0
LWPOLYLINE
  5
34D
330
1F
100
AcDbEntity
  8
SLD-0
  6
Continuous
370
    15
100
AcDbPolyline
 90
        9
 70
   128
 43
0.0
 10
86.4716768027
 20
6.230558262
 10
86.4756669699
 20
6.2316072098
 10
86.4795040189
 20
6.2347141606
 10
86.4830401114
 20
6.2397600223
 10
86.4861394356
 20
6.2465500239
 10
86.4886831929
 20
6.254824275
 10
86.4905731177
 20
6.2642636326
 10
86.4917370509
 20
6.2745061276
 10
86.492130113
 20
6.2851581112
  0
LINE
  5
34E
330
1F
100
AcDbEntity
  8
SLD-0
  6
Continuous
370
    15
100
AcDbLine
 10
86.3557786215
 20
6.230558262
 30
0.0
 11
86.4716768027
 21
6.230558262
 31
0.0
  0
LWPOLYLINE
  5
34F
330
1F
100
AcDbEntity
  8
SLD-0
  6
Continuous
370
    15
100
AcDbPolyline
 90
        9
 70
   128
 43
0.0
 10
86.3762322252
 20
6.2851581112
 10
86.3758391631
 20
6.2745061276
 10
86.3746752299
 20
6.2642636326
 10
86.3727853051
 20
6.254824275
 10
86.3702415478
 20
6.2465500239
 10
86.3671419303
 20
6.2397600223
 10
86.3636058378
 20
6.2347141606
 10
86.3597690821
 20
6.2316072098
 10
86.3557786215
 20
6.230558262
  0
LINE
  5
350
330
1F
100
AcDbEntity
  8
SLD-0
  6
Continuous
370
    15
100
AcDbLine
 10
86.3557786215
 20
6.230558262
 30
0.0
 11
86.3557786215
 21
6.2701583912
 31
0.0
  0
LWPOLYLINE
  5
351
330
1F
100
AcDbEntity
  8
SLD-0
  6
Continuous
370
    15
100
AcDbPolyline
 90
        9
 70
   128
 43
0.0
 10
86.3613976499
 20
6.2851581112
 10
86.3612897045
 20
6.2822318517
 10
86.3609699749
 20
6.2794176442
 10
86.3604507809
 20
6.2768246075
 10
86.359752069
 20
6.2745513004
 10
86.3589005321
 20
6.2726863086
 10
86.3579290233
 20
6.2713000313
 10
86.3568747955
 20
6.2704464412
 10
86.3557786215
 20
6.2701583912
  0
LINE
  5
352
330
1F
100
AcDbEntity
  8
SLD-0
  6
Continuous
370
    15
100
AcDbLine
 10
86.3557786215
 20
6.230558262
 30
0.0
 11
86.2890768587
 21
6.230558262
 31
0.0
  0
LINE
  5
353
330
1F
100
AcDbEntity
  8
SLD-0
  6
Continuous
370
    15
100
AcDbLine
 10
86.2890768587
 20
6.2701583912
 30
0.0
 11
86.3557786215
 21
6.2701583912
 31
0.0
  0
LINE
  5
354
330
1F
100
AcDbEntity
  8
SLD-0
  6
Continuous
370
    15
100
AcDbLine
 10
87.6171850896
 20
6.230558262
 30
0.0
 11
87.6171850896
 21
6.2701583912
 31
0.0
  0
LINE
  5
355
330
1F
100
AcDbEntity
  8
SLD-0
  6
Continuous
370
    15
100
AcDbLine
 10
87.6171850896
 20
6.230558262
 30
0.0
 11
86.4716768027
 21
6.230558262
 31
0.0
  0
LINE
  5
356
330
1F
100
AcDbEntity
  8
SLD-0
  6
Continuous
370
    15
100
AcDbLine
 10
86.4913431088
 20
6.2701583912
 30
0.0
 11
87.6171850896
 21
6.2701583912
 31
0.0
  0
LWPOLYLINE
  5
357
330
1F
100
AcDbEntity
  8
SLD-0
  6
Continuous
370
    15
100
AcDbPolyline
 90
        9
 70
   128
 43
0.0
 10
87.7419183687
 20
6.230558262
 10
87.7459088293
 20
6.2316072098
 10
87.749745585
 20
6.2347141606
 10
87.7532819708
 20
6.2397600223
 10
87.756381295
 20
6.2465500239
 10
87.7589250523
 20
6.254824275
 10
87.7608152704
 20
6.2642636326
 10
87.7619792036
 20
6.2745061276
 10
87.7623722658
 20
6.2851581112
  0
LWPOLYLINE
  5
358
330
1F
100
AcDbEntity
  8
SLD-0
  6
Continuous
370
    15
100
AcDbPolyline
 90
        9
 70
   128
 43
0.0
 10
87.6464740846
 20
6.2851581112
 10
87.6460810225
 20
6.2745061276
 10
87.6449170893
 20
6.2642636326
 10
87.6430268711
 20
6.254824275
 10
87.6404831138
 20
6.2465500239
 10
87.637384083
 20
6.2397600223
 10
87.6338476972
 20
6.2347141606
 10
87.6300109415
 20
6.2316072098
 10
87.6260204809
 20
6.230558262
  0
LINE
  5
359
330
1F
100
AcDbEntity
  8
SLD-0
  6
Continuous
370
    15
100
AcDbLine
 10
87.6260204809
 20
6.230558262
 30
0.0
 11
87.7419183687
 21
6.230558262
 31
0.0
  0
LINE
  5
35A
330
1F
100
AcDbEntity
  8
SLD-0
  6
Continuous
370
    15
100
AcDbLine
 10
87.6464740846
 20
6.2851581112
 30
0.0
 11
87.6316398027
 21
6.2851581112
 31
0.0
  0
LINE
  5
35B
330
1F
100
AcDbEntity
  8
SLD-0
  6
Continuous
370
    15
100
AcDbLine
 10
87.6316398027
 20
6.2851581112
 30
0.0
 11
87.6316398027
 21
6.3009081693
 31
0.0
  0
LINE
  5
35C
330
1F
100
AcDbEntity
  8
SLD-0
  6
Continuous
370
    15
100
AcDbLine
 10
87.6260204809
 20
6.230558262
 30
0.0
 11
87.6260204809
 21
6.2701583912
 31
0.0
  0
LWPOLYLINE
  5
35D
330
1F
100
AcDbEntity
  8
SLD-0
  6
Continuous
370
    15
100
AcDbPolyline
 90
        9
 70
   128
 43
0.0
 10
87.6316398027
 20
6.2851581112
 10
87.6315315639
 20
6.2822318517
 10
87.6312118343
 20
6.2794176442
 10
87.6306926403
 20
6.2768246075
 10
87.6299939283
 20
6.2745513004
 10
87.6291423915
 20
6.2726863086
 10
87.6281708827
 20
6.2713000313
 10
87.6271166549
 20
6.2704464412
 10
87.6260204809
 20
6.2701583912
  0
LINE
  5
35E
330
1F
100
AcDbEntity
  8
SLD-0
  6
Continuous
370
    15
100
AcDbLine
 10
87.6260204809
 20
6.230558262
 30
0.0
 11
87.6171850896
 21
6.230558262
 31
0.0
  0
LINE
  5
35F
330
1F
100
AcDbEntity
  8
SLD-0
  6
Continuous
370
    15
100
AcDbLine
 10
87.6171850896
 20
6.2701583912
 30
0.0
 11
87.6260204809
 21
6.2701583912
 31
0.0
  0
LINE
  5
360
330
1F
100
AcDbEntity
  8
SLD-0
  6
Continuous
370
    15
100
AcDbLine
 10
90.7552388119
 20
6.230558262
 30
0.0
 11
90.7552388119
 21
6.2701583912
 31
0.0
  0
LINE
  5
361
330
1F
100
AcDbEntity
  8
SLD-0
  6
Continuous
370
    15
100
AcDbLine
 10
90.7552388119
 20
6.230558262
 30
0.0
 11
87.7419183687
 21
6.230558262
 31
0.0
  0
LINE
  5
362
330
1F
100
AcDbEntity
  8
SLD-0
  6
Continuous
370
    15
100
AcDbLine
 10
87.7615849682
 20
6.2701583912
 30
0.0
 11
90.7552388119
 21
6.2701583912
 31
0.0
  0
LINE
  5
363
330
1F
100
AcDbEntity
  8
SLD-0
  6
Continuous
370
    15
100
AcDbLine
 10
90.7845278069
 20
6.2851581112
 30
0.0
 11
90.7696935249
 21
6.2851581112
 31
0.0
  0
LINE
  5
364
330
1F
100
AcDbEntity
  8
SLD-0
  6
Continuous
370
    15
100
AcDbLine
 10
90.7696935249
 20
6.2851581112
 30
0.0
 11
90.7696935249
 21
6.3009081693
 31
0.0
  0
LWPOLYLINE
  5
365
330
1F
100
AcDbEntity
  8
SLD-0
  6
Continuous
370
    15
100
AcDbPolyline
 90
        9
 70
   128
 43
0.0
 10
90.879972091
 20
6.230558262
 10
90.8839625516
 20
6.2316072098
 10
90.8877993072
 20
6.2347141606
 10
90.891335693
 20
6.2397600223
 10
90.8944350172
 20
6.2465500239
 10
90.8969787745
 20
6.254824275
 10
90.8988689927
 20
6.2642636326
 10
90.9000329259
 20
6.2745061276
 10
90.900425988
 20
6.2851581112
  0
LWPOLYLINE
  5
366
330
1F
100
AcDbEntity
  8
SLD-0
  6
Continuous
370
    15
100
AcDbPolyline
 90
        9
 70
   128
 43
0.0
 10
90.7845278069
 20
6.2851581112
 10
90.7841347448
 20
6.2745061276
 10
90.7829708116
 20
6.2642636326
 10
90.7810805934
 20
6.254824275
 10
90.7785374228
 20
6.2465500239
 10
90.7754375119
 20
6.2397600223
 10
90.7719017128
 20
6.2347141606
 10
90.7680643704
 20
6.2316072098
 10
90.7640744965
 20
6.230558262
  0
LINE
  5
367
330
1F
100
AcDbEntity
  8
SLD-0
  6
Continuous
370
    15
100
AcDbLine
 10
90.7640744965
 20
6.230558262
 30
0.0
 11
90.879972091
 21
6.230558262
 31
0.0
  0
LINE
  5
368
330
1F
100
AcDbEntity
  8
SLD-0
  6
Continuous
370
    15
100
AcDbLine
 10
90.7640744965
 20
6.230558262
 30
0.0
 11
90.7640744965
 21
6.2701583912
 31
0.0
  0
LWPOLYLINE
  5
369
330
1F
100
AcDbEntity
  8
SLD-0
  6
Continuous
370
    15
100
AcDbPolyline
 90
        9
 70
   128
 43
0.0
 10
90.7696935249
 20
6.2851581112
 10
90.7695855795
 20
6.2822318517
 10
90.7692658499
 20
6.2794176442
 10
90.7687466559
 20
6.2768246075
 10
90.7680473573
 20
6.2745513004
 10
90.7671961138
 20
6.2726863086
 10
90.766224605
 20
6.2713000313
 10
90.7651703772
 20
6.2704464412
 10
90.7640744965
 20
6.2701583912
  0
LINE
  5
36A
330
1F
100
AcDbEntity
  8
SLD-0
  6
Continuous
370
    15
100
AcDbLine
 10
90.7640744965
 20
6.230558262
 30
0.0
 11
90.7552388119
 21
6.230558262
 31
0.0
  0
LINE
  5
36B
330
1F
100
AcDbEntity
  8
SLD-0
  6
Continuous
370
    15
100
AcDbLine
 10
90.7552388119
 20
6.2701583912
 30
0.0
 11
90.7640744965
 21
6.2701583912
 31
0.0
  0
LINE
  5
36C
330
1F
100
AcDbEntity
  8
SLD-0
  6
Continuous
370
    15
100
AcDbLine
 10
92.0254806713
 20
6.230558262
 30
0.0
 11
92.0254806713
 21
6.2701583912
 31
0.0
  0
LINE
  5
36D
330
1F
100
AcDbEntity
  8
SLD-0
  6
Continuous
370
    15
100
AcDbLine
 10
92.0254806713
 20
6.230558262
 30
0.0
 11
90.879972091
 21
6.230558262
 31
0.0
  0
LINE
  5
36E
330
1F
100
AcDbEntity
  8
SLD-0
  6
Continuous
370
    15
100
AcDbLine
 10
90.8996386905
 20
6.2701583912
 30
0.0
 11
92.0254806713
 21
6.2701583912
 31
0.0
  0
ARC
  5
36F
330
1F
100
AcDbEntity
  8
SLD-0
  6
Continuous
370
    15
100
AcDbCircle
 10
91.400393628
 20
23.2669404079
 30
0.0
 40
0.3625534669366534
100
AcDbArc
 50
357.9399345058
 51
86.5144125996
  0
ARC
  5
370
330
1F
100
AcDbEntity
  8
SLD-0
  6
Continuous
370
    15
100
AcDbCircle
 10
91.3998950601
 20
23.2413284977
 30
0.0
 40
0.3630357114759165
100
AcDbArc
 50
273.5597863446
 51
1.9856880785
  0
LINE
  5
371
330
1F
100
AcDbEntity
  8
SLD-0
  6
Continuous
370
    15
100
AcDbLine
 10
92.0547696663
 20
6.2851581112
 30
0.0
 11
92.0399353843
 21
6.2851581112
 31
0.0
  0
LINE
  5
372
330
1F
100
AcDbEntity
  8
SLD-0
  6
Continuous
370
    15
100
AcDbLine
 10
92.0399353843
 20
6.2851581112
 30
0.0
 11
92.0399353843
 21
6.3009081693
 31
0.0
  0
LWPOLYLINE
  5
373
330
1F
100
AcDbEntity
  8
SLD-0
  6
Continuous
370
    15
100
AcDbPolyline
 90
        9
 70
   128
 43
0.0
 10
92.0547696663
 20
6.2851581112
 10
92.0543766042
 20
6.2745061276
 10
92.0532126709
 20
6.2642636326
 10
92.0513224528
 20
6.254824275
 10
92.0487792822
 20
6.2465500239
 10
92.0456793713
 20
6.2397600223
 10
92.0421435721
 20
6.2347141606
 10
92.0383062298
 20
6.2316072098
 10
92.0343163559
 20
6.230558262
  0
LINE
  5
374
330
1F
100
AcDbEntity
  8
SLD-0
  6
Continuous
370
    15
100
AcDbLine
 10
92.0343163559
 20
6.230558262
 30
0.0
 11
92.0343163559
 21
6.2701583912
 31
0.0
  0
LWPOLYLINE
  5
375
330
1F
100
AcDbEntity
  8
SLD-0
  6
Continuous
370
    15
100
AcDbPolyline
 90
        9
 70
   128
 43
0.0
 10
92.0399353843
 20
6.2851581112
 10
92.0398274389
 20
6.2822318517
 10
92.0395077093
 20
6.2794176442
 10
92.0389885153
 20
6.2768246075
 10
92.0382892167
 20
6.2745513004
 10
92.0374379732
 20
6.2726863086
 10
92.0364664644
 20
6.2713000313
 10
92.0354122366
 20
6.2704464412
 10
92.0343163559
 20
6.2701583912
  0
LWPOLYLINE
  5
376
330
1F
100
AcDbEntity
  8
SLD-0
  6
Continuous
370
    15
100
AcDbPolyline
 90
        9
 70
   128
 43
0.0
 10
92.1502139504
 20
6.230558262
 10
92.1542044109
 20
6.2316072098
 10
92.1580411666
 20
6.2347141606
 10
92.1615775524
 20
6.2397600223
 10
92.1646768766
 20
6.2465500239
 10
92.1672206339
 20
6.254824275
 10
92.1691108521
 20
6.2642636326
 10
92.1702747853
 20
6.2745061276
 10
92.1706678474
 20
6.2851581112
  0
LINE
  5
377
330
1F
100
AcDbEntity
  8
SLD-0
  6
Continuous
370
    15
100
AcDbLine
 10
92.0343163559
 20
6.230558262
 30
0.0
 11
92.1502139504
 21
6.230558262
 31
0.0
  0
LINE
  5
378
330
1F
100
AcDbEntity
  8
SLD-0
  6
Continuous
370
    15
100
AcDbLine
 10
92.0343163559
 20
6.230558262
 30
0.0
 11
92.0254806713
 21
6.230558262
 31
0.0
  0
LINE
  5
379
330
1F
100
AcDbEntity
  8
SLD-0
  6
Continuous
370
    15
100
AcDbLine
 10
92.0254806713
 20
6.2701583912
 30
0.0
 11
92.0343163559
 21
6.2701583912
 31
0.0
  0
LINE
  5
37A
330
1F
100
AcDbEntity
  8
SLD-0
  6
Continuous
370
    15
100
AcDbLine
 10
92.2429883453
 20
4.2226578841
 30
0.0
 11
92.2429883453
 21
6.2851581112
 31
0.0
  0
LWPOLYLINE
  5
37B
330
1F
100
AcDbEntity
  8
SLD-0
  6
Continuous
370
    15
100
AcDbPolyline
 90
       37
 70
   128
 43
0.0
 10
94.6736821857
 20
5.2539079976
 10
94.67273297
 20
5.299846987
 10
94.6698876696
 20
5.345695044
 10
94.6651509776
 20
5.3913600631
 10
94.6585334541
 20
5.4367528721
 10
94.6500468321
 20
5.4817825385
 10
94.6397087115
 20
5.5263598903
 10
94.6275402121
 20
5.5703957549
 10
94.6135648002
 20
5.6138038934
 10
94.5978106355
 20
5.6564968936
 10
94.5803093977
 20
5.6983908629
 10
94.5610939397
 20
5.7394024958
 10
94.5402041543
 20
5.7794502465
 10
94.5176811079
 20
5.8184543293
 10
94.4935693864
 20
5.8563378917
 10
94.4679159228
 20
5.8930252545
 10
94.4407735163
 20
5.928443672
 10
94.4121949664
 20
5.962522745
 10
94.3822377658
 20
5.9951950076
 10
94.3509605805
 20
6.0263953405
 10
94.3184255963
 20
6.0560621444
 10
94.284697346
 20
6.0841367534
 10
94.2498438819
 20
6.1105622615
 10
94.2139320835
 20
6.1352876292
 10
94.1770358697
 20
6.1582629905
 10
94.1392268131
 20
6.1794425858
 10
94.1005811796
 20
6.1987847623
 10
94.0611740615
 20
6.2162508006
 10
94.0210852446
 20
6.2318060875
 10
93.9803945146
 20
6.2454201169
 10
93.9391804841
 20
6.2570653157
 10
93.8975276319
 20
6.2667193909
 10
93.8555157439
 20
6.2743623959
 10
93.8132316457
 20
6.2799790777
 10
93.7707562964
 20
6.2835588764
 10
93.7281753483
 20
6.2850941653
 10
93.7249405057
 20
6.2851270182
  0
LWPOLYLINE
  5
37C
330
1F
100
AcDbEntity
  8
SLD-0
  6
Continuous
370
    15
100
AcDbPolyline
 90
       37
 70
   128
 43
0.0
 10
93.7249405057
 20
4.222688977
 10
93.7281753483
 20
4.2227224167
 10
93.7707562964
 20
4.2242577056
 10
93.8132316457
 20
4.2278375042
 10
93.8555157439
 20
4.233454186
 10
93.8975276319
 20
4.2410971911
 10
93.9391804841
 20
4.2507506795
 10
93.9803945146
 20
4.262396465
 10
94.0210852446
 20
4.2760099077
 10
94.0611740615
 20
4.2915657814
 10
94.1005811796
 20
4.3090318196
 10
94.1392268131
 20
4.3283739962
 10
94.1770358697
 20
4.3495535915
 10
94.2139320835
 20
4.3725289527
 10
94.2498438819
 20
4.3972537338
 10
94.284697346
 20
4.4236798285
 10
94.3184255963
 20
4.4517538509
 10
94.3509605805
 20
4.4814206548
 10
94.3822377658
 20
4.5126209877
 10
94.4121949664
 20
4.5452932503
 10
94.4407735163
 20
4.5793729099
 10
94.4679159228
 20
4.6147913274
 10
94.4935693864
 20
4.6514781036
 10
94.5176811079
 20
4.689361666
 10
94.5402041543
 20
4.7283657488
 10
94.5610939397
 20
4.7684134994
 10
94.5803093977
 20
4.8094251323
 10
94.5978106355
 20
4.8513191017
 10
94.6135648002
 20
4.8940126885
 10
94.6275402121
 20
4.9374202404
 10
94.6397087115
 20
4.9814566917
 10
94.6500468321
 20
5.0260340434
 10
94.6585334541
 20
5.0710631232
 10
94.6651509776
 20
5.1164559322
 10
94.6698876696
 20
5.162121538
 10
94.67273297
 20
5.2079690083
 10
94.6736821857
 20
5.2539079976
  0
LINE
  5
37D
330
1F
100
AcDbEntity
  8
SLD-0
  6
Continuous
370
    15
100
AcDbLine
 10
99.3119912702
 20
24.2539081347
 30
0.0
 11
99.277845318
 21
24.2539081347
 31
0.0
  0
LINE
  5
37E
330
1F
100
AcDbEntity
  8
SLD-0
  6
Continuous
370
    15
100
AcDbLine
 10
99.3119912702
 20
24.2539081347
 30
0.0
 11
99.3119912702
 21
3.2539081685
 31
0.0
  0
LINE
  5
37F
330
1F
100
AcDbEntity
  8
SLD-0
  6
Continuous
370
    15
100
AcDbLine
 10
99.277845318
 20
3.2539081685
 30
0.0
 11
99.3119912702
 21
3.2539081685
 31
0.0
  0
LINE
  5
380
330
1F
100
AcDbEntity
  8
SLD-0
  6
Continuous
370
    15
100
AcDbLine
 10
84.3172763038
 20
21.8590545202
 30
0.0
 11
84.3172763038
 21
21.8344541111
 31
0.0
  0
LINE
  5
381
330
1F
100
AcDbEntity
  8
SLD-0
  6
Continuous
370
    15
100
AcDbLine
 10
84.3172763038
 20
6.5303045059
 30
0.0
 11
84.3172763038
 21
6.3120541205
 31
0.0
  0
LINE
  5
382
330
1F
100
AcDbEntity
  8
SLD-0
  6
Continuous
370
    15
100
AcDbLine
 10
84.3172763038
 20
6.3120541205
 30
0.0
 11
83.8322762866
 21
6.3120541205
 31
0.0
  0
LINE
  5
383
330
1F
100
AcDbEntity
  8
SLD-0
  6
Continuous
370
    15
100
AcDbLine
 10
83.8322762866
 20
21.8590545202
 30
0.0
 11
83.8322762866
 21
6.3120541205
 31
0.0
  0
LINE
  5
384
330
1F
100
AcDbEntity
  8
SLD-0
  6
Continuous
370
    15
100
AcDbLine
 10
83.8322762866
 20
21.8590545202
 30
0.0
 11
84.3172763038
 21
21.8590545202
 31
0.0
  0
LINE
  5
385
330
1F
100
AcDbEntity
  8
SLD-0
  6
Continuous
370
    15
100
AcDbLine
 10
83.757276293
 20
6.3120541205
 30
0.0
 11
83.757276293
 21
21.8590545202
 31
0.0
  0
LINE
  5
386
330
1F
100
AcDbEntity
  8
SLD-0
  6
Continuous
370
    15
100
AcDbLine
 10
83.757276293
 20
21.8590545202
 30
0.0
 11
83.8322762866
 21
21.8590545202
 31
0.0
  0
LINE
  5
387
330
1F
100
AcDbEntity
  8
SLD-0
  6
Continuous
370
    15
100
AcDbLine
 10
83.8322762866
 20
6.3120541205
 30
0.0
 11
83.757276293
 21
6.3120541205
 31
0.0
  0
LINE
  5
388
330
1F
100
AcDbEntity
  8
SLD-0
  6
Continuous
370
    15
100
AcDbLine
 10
84.1922762412
 20
6.2970544005
 30
0.0
 11
84.1922762412
 21
6.2370543469
 31
0.0
  0
LINE
  5
389
330
1F
100
AcDbEntity
  8
SLD-0
  6
Continuous
370
    15
100
AcDbLine
 10
84.1922762412
 20
6.2370543469
 30
0.0
 11
83.8322762866
 21
6.2370543469
 31
0.0
  0
LINE
  5
38A
330
1F
100
AcDbEntity
  8
SLD-0
  6
Continuous
370
    15
100
AcDbLine
 10
83.8322762866
 20
6.2370543469
 30
0.0
 11
83.8322762866
 21
6.2970544005
 31
0.0
  0
LINE
  5
38B
330
1F
100
AcDbEntity
  8
SLD-0
  6
Continuous
370
    15
100
AcDbLine
 10
84.1922762412
 20
6.2970544005
 30
0.0
 11
83.8322762866
 21
6.2970544005
 31
0.0
  0
ARC
  5
38C
330
1F
100
AcDbEntity
  8
SLD-0
  6
Continuous
370
    15
100
AcDbCircle
 10
83.8322762905
 20
6.3120543368
 30
0.0
 40
0.0150000000000006
100
AcDbArc
 50
180.0
 51
270.0
  0
ARC
  5
38D
330
1F
100
AcDbEntity
  8
SLD-0
  6
Continuous
370
    15
100
AcDbCircle
 10
83.8322762905
 20
6.3120543368
 30
0.0
 40
0.0749999999999984
100
AcDbArc
 50
180.0
 51
270.0
  0
LINE
  5
38E
330
1F
100
AcDbEntity
  8
SLD-0
  6
Continuous
370
    15
100
AcDbLine
 10
84.1922762412
 20
21.8740542403
 30
0.0
 11
84.1922762412
 21
21.9340542938
 31
0.0
  0
LINE
  5
38F
330
1F
100
AcDbEntity
  8
SLD-0
  6
Continuous
370
    15
100
AcDbLine
 10
83.8322762866
 20
21.8740542403
 30
0.0
 11
83.8322762866
 21
21.9340542938
 31
0.0
  0
LINE
  5
390
330
1F
100
AcDbEntity
  8
SLD-0
  6
Continuous
370
    15
100
AcDbLine
 10
83.8322762866
 20
21.9340542938
 30
0.0
 11
84.1922762412
 21
21.9340542938
 31
0.0
  0
LINE
  5
391
330
1F
100
AcDbEntity
  8
SLD-0
  6
Continuous
370
    15
100
AcDbLine
 10
83.8322762866
 20
21.8740542403
 30
0.0
 11
84.1922762412
 21
21.8740542403
 31
0.0
  0
ARC
  5
392
330
1F
100
AcDbEntity
  8
SLD-0
  6
Continuous
370
    15
100
AcDbCircle
 10
83.8322762905
 20
21.8590543368
 30
0.0
 40
0.0749999999999993
100
AcDbArc
 50
90.0
 51
180.0
  0
ARC
  5
393
330
1F
100
AcDbEntity
  8
SLD-0
  6
Continuous
370
    15
100
AcDbCircle
 10
83.8322762905
 20
21.8590543368
 30
0.0
 40
0.0150000000000006
100
AcDbArc
 50
90.0
 51
180.0
  0
LINE
  5
394
330
1F
100
AcDbEntity
  8
SLD-0
  6
Continuous
370
    15
100
AcDbLine
 10
84.1922762412
 20
6.2370543469
 30
0.0
 11
84.3453913924
 21
6.2370543469
 31
0.0
  0
LINE
  5
395
330
1F
100
AcDbEntity
  8
SLD-0
  6
Continuous
370
    15
100
AcDbLine
 10
84.1922762412
 20
6.2970544005
 30
0.0
 11
84.3453913924
 21
6.2970544005
 31
0.0
  0
LINE
  5
396
330
1F
100
AcDbEntity
  8
SLD-0
  6
Continuous
370
    15
100
AcDbLine
 10
84.3453913924
 20
21.9340542938
 30
0.0
 11
84.1922762412
 21
21.9340542938
 31
0.0
  0
LINE
  5
397
330
1F
100
AcDbEntity
  8
SLD-0
  6
Continuous
370
    15
100
AcDbLine
 10
84.3267913406
 20
21.8740542403
 30
0.0
 11
84.1922762412
 21
21.8740542403
 31
0.0
  0
LINE
  5
398
330
1F
100
AcDbEntity
  8
SLD-0
  6
Continuous
370
    15
100
AcDbLine
 10
84.3057914098
 20
21.819454391
 30
0.0
 11
84.2721913446
 21
21.819454391
 31
0.0
  0
LINE
  5
399
330
1F
100
AcDbEntity
  8
SLD-0
  6
Continuous
370
    15
100
AcDbLine
 10
84.3057914098
 20
20.9744541259
 30
0.0
 11
84.2721913446
 21
20.9744541259
 31
0.0
  0
LINE
  5
39A
330
1F
100
AcDbEntity
  8
SLD-0
  6
Continuous
370
    15
100
AcDbLine
 10
84.2721913446
 20
20.9744541259
 30
0.0
 11
84.2721913446
 21
21.819454391
 31
0.0
  0
ARC
  5
39B
330
1F
100
AcDbEntity
  8
SLD-0
  6
Continuous
370
    15
100
AcDbCircle
 10
84.3267913857
 20
21.8194543368
 30
0.0
 40
0.0546000000000006
100
AcDbArc
 50
90.0
 51
133.5082934654
  0
LINE
  5
39C
330
1F
100
AcDbEntity
  8
SLD-0
  6
Continuous
370
    15
100
AcDbLine
 10
84.3267913406
 20
21.8740542403
 30
0.0
 11
84.3453913924
 21
21.8740542403
 31
0.0
  0
LINE
  5
39D
330
1F
100
AcDbEntity
  8
SLD-0
  6
Continuous
370
    15
100
AcDbLine
 10
84.3057914098
 20
7.7479083067
 30
0.0
 11
84.3057914098
 21
7.1958818838
 31
0.0
  0
LINE
  5
39E
330
1F
100
AcDbEntity
  8
SLD-0
  6
Continuous
370
    15
100
AcDbLine
 10
84.3057914098
 20
6.5535069046
 30
0.0
 11
84.3057914098
 21
6.5303045059
 31
0.0
  0
LINE
  5
39F
330
1F
100
AcDbEntity
  8
SLD-0
  6
Continuous
370
    15
100
AcDbLine
 10
84.3057914098
 20
7.7479083067
 30
0.0
 11
84.3453913924
 21
7.7479083067
 31
0.0
  0
LINE
  5
3A0
330
1F
100
AcDbEntity
  8
SLD-0
  6
Continuous
370
    15
100
AcDbLine
 10
84.3453913924
 20
6.5303045059
 30
0.0
 11
84.3057914098
 21
6.5303045059
 31
0.0
  0
LINE
  5
3A1
330
1F
100
AcDbEntity
  8
SLD-0
  6
Continuous
370
    15
100
AcDbLine
 10
84.3057914098
 20
21.8344541111
 30
0.0
 11
84.3057914098
 21
9.2479081786
 31
0.0
  0
LINE
  5
3A2
330
1F
100
AcDbEntity
  8
SLD-0
  6
Continuous
370
    15
100
AcDbLine
 10
84.3057914098
 20
21.8344541111
 30
0.0
 11
84.3453913924
 21
21.8344541111
 31
0.0
  0
LINE
  5
3A3
330
1F
100
AcDbEntity
  8
SLD-0
  6
Continuous
370
    15
100
AcDbLine
 10
84.3057914098
 20
9.2479081786
 30
0.0
 11
84.3453913924
 21
9.2479081786
 31
0.0
  0
LINE
  5
3A4
330
1F
100
AcDbEntity
  8
SLD-0
  6
Continuous
370
    15
100
AcDbLine
 10
84.3453913924
 20
9.2539082426
 30
0.0
 11
84.3453913924
 21
9.2479081786
 31
0.0
  0
LINE
  5
3A5
330
1F
100
AcDbEntity
  8
SLD-0
  6
Continuous
370
    15
100
AcDbLine
 10
84.3057914098
 20
7.7479083067
 30
0.0
 11
84.3057914098
 21
9.2479081786
 31
0.0
  0
LINE
  5
3A6
330
1F
100
AcDbEntity
  8
SLD-0
  6
Continuous
370
    15
100
AcDbLine
 10
84.269791319
 20
7.1958818838
 30
0.0
 11
84.3057914098
 21
7.1958818838
 31
0.0
  0
LINE
  5
3A7
330
1F
100
AcDbEntity
  8
SLD-0
  6
Continuous
370
    15
100
AcDbLine
 10
84.3057914098
 20
7.1958818838
 30
0.0
 11
84.3057914098
 21
6.5535069046
 31
0.0
  0
LINE
  5
3A8
330
1F
100
AcDbEntity
  8
SLD-0
  6
Continuous
370
    15
100
AcDbLine
 10
84.269791319
 20
6.5535069046
 30
0.0
 11
84.269791319
 21
7.1958818838
 31
0.0
  0
LINE
  5
3A9
330
1F
100
AcDbEntity
  8
SLD-0
  6
Continuous
370
    15
100
AcDbLine
 10
84.269791319
 20
6.5535069046
 30
0.0
 11
84.3057914098
 21
6.5535069046
 31
0.0
  0
LINE
  5
3AA
330
1F
100
AcDbEntity
  8
SLD-0
  6
Continuous
370
    15
100
AcDbLine
 10
84.3214163626
 20
6.4990543069
 30
0.0
 11
84.3172763038
 21
6.4992203317
 31
0.0
  0
LINE
  5
3AB
330
1F
100
AcDbEntity
  8
SLD-0
  6
Continuous
370
    15
100
AcDbLine
 10
84.3453913924
 20
6.4990543069
 30
0.0
 11
84.3214163626
 21
6.4990543069
 31
0.0
  0
LINE
  5
3AC
330
1F
100
AcDbEntity
  8
SLD-0
  6
Continuous
370
    15
100
AcDbLine
 10
85.4098317892
 20
24.2444852035
 30
0.0
 11
85.4098317892
 21
3.2812535592
 31
0.0
  0
LINE
  5
3AD
330
1F
100
AcDbEntity
  8
SLD-0
  6
Continuous
370
    15
100
AcDbLine
 10
84.3214163626
 20
6.5303045059
 30
0.0
 11
84.3214163626
 21
6.4990543069
 31
0.0
  0
DIMENSION
  5
3AE
330
1F
100
AcDbEntity
  8
DIM
100
AcDbDimension
  2
_D_17
 10
99.3975909384
 20
29.7680484946
 30
0.0
 11
91.8721679384
 21
29.7680484946
 31
0.0
 70
   160
  1
<>
 71
     2
 42
-1.0
  3
SLDDIMSTYLE0
100
AcDbAlignedDimension
 13
84.3467449384
 23
25.9295568136
 33
0.0
 14
99.3975909384
 24
24.3912581368
 34
0.0
100
AcDbRotatedDimension
  0
DIMENSION
  5
3BD
330
1F
100
AcDbEntity
  8
DIM
100
AcDbDimension
  2
_D_18
 10
103.3975909384
 20
26.0950818437
 30
0.0
 11
103.3975909384
 21
29.7680484946
 31
0.0
 70
   160
  1
<>
 71
     2
 42
-1.0
  3
SLDDIMSTYLE1
100
AcDbAlignedDimension
 13
99.3194909384
 23
24.5651081368
 33
0.0
 14
97.1746947224
 24
26.0950818437
 34
0.0
 50
90.0
100
AcDbRotatedDimension
  0
DIMENSION
  5
3CD
330
1F
100
AcDbEntity
  8
DIM
100
AcDbDimension
  2
_D_19
 10
103.3975909384
 20
24.5651081368
 30
0.0
 11
103.3975909384
 21
13.8852081368
 31
0.0
 70
   160
  1
<>
 71
     2
 42
-1.0
  3
SLDDIMSTYLE0
100
AcDbAlignedDimension
 13
99.3037913857
 23
3.2053081368
 33
0.0
 14
99.3194909384
 24
24.5651081368
 34
0.0
 50
90.0
100
AcDbRotatedDimension
  0
LINE
  5
3DC
330
1F
100
AcDbEntity
  8
SLD-0
  6
Continuous
370
    15
100
AcDbLine
 10
10.1752982215
 20
24.5651077397
 30
0.0
 11
10.0821753506
 21
26.0975079573
 31
0.0
  0
LINE
  5
3DD
330
1F
100
AcDbEntity
  8
SLD-0
  6
Continuous
370
    15
100
AcDbLine
 10
7.9622980263
 20
24.5651077397
 30
0.0
 11
7.8691751554
 21
26.0975079573
 31
0.0
  0
LINE
  5
3DE
330
1F
100
AcDbEntity
  8
SLD-0
  6
Continuous
370
    15
100
AcDbLine
 10
5.0591751901
 20
26.0975079573
 30
0.0
 11
4.9660523192
 21
24.5651077397
 31
0.0
  0
LINE
  5
3DF
330
1F
100
AcDbEntity
  8
SLD-0
  6
Continuous
370
    15
100
AcDbLine
 10
10.1263097741
 20
4.2539080831
 30
0.0
 11
10.0911905531
 21
4.2539080831
 31
0.0
  0
LINE
  5
3E0
330
1F
100
AcDbEntity
  8
SLD-0
  6
Continuous
370
    15
100
AcDbLine
 10
10.1263097741
 20
4.2226578841
 30
0.0
 11
10.1263097741
 21
4.2539080831
 31
0.0
  0
LINE
  5
3E1
330
1F
100
AcDbEntity
  8
SLD-0
  6
Continuous
370
    15
100
AcDbLine
 10
10.0911905531
 20
4.2539080831
 30
0.0
 11
10.0911905531
 21
4.2226578841
 31
0.0
  0
LINE
  5
3E2
330
1F
100
AcDbEntity
  8
SLD-0
  6
Continuous
370
    15
100
AcDbLine
 10
15.9212088576
 20
4.2226578841
 30
0.0
 11
15.9212088576
 21
4.2539080831
 31
0.0
  0
LINE
  5
3E3
330
1F
100
AcDbEntity
  8
SLD-0
  6
Continuous
370
    15
100
AcDbLine
 10
10.1263097741
 20
4.2539080831
 30
0.0
 11
15.9212088576
 21
4.2539080831
 31
0.0
  0
LINE
  5
3E4
330
1F
100
AcDbEntity
  8
SLD-0
  6
Continuous
370
    15
100
AcDbLine
 10
10.0821753506
 20
26.0975079573
 30
0.0
 11
7.8691751554
 21
26.0975079573
 31
0.0
  0
LINE
  5
3E5
330
1F
100
AcDbEntity
  8
SLD-0
  6
Continuous
370
    15
100
AcDbLine
 10
7.8691751554
 20
26.0975079573
 30
0.0
 11
5.0591751901
 21
26.0975079573
 31
0.0
  0
LINE
  5
3E6
330
1F
100
AcDbEntity
  8
SLD-0
  6
Continuous
370
    15
100
AcDbLine
 10
17.7445554208
 20
24.4225083203
 30
0.0
 11
17.7445554208
 21
24.4725081694
 31
0.0
  0
LINE
  5
3E7
330
1F
100
AcDbEntity
  8
SLD-0
  6
Continuous
370
    15
100
AcDbLine
 10
16.5698200315
 20
24.4225083203
 30
0.0
 11
16.5698200315
 21
24.4725081694
 31
0.0
  0
LINE
  5
3E8
330
1F
100
AcDbEntity
  8
SLD-0
  6
Continuous
370
    15
100
AcDbLine
 10
17.7445554208
 20
24.4225083203
 30
0.0
 11
16.5698200315
 21
24.4225083203
 31
0.0
  0
LINE
  5
3E9
330
1F
100
AcDbEntity
  8
SLD-0
  6
Continuous
370
    15
100
AcDbLine
 10
17.7445554208
 20
24.4725081694
 30
0.0
 11
16.5698200315
 21
24.4725081694
 31
0.0
  0
LINE
  5
3EA
330
1F
100
AcDbEntity
  8
SLD-0
  6
Continuous
370
    15
100
AcDbLine
 10
16.5698200315
 20
24.4225083203
 30
0.0
 11
14.9543053607
 21
24.4225083203
 31
0.0
  0
LINE
  5
3EB
330
1F
100
AcDbEntity
  8
SLD-0
  6
Continuous
370
    15
100
AcDbLine
 10
16.5698200315
 20
24.4725081694
 30
0.0
 11
14.9543053607
 21
24.4725081694
 31
0.0
  0
ARC
  5
3EC
330
1F
100
AcDbEntity
  8
SLD-0
  6
Continuous
370
    15
100
AcDbCircle
 10
2.9574554043
 20
24.3912581368
 30
0.0
 40
0.0812500000000014
100
AcDbArc
 50
92.2218701335
 51
180.0
  0
LINE
  5
3ED
330
1F
100
AcDbEntity
  8
SLD-0
  6
Continuous
370
    15
100
AcDbLine
 10
2.926205377
 20
24.3912581213
 30
0.0
 11
2.8762055279
 21
24.3912581213
 31
0.0
  0
ARC
  5
3EE
330
1F
100
AcDbEntity
  8
SLD-0
  6
Continuous
370
    15
100
AcDbCircle
 10
2.9574554043
 20
24.3912581368
 30
0.0
 40
0.0312500000000004
100
AcDbArc
 50
95.7852398839
 51
180.0
  0
LINE
  5
3EF
330
1F
100
AcDbEntity
  8
SLD-0
  6
Continuous
370
    15
100
AcDbLine
 10
2.8762055279
 20
24.3912581213
 30
0.0
 11
2.8762055279
 21
23.5165083332
 31
0.0
  0
LINE
  5
3F0
330
1F
100
AcDbEntity
  8
SLD-0
  6
Continuous
370
    15
100
AcDbLine
 10
2.926205377
 20
24.3912581213
 30
0.0
 11
2.926205377
 21
24.2539081347
 31
0.0
  0
LINE
  5
3F1
330
1F
100
AcDbEntity
  8
SLD-0
  6
Continuous
370
    15
100
AcDbLine
 10
2.926205377
 20
23.7689081908
 30
0.0
 11
2.926205377
 21
23.5165083332
 31
0.0
  0
LINE
  5
3F2
330
1F
100
AcDbEntity
  8
SLD-0
  6
Continuous
370
    15
100
AcDbLine
 10
2.8762055279
 20
23.5165083332
 30
0.0
 11
2.926205377
 21
23.5165083332
 31
0.0
  0
SPLINE
  5
3F3
330
1F
100
AcDbEntity
  8
SLD-0
  6
Continuous
370
    15
100
AcDbSpline
210
0.0
220
0.0
230
1.0
 70
     8
 71
     3
 72
    11
 73
     7
 74
     0
 42
0.00000001
 43
0.00000001
 12
1.0
 22
0.0
 32
0.0
 13
1.0
 23
0.0
 33
0.0
 40
0.0
 40
0.0
 40
0.0
 40
0.0
 40
0.2499990573721516
 40
0.5000018621206772
 40
0.7499977599216184
 40
1.0
 40
1.0
 40
1.0
 40
1.0
 10
17.7445554208249
 20
24.47250816939955
 30
0.0
 10
17.74865028933153
 20
24.47297764217148
 30
0.0
 10
17.75684008772507
 20
24.47391659475254
 30
0.0
 10
17.76716966467658
 20
24.48114446760621
 30
0.0
 10
17.77439611375829
 20
24.49147251437895
 30
0.0
 10
17.77533568271672
 20
24.49966304909148
 30
0.0
 10
17.77580547315496
 20
24.50375836839458
 30
0.0
  0
LINE
  5
3F4
330
1F
100
AcDbEntity
  8
SLD-0
  6
Continuous
370
    15
100
AcDbLine
 10
17.7758054732
 20
24.5037583684
 30
0.0
 11
17.8258054689
 21
24.5037583684
 31
0.0
  0
SPLINE
  5
3F5
330
1F
100
AcDbEntity
  8
SLD-0
  6
Continuous
370
    15
100
AcDbSpline
210
0.0
220
0.0
230
1.0
 70
     8
 71
     3
 72
    15
 73
    11
 74
     0
 42
0.00000001
 43
0.00000001
 12
1.0
 22
0.0
 32
0.0
 13
1.0
 23
0.0
 33
0.0
 40
0.0
 40
0.0
 40
0.0
 40
0.0
 40
0.1250001518648035
 40
0.249999913205997
 40
0.374999084775811
 40
0.4999995430391695
 40
0.6250010903979326
 40
0.7500013219474116
 40
0.874997890475432
 40
1.0
 40
1.0
 40
1.0
 40
1.0
 10
17.7445554208249
 20
24.4225083203354
 30
0.0
 10
17.74987321183384
 20
24.42281036213791
 30
0.0
 10
17.76050877723796
 20
24.42341444479927
 30
0.0
 10
17.77584851830719
 20
24.42824688580009
 30
0.0
 10
17.78998738962252
 20
24.43575529814428
 30
0.0
 10
17.80237541168433
 20
24.44593792478184
 30
0.0
 10
17.81255774262562
 20
24.45832677619587
 30
0.0
 10
17.82006679918686
 20
24.4724650016667
 30
0.0
 10
17.82489832575905
 20
24.487804751886
 30
0.0
 10
17.82550308337443
 20
24.49844041764839
 30
0.0
 10
17.82580546888407
 20
24.50375836839458
 30
0.0
  0
LINE
  5
3F6
330
1F
100
AcDbEntity
  8
SLD-0
  6
Continuous
370
    15
100
AcDbLine
 10
17.7758054732
 20
25.222508252
 30
0.0
 11
17.8258054689
 21
25.222508252
 31
0.0
  0
LINE
  5
3F7
330
1F
100
AcDbEntity
  8
SLD-0
  6
Continuous
370
    15
100
AcDbLine
 10
17.7758054732
 20
25.222508252
 30
0.0
 11
17.7758054732
 21
24.5037583684
 31
0.0
  0
LINE
  5
3F8
330
1F
100
AcDbEntity
  8
SLD-0
  6
Continuous
370
    15
100
AcDbLine
 10
17.8258054689
 20
25.222508252
 30
0.0
 11
17.8258054689
 21
24.5037583684
 31
0.0
  0
LINE
  5
3F9
330
1F
100
AcDbEntity
  8
SLD-0
  6
Continuous
370
    15
100
AcDbLine
 10
14.9543053607
 20
24.3025082133
 30
0.0
 11
14.9543053607
 21
24.4275078359
 31
0.0
  0
LINE
  5
3FA
330
1F
100
AcDbEntity
  8
SLD-0
  6
Continuous
370
    15
100
AcDbLine
 10
2.9748054556
 20
24.3025082133
 30
0.0
 11
2.9543052124
 21
24.3025082133
 31
0.0
  0
LINE
  5
3FB
330
1F
100
AcDbEntity
  8
SLD-0
  6
Continuous
370
    15
100
AcDbLine
 10
2.9543052124
 20
24.3025082133
 30
0.0
 11
2.9543052124
 21
24.4275078359
 31
0.0
  0
LINE
  5
3FC
330
1F
100
AcDbEntity
  8
SLD-0
  6
Continuous
370
    15
100
AcDbLine
 10
14.9543053607
 20
24.4275078359
 30
0.0
 11
2.9543052124
 21
24.4275078359
 31
0.0
  0
LINE
  5
3FD
330
1F
100
AcDbEntity
  8
SLD-0
  6
Continuous
370
    15
100
AcDbLine
 10
2.9543052124
 20
24.4671085518
 30
0.0
 11
2.9543052124
 21
24.4275078359
 31
0.0
  0
LINE
  5
3FE
330
1F
100
AcDbEntity
  8
SLD-0
  6
Continuous
370
    15
100
AcDbLine
 10
2.9543052124
 20
24.4671085518
 30
0.0
 11
14.9543053607
 21
24.4671085518
 31
0.0
  0
LINE
  5
3FF
330
1F
100
AcDbEntity
  8
SLD-0
  6
Continuous
370
    15
100
AcDbLine
 10
14.9543053607
 20
24.4671085518
 30
0.0
 11
14.9543053607
 21
24.4275078359
 31
0.0
  0
LINE
  5
400
330
1F
100
AcDbEntity
  8
SLD-0
  6
Continuous
370
    15
100
AcDbLine
 10
2.9543052124
 20
24.4707141635
 30
0.0
 11
2.9543052124
 21
24.4671085518
 31
0.0
  0
LINE
  5
401
330
1F
100
AcDbEntity
  8
SLD-0
  6
Continuous
370
    15
100
AcDbLine
 10
2.9543052124
 20
24.4707141635
 30
0.0
 11
14.9543053607
 21
24.4707141635
 31
0.0
  0
LINE
  5
402
330
1F
100
AcDbEntity
  8
SLD-0
  6
Continuous
370
    15
100
AcDbLine
 10
14.9543053607
 20
24.4707141635
 30
0.0
 11
14.9543053607
 21
24.4671085518
 31
0.0
  0
LINE
  5
403
330
1F
100
AcDbEntity
  8
SLD-0
  6
Continuous
370
    15
100
AcDbLine
 10
2.9543052124
 20
24.5568956745
 30
0.0
 11
2.9543052124
 21
24.4707141635
 31
0.0
  0
LINE
  5
404
330
1F
100
AcDbEntity
  8
SLD-0
  6
Continuous
370
    15
100
AcDbLine
 10
2.9543052124
 20
24.5568956745
 30
0.0
 11
14.9543053607
 21
24.5568956745
 31
0.0
  0
LINE
  5
405
330
1F
100
AcDbEntity
  8
SLD-0
  6
Continuous
370
    15
100
AcDbLine
 10
14.9543053607
 20
24.5568956745
 30
0.0
 11
14.9543053607
 21
24.4707141635
 31
0.0
  0
LINE
  5
406
330
1F
100
AcDbEntity
  8
SLD-0
  6
Continuous
370
    15
100
AcDbLine
 10
2.9543052124
 20
24.5651077397
 30
0.0
 11
2.9543052124
 21
24.5568956745
 31
0.0
  0
LINE
  5
407
330
1F
100
AcDbEntity
  8
SLD-0
  6
Continuous
370
    15
100
AcDbLine
 10
2.9543052124
 20
24.5651077397
 30
0.0
 11
14.9543053607
 21
24.5651077397
 31
0.0
  0
LINE
  5
408
330
1F
100
AcDbEntity
  8
SLD-0
  6
Continuous
370
    15
100
AcDbLine
 10
14.9543053607
 20
24.5651077397
 30
0.0
 11
14.9543053607
 21
24.5568956745
 31
0.0
  0
LINE
  5
409
330
1F
100
AcDbEntity
  8
SLD-0
  6
Continuous
370
    15
100
AcDbLine
 10
17.8784514474
 20
24.2689078547
 30
0.0
 11
17.8784514474
 21
24.3025082133
 31
0.0
  0
LINE
  5
40A
330
1F
100
AcDbEntity
  8
SLD-0
  6
Continuous
370
    15
100
AcDbLine
 10
17.6584513488
 20
24.2689078547
 30
0.0
 11
17.6584513488
 21
24.3025082133
 31
0.0
  0
LINE
  5
40B
330
1F
100
AcDbEntity
  8
SLD-0
  6
Continuous
370
    15
100
AcDbLine
 10
17.6584513488
 20
24.2689078547
 30
0.0
 11
17.8784514474
 21
24.2689078547
 31
0.0
  0
LINE
  5
40C
330
1F
100
AcDbEntity
  8
SLD-0
  6
Continuous
370
    15
100
AcDbLine
 10
17.6584513488
 20
24.3025082133
 30
0.0
 11
17.8784514474
 21
24.3025082133
 31
0.0
  0
ARC
  5
40D
330
1F
100
AcDbEntity
  8
SLD-0
  6
Continuous
370
    15
100
AcDbCircle
 10
17.8784514043
 20
24.3175081368
 30
0.0
 40
0.0150000000000041
100
AcDbArc
 50
270.0
 51
0.0
  0
LINE
  5
40E
330
1F
100
AcDbEntity
  8
SLD-0
  6
Continuous
370
    15
100
AcDbLine
 10
17.9270513793
 20
24.3175079333
 30
0.0
 11
17.8934514608
 21
24.3175079333
 31
0.0
  0
ARC
  5
40F
330
1F
100
AcDbEntity
  8
SLD-0
  6
Continuous
370
    15
100
AcDbCircle
 10
17.8784514043
 20
24.3175081368
 30
0.0
 40
0.048600000000004
100
AcDbArc
 50
270.0
 51
0.0
  0
LINE
  5
410
330
1F
100
AcDbEntity
  8
SLD-0
  6
Continuous
370
    15
100
AcDbLine
 10
17.9270513793
 20
25.5545565762
 30
0.0
 11
17.8934514608
 21
25.5545565762
 31
0.0
  0
LINE
  5
411
330
1F
100
AcDbEntity
  8
SLD-0
  6
Continuous
370
    15
100
AcDbLine
 10
17.8934514608
 20
25.5545565762
 30
0.0
 11
17.8934514608
 21
25.9295566175
 31
0.0
  0
LINE
  5
412
330
1F
100
AcDbEntity
  8
SLD-0
  6
Continuous
370
    15
100
AcDbLine
 10
17.8934514608
 20
25.9295566175
 30
0.0
 11
17.9270513793
 21
25.9295566175
 31
0.0
  0
LINE
  5
413
330
1F
100
AcDbEntity
  8
SLD-0
  6
Continuous
370
    15
100
AcDbLine
 10
17.9270513793
 20
25.9295566175
 30
0.0
 11
17.9270513793
 21
25.5545565762
 31
0.0
  0
LINE
  5
414
330
1F
100
AcDbEntity
  8
SLD-0
  6
Continuous
370
    15
100
AcDbLine
 10
17.9270513793
 20
24.3175079333
 30
0.0
 11
17.9270513793
 21
25.5545565762
 31
0.0
  0
LINE
  5
415
330
1F
100
AcDbEntity
  8
SLD-0
  6
Continuous
370
    15
100
AcDbLine
 10
17.8934514608
 20
24.3175079333
 30
0.0
 11
17.8934514608
 21
25.5545565762
 31
0.0
  0
SPLINE
  5
416
330
1F
100
AcDbEntity
  8
SLD-0
  6
Continuous
370
    15
100
AcDbSpline
210
0.0
220
0.0
230
1.0
 70
     8
 71
     3
 72
    11
 73
     7
 74
     0
 42
0.00000001
 43
0.00000001
 12
1.0
 22
0.0
 32
0.0
 13
1.0
 23
0.0
 33
0.0
 40
0.0
 40
0.0
 40
0.0
 40
0.0
 40
0.2500000038783119
 40
0.5000029156375618
 40
0.7500044223011583
 40
1.0
 40
1.0
 40
1.0
 40
1.0
 10
16.85508633604766
 20
24.2539081346858
 30
0.0
 10
16.85699832774794
 20
24.26027649224286
 30
0.0
 10
16.86082233338788
 20
24.27301328143065
 30
0.0
 10
16.86994689453145
 20
24.28907774576945
 30
0.0
 10
16.88087951129575
 20
24.30031651606568
 30
0.0
 10
16.88892748132752
 20
24.30177765329965
 30
0.0
 10
16.892951418627
 20
24.30250821325355
 30
0.0
  0
LINE
  5
417
330
1F
100
AcDbEntity
  8
SLD-0
  6
Continuous
370
    15
100
AcDbLine
 10
3.3531576715
 20
24.2539081347
 30
0.0
 11
16.855086336
 21
24.2539081347
 31
0.0
  0
SPLINE
  5
418
330
1F
100
AcDbEntity
  8
SLD-0
  6
Continuous
370
    15
100
AcDbSpline
210
0.0
220
0.0
230
1.0
 70
     8
 71
     3
 72
    11
 73
     7
 74
     0
 42
0.00000001
 43
0.00000001
 12
1.0
 22
0.0
 32
0.0
 13
1.0
 23
0.0
 33
0.0
 40
0.0
 40
0.0
 40
0.0
 40
0.0
 40
0.2500032019678786
 40
0.4999980211988395
 40
0.7500033925751175
 40
1.0
 40
1.0
 40
1.0
 40
1.0
 10
3.325048449533224
 20
24.30250821325355
 30
0.0
 10
3.326522705989426
 20
24.30177773142203
 30
0.0
 10
3.329471169469245
 20
24.30031679225244
 30
0.0
 10
3.335031177806178
 20
24.28907740095211
 30
0.0
 10
3.342400192099972
 20
24.27301355893607
 30
0.0
 10
3.349571886921255
 20
24.26027653501841
 30
0.0
 10
3.35315767147976
 20
24.2539081346858
 30
0.0
  0
LINE
  5
419
330
1F
100
AcDbEntity
  8
SLD-0
  6
Continuous
370
    15
100
AcDbLine
 10
3.3250484495
 20
24.3025082133
 30
0.0
 11
16.8929514186
 21
24.3025082133
 31
0.0
  0
LINE
  5
41A
330
1F
100
AcDbEntity
  8
SLD-0
  6
Continuous
370
    15
100
AcDbLine
 10
16.8929514186
 20
24.3025082133
 30
0.0
 11
16.8929514186
 21
24.2689078547
 31
0.0
  0
SPLINE
  5
41B
330
1F
100
AcDbEntity
  8
SLD-0
  6
Continuous
370
    15
100
AcDbSpline
210
0.0
220
0.0
230
1.0
 70
     8
 71
     3
 72
    11
 73
     7
 74
     0
 42
0.00000001
 43
0.00000001
 12
1.0
 22
0.0
 32
0.0
 13
1.0
 23
0.0
 33
0.0
 40
0.0
 40
0.0
 40
0.0
 40
0.0
 40
0.2499944653324178
 40
0.500013455716256
 40
0.7500099239125825
 40
1.0
 40
1.0
 40
1.0
 40
1.0
 10
16.86767312397735
 20
24.2539081346858
 30
0.0
 10
16.86939586877779
 20
24.25587350921915
 30
0.0
 10
16.87284152738404
 20
24.25980445109375
 30
0.0
 10
16.87905513612037
 20
24.26476324465751
 30
0.0
 10
16.8858276172038
 20
24.26823149009905
 30
0.0
 10
16.8905768383915
 20
24.26868240178199
 30
0.0
 10
16.892951418627
 20
24.26890785474109
 30
0.0
  0
LINE
  5
41C
330
1F
100
AcDbEntity
  8
SLD-0
  6
Continuous
370
    15
100
AcDbLine
 10
16.855086336
 20
24.2539081347
 30
0.0
 11
16.867673124
 21
24.2539081347
 31
0.0
  0
LINE
  5
41D
330
1F
100
AcDbEntity
  8
SLD-0
  6
Continuous
370
    15
100
AcDbLine
 10
3.8028418634
 20
23.7689081908
 30
0.0
 11
16.6642068611
 21
23.7689081908
 31
0.0
  0
LINE
  5
41E
330
1F
100
AcDbEntity
  8
SLD-0
  6
Continuous
370
    15
100
AcDbLine
 10
3.3531576715
 20
24.2539081347
 30
0.0
 11
3.8028418634
 21
23.7689081908
 31
0.0
  0
LINE
  5
41F
330
1F
100
AcDbEntity
  8
SLD-0
  6
Continuous
370
    15
100
AcDbLine
 10
16.6642068611
 20
23.7689081908
 30
0.0
 11
16.855086336
 21
24.2539081347
 31
0.0
  0
LINE
  5
420
330
1F
100
AcDbEntity
  8
SLD-0
  6
Continuous
370
    15
100
AcDbLine
 10
16.676793649
 20
23.7689081908
 30
0.0
 11
16.6642068611
 21
23.7689081908
 31
0.0
  0
LINE
  5
421
330
1F
100
AcDbEntity
  8
SLD-0
  6
Continuous
370
    15
100
AcDbLine
 10
16.676793649
 20
23.7689081908
 30
0.0
 11
16.867673124
 21
24.2539081347
 31
0.0
  0
SPLINE
  5
422
330
1F
100
AcDbEntity
  8
SLD-0
  6
Continuous
370
    15
100
AcDbSpline
210
0.0
220
0.0
230
1.0
 70
     8
 71
     3
 72
    10
 73
     6
 74
     0
 42
0.00000001
 43
0.00000001
 12
1.0
 22
0.0
 32
0.0
 13
1.0
 23
0.0
 33
0.0
 40
0.0
 40
0.0
 40
0.0
 40
0.0
 40
0.4158992905571848
 40
0.8317738056983347
 40
1.0
 40
1.0
 40
1.0
 40
1.0
 10
3.325048449533224
 20
24.26890785474109
 30
0.0
 10
3.328181223174338
 20
24.26866768235302
 30
0.0
 10
3.334446583835018
 20
24.26818735188412
 30
0.0
 10
3.342125667546384
 20
24.26558481495353
 30
0.0
 10
3.347015120325948
 20
24.26322559205624
 30
0.0
 10
3.348423326171321
 20
24.26254611489912
 30
0.0
  0
LINE
  5
423
330
1F
100
AcDbEntity
  8
SLD-0
  6
Continuous
370
    15
100
AcDbLine
 10
16.8929514186
 20
24.2689078547
 30
0.0
 11
17.6584513488
 21
24.2689078547
 31
0.0
  0
LINE
  5
424
330
1F
100
AcDbEntity
  8
SLD-0
  6
Continuous
370
    15
100
AcDbLine
 10
16.8929514186
 20
24.3025082133
 30
0.0
 11
17.6584513488
 21
24.3025082133
 31
0.0
  0
LINE
  5
425
330
1F
100
AcDbEntity
  8
SLD-0
  6
Continuous
370
    15
100
AcDbLine
 10
3.3250484495
 20
24.3025082133
 30
0.0
 11
3.3250484495
 21
24.2689078547
 31
0.0
  0
LINE
  5
426
330
1F
100
AcDbEntity
  8
SLD-0
  6
Continuous
370
    15
100
AcDbLine
 10
2.9748054556
 20
24.2689078547
 30
0.0
 11
2.9748054556
 21
24.3025082133
 31
0.0
  0
LINE
  5
427
330
1F
100
AcDbEntity
  8
SLD-0
  6
Continuous
370
    15
100
AcDbLine
 10
2.9748054556
 20
24.2689078547
 30
0.0
 11
3.3250484495
 21
24.2689078547
 31
0.0
  0
LINE
  5
428
330
1F
100
AcDbEntity
  8
SLD-0
  6
Continuous
370
    15
100
AcDbLine
 10
2.9748054556
 20
24.3025082133
 30
0.0
 11
3.3250484495
 21
24.3025082133
 31
0.0
  0
LINE
  5
429
330
1F
100
AcDbEntity
  8
SLD-0
  6
Continuous
370
    15
100
AcDbLine
 10
2.9598057355
 20
24.2539081347
 30
0.0
 11
2.926205377
 21
24.2539081347
 31
0.0
  0
SPLINE
  5
42A
330
1F
100
AcDbEntity
  8
SLD-0
  6
Continuous
370
    15
100
AcDbSpline
210
0.0
220
0.0
230
1.0
 70
     8
 71
     3
 72
    11
 73
     7
 74
     0
 42
0.00000001
 43
0.00000001
 12
1.0
 22
0.0
 32
0.0
 13
1.0
 23
0.0
 33
0.0
 40
0.0
 40
0.0
 40
0.0
 40
0.0
 40
0.2499980279237378
 40
0.4999990390665263
 40
0.7500019720762622
 40
1.0
 40
1.0
 40
1.0
 40
1.0
 10
2.926205377002431
 20
24.2539081346858
 30
0.0
 10
2.926935922649397
 20
24.26027648925198
 30
0.0
 10
2.928397022660901
 20
24.27301327437773
 30
0.0
 10
2.939635873722413
 20
24.2890778576115
 30
0.0
 10
2.955700222335418
 20
24.3003165166126
 30
0.0
 10
2.968437086142115
 20
24.30177765248456
 30
0.0
 10
2.974805455570176
 20
24.30250821325355
 30
0.0
  0
SPLINE
  5
42B
330
1F
100
AcDbEntity
  8
SLD-0
  6
Continuous
370
    15
100
AcDbSpline
210
0.0
220
0.0
230
1.0
 70
     8
 71
     3
 72
    11
 73
     7
 74
     0
 42
0.00000001
 43
0.00000001
 12
1.0
 22
0.0
 32
0.0
 13
1.0
 23
0.0
 33
0.0
 40
0.0
 40
0.0
 40
0.0
 40
0.0
 40
0.2499883248186861
 40
0.4999938035985632
 40
0.7500116751813141
 40
1.0
 40
1.0
 40
1.0
 40
1.0
 10
2.959805735514891
 20
24.2539081346858
 30
0.0
 10
2.960031206816836
 20
24.25587348512494
 30
0.0
 10
2.960482164892356
 20
24.25980432086369
 30
0.0
 10
2.96395024794933
 20
24.2647636230814
 30
0.0
 10
2.968909083229128
 20
24.26823132391051
 30
0.0
 10
2.97284007555427
 20
24.26868235334843
 30
0.0
 10
2.974805455570178
 20
24.26890785474109
 30
0.0
  0
LINE
  5
42C
330
1F
100
AcDbEntity
  8
SLD-0
  6
Continuous
370
    15
100
AcDbLine
 10
2.9598057355
 20
23.7689081908
 30
0.0
 11
2.926205377
 21
23.7689081908
 31
0.0
  0
LINE
  5
42D
330
1F
100
AcDbEntity
  8
SLD-0
  6
Continuous
370
    15
100
AcDbLine
 10
2.9598057355
 20
23.7689081908
 30
0.0
 11
2.9598057355
 21
24.2539081347
 31
0.0
  0
LINE
  5
42E
330
1F
100
AcDbEntity
  8
SLD-0
  6
Continuous
370
    15
100
AcDbLine
 10
2.926205377
 20
23.7689081908
 30
0.0
 11
2.926205377
 21
24.2539081347
 31
0.0
  0
LINE
  5
42F
330
1F
100
AcDbEntity
  8
SLD-0
  6
Continuous
370
    15
100
AcDbLine
 10
16.9000048305
 20
3.2053080899
 30
0.0
 11
16.9000048305
 21
3.2389084484
 31
0.0
  0
SPLINE
  5
430
330
1F
100
AcDbEntity
  8
SLD-0
  6
Continuous
370
    15
100
AcDbSpline
210
0.0
220
0.0
230
1.0
 70
     8
 71
     3
 72
    11
 73
     7
 74
     0
 42
0.00000001
 43
0.00000001
 12
1.0
 22
0.0
 32
0.0
 13
1.0
 23
0.0
 33
0.0
 40
0.0
 40
0.0
 40
0.0
 40
0.0
 40
0.2499937709264524
 40
0.4999957183945745
 40
0.7500007471198228
 40
1.0
 40
1.0
 40
1.0
 40
1.0
 10
16.90000483047871
 20
3.205308089909667
 30
0.0
 10
16.89598099975138
 20
3.206038655482077
 30
0.0
 10
16.88793320668934
 20
3.207499810521495
 30
0.0
 10
16.87700066648603
 20
3.218738629685202
 30
0.0
 10
16.86787562650561
 20
3.234802894960245
 30
0.0
 10
16.86405188826467
 20
3.247539793015504
 30
0.0
 10
16.86214004122932
 20
3.253908168477412
 30
0.0
  0
LINE
  5
431
330
1F
100
AcDbEntity
  8
SLD-0
  6
Continuous
370
    15
100
AcDbLine
 10
16.8621400412
 20
3.2539081685
 30
0.0
 11
16.8747268292
 21
3.2539081685
 31
0.0
  0
SPLINE
  5
432
330
1F
100
AcDbEntity
  8
SLD-0
  6
Continuous
370
    15
100
AcDbSpline
210
0.0
220
0.0
230
1.0
 70
     8
 71
     3
 72
    11
 73
     7
 74
     0
 42
0.00000001
 43
0.00000001
 12
1.0
 22
0.0
 32
0.0
 13
1.0
 23
0.0
 33
0.0
 40
0.0
 40
0.0
 40
0.0
 40
0.0
 40
0.2499920571340867
 40
0.4999825819264917
 40
0.7500035535861305
 40
1.0
 40
1.0
 40
1.0
 40
1.0
 10
16.90000483047871
 20
3.238908448422125
 30
0.0
 10
16.89763024081297
 20
3.239133887115095
 30
0.0
 10
16.89288107603668
 20
3.23958476311919
 30
0.0
 10
16.88610880239608
 20
3.24305314166645
 30
0.0
 10
16.87989522587972
 20
3.248011844378149
 30
0.0
 10
16.87644957173086
 20
3.251942791380375
 30
0.0
 10
16.87472682915901
 20
3.25390816847741
 30
0.0
  0
SPLINE
  5
433
330
1F
100
AcDbEntity
  8
SLD-0
  6
Continuous
370
    15
100
AcDbSpline
210
0.0
220
0.0
230
1.0
 70
     8
 71
     3
 72
    11
 73
     7
 74
     0
 42
0.00000001
 43
0.00000001
 12
1.0
 22
0.0
 32
0.0
 13
1.0
 23
0.0
 33
0.0
 40
0.0
 40
0.0
 40
0.0
 40
0.0
 40
0.2499979527035104
 40
0.4999996251587643
 40
0.7500032212666355
 40
1.0
 40
1.0
 40
1.0
 40
1.0
 10
3.346416949349155
 20
3.25390816847741
 30
0.0
 10
3.345131283221928
 20
3.247539809780768
 30
0.0
 10
3.342559931837881
 20
3.234802997631854
 30
0.0
 10
3.342090931296324
 20
3.218738449245031
 30
0.0
 10
3.343431111331603
 20
3.207499815583577
 30
0.0
 10
3.345083761424754
 20
3.206038658493469
 30
0.0
 10
3.345910075204609
 20
3.205308089909665
 30
0.0
  0
LINE
  5
434
330
1F
100
AcDbEntity
  8
SLD-0
  6
Continuous
370
    15
100
AcDbLine
 10
16.8621400412
 20
3.2539081685
 30
0.0
 11
3.3464169493
 21
3.2539081685
 31
0.0
  0
LINE
  5
435
330
1F
100
AcDbEntity
  8
SLD-0
  6
Continuous
370
    15
100
AcDbLine
 10
3.3459100752
 20
3.2053080899
 30
0.0
 11
16.9000048305
 21
3.2053080899
 31
0.0
  0
LINE
  5
436
330
1F
100
AcDbEntity
  8
SLD-0
  6
Continuous
370
    15
100
AcDbLine
 10
16.671260273
 20
3.7389081124
 30
0.0
 11
16.6838470609
 21
3.7389081124
 31
0.0
  0
LINE
  5
437
330
1F
100
AcDbEntity
  8
SLD-0
  6
Continuous
370
    15
100
AcDbLine
 10
16.6838470609
 20
3.7389081124
 30
0.0
 11
16.8747268292
 21
3.2539081685
 31
0.0
  0
LINE
  5
438
330
1F
100
AcDbEntity
  8
SLD-0
  6
Continuous
370
    15
100
AcDbLine
 10
16.671260273
 20
3.7389081124
 30
0.0
 11
16.8621400412
 21
3.2539081685
 31
0.0
  0
LINE
  5
439
330
1F
100
AcDbEntity
  8
SLD-0
  6
Continuous
370
    15
100
AcDbLine
 10
3.3464169493
 20
3.2539081685
 30
0.0
 11
3.3468299579
 21
3.2550110891
 31
0.0
  0
LINE
  5
43A
330
1F
100
AcDbEntity
  8
SLD-0
  6
Continuous
370
    15
100
AcDbLine
 10
3.3468299579
 20
3.2550110891
 30
0.0
 11
3.7954910149
 21
3.7389081124
 31
0.0
  0
LINE
  5
43B
330
1F
100
AcDbEntity
  8
SLD-0
  6
Continuous
370
    15
100
AcDbLine
 10
3.7954910149
 20
3.7389081124
 30
0.0
 11
16.671260273
 21
3.7389081124
 31
0.0
  0
LINE
  5
43C
330
1F
100
AcDbEntity
  8
SLD-0
  6
Continuous
370
    15
100
AcDbLine
 10
16.9437549917
 20
3.2389084484
 30
0.0
 11
16.9437549917
 21
3.2053080899
 31
0.0
  0
LINE
  5
43D
330
1F
100
AcDbEntity
  8
SLD-0
  6
Continuous
370
    15
100
AcDbLine
 10
16.9437549917
 20
3.2053080899
 30
0.0
 11
16.9000048305
 21
3.2053080899
 31
0.0
  0
LINE
  5
43E
330
1F
100
AcDbEntity
  8
SLD-0
  6
Continuous
370
    15
100
AcDbLine
 10
16.9437549917
 20
3.2389084484
 30
0.0
 11
16.9000048305
 21
3.2389084484
 31
0.0
  0
ARC
  5
43F
330
1F
100
AcDbEntity
  8
SLD-0
  6
Continuous
370
    15
100
AcDbCircle
 10
17.835754957
 20
3.2539081368
 30
0.0
 40
0.0486000000000004
100
AcDbArc
 50
270.0
 51
0.0
  0
LINE
  5
440
330
1F
100
AcDbEntity
  8
SLD-0
  6
Continuous
370
    15
100
AcDbLine
 10
17.8357549273
 20
3.2389084484
 30
0.0
 11
17.8357549273
 21
3.2053080899
 31
0.0
  0
ARC
  5
441
330
1F
100
AcDbEntity
  8
SLD-0
  6
Continuous
370
    15
100
AcDbCircle
 10
17.835754957
 20
3.2539081368
 30
0.0
 40
0.0150000000000006
100
AcDbArc
 50
270.0
 51
360.0
  0
LINE
  5
442
330
1F
100
AcDbEntity
  8
SLD-0
  6
Continuous
370
    15
100
AcDbLine
 10
17.8357549273
 20
3.2053080899
 30
0.0
 11
16.9437549917
 21
3.2053080899
 31
0.0
  0
LINE
  5
443
330
1F
100
AcDbEntity
  8
SLD-0
  6
Continuous
370
    15
100
AcDbLine
 10
17.8357549273
 20
3.2389084484
 30
0.0
 11
16.9437549917
 21
3.2389084484
 31
0.0
  0
LINE
  5
444
330
1F
100
AcDbEntity
  8
SLD-0
  6
Continuous
370
    15
100
AcDbLine
 10
2.9700054044
 20
3.2389084484
 30
0.0
 11
2.9700054044
 21
3.2053080899
 31
0.0
  0
LINE
  5
445
330
1F
100
AcDbEntity
  8
SLD-0
  6
Continuous
370
    15
100
AcDbLine
 10
3.3459100752
 20
3.2053080899
 30
0.0
 11
2.9700054044
 21
3.2053080899
 31
0.0
  0
LINE
  5
446
330
1F
100
AcDbEntity
  8
SLD-0
  6
Continuous
370
    15
100
AcDbLine
 10
3.3437617267
 20
3.2389084484
 30
0.0
 11
2.9700054044
 21
3.2389084484
 31
0.0
  0
SPLINE
  5
447
330
1F
100
AcDbEntity
  8
SLD-0
  6
Continuous
370
    15
100
AcDbSpline
210
0.0
220
0.0
230
1.0
 70
     8
 71
     3
 72
    11
 73
     7
 74
     0
 42
0.00000001
 43
0.00000001
 12
1.0
 22
0.0
 32
0.0
 13
1.0
 23
0.0
 33
0.0
 40
0.0
 40
0.0
 40
0.0
 40
0.0
 40
0.2499999498078852
 40
0.5000009609449404
 40
0.7500019720819956
 40
1.0
 40
1.0
 40
1.0
 40
1.0
 10
2.970005404354112
 20
3.205308089909667
 30
0.0
 10
2.963637058637376
 20
3.206038631270799
 30
0.0
 10
2.950900340168255
 20
3.207499717094444
 30
0.0
 10
2.934835736001378
 20
3.218738511269411
 30
0.0
 10
2.923596985871043
 20
3.234803022647454
 30
0.0
 10
2.92213587624205
 20
3.247539811865233
 30
0.0
 10
2.921405325786367
 20
3.253908168477412
 30
0.0
  0
LINE
  5
448
330
1F
100
AcDbEntity
  8
SLD-0
  6
Continuous
370
    15
100
AcDbLine
 10
2.955004511
 20
3.2539081685
 30
0.0
 11
2.9214053258
 21
3.2539081685
 31
0.0
  0
SPLINE
  5
449
330
1F
100
AcDbEntity
  8
SLD-0
  6
Continuous
370
    15
100
AcDbSpline
210
0.0
220
0.0
230
1.0
 70
     8
 71
     3
 72
    11
 73
     7
 74
     0
 42
0.00000001
 43
0.00000001
 12
1.0
 22
0.0
 32
0.0
 13
1.0
 23
0.0
 33
0.0
 40
0.0
 40
0.0
 40
0.0
 40
0.0
 40
0.2500264409872902
 40
0.5000055369867037
 40
0.7500085396764089
 40
1.0
 40
1.0
 40
1.0
 40
1.0
 10
2.970005404354112
 20
3.238908448422125
 30
0.0
 10
2.968039548447292
 20
3.239133831845218
 30
0.0
 10
2.964108208887981
 20
3.239584556012815
 30
0.0
 10
2.959150104433905
 20
3.243053053755945
 30
0.0
 10
2.955682361003853
 20
3.248012019958084
 30
0.0
 10
2.955230457509916
 20
3.251942815885093
 30
0.0
 10
2.955004510979046
 20
3.253908168477412
 30
0.0
  0
LINE
  5
44A
330
1F
100
AcDbEntity
  8
SLD-0
  6
Continuous
370
    15
100
AcDbLine
 10
2.9214053258
 20
3.7389081124
 30
0.0
 11
2.9214053258
 21
3.2539081685
 31
0.0
  0
LINE
  5
44B
330
1F
100
AcDbEntity
  8
SLD-0
  6
Continuous
370
    15
100
AcDbLine
 10
2.955004511
 20
3.7389081124
 30
0.0
 11
2.9214053258
 21
3.7389081124
 31
0.0
  0
LINE
  5
44C
330
1F
100
AcDbEntity
  8
SLD-0
  6
Continuous
370
    15
100
AcDbLine
 10
2.955004511
 20
3.7389081124
 30
0.0
 11
2.955004511
 21
3.2539081685
 31
0.0
  0
LINE
  5
44D
330
1F
100
AcDbEntity
  8
SLD-0
  6
Continuous
370
    15
100
AcDbLine
 10
3.3437617267
 20
3.2389084484
 30
0.0
 11
3.3464169493
 21
3.2539081685
 31
0.0
  0
LINE
  5
44E
330
1F
100
AcDbEntity
  8
SLD-0
  6
Continuous
370
    15
100
AcDbLine
 10
17.9284049503
 20
7.7539080774
 30
0.0
 11
17.9284049503
 21
3.6289082098
 31
0.0
  0
LINE
  5
44F
330
1F
100
AcDbEntity
  8
SLD-0
  6
Continuous
370
    15
100
AcDbLine
 10
17.8888049678
 20
3.6289082098
 30
0.0
 11
17.9284049503
 21
3.6289082098
 31
0.0
  0
LINE
  5
450
330
1F
100
AcDbEntity
  8
SLD-0
  6
Continuous
370
    15
100
AcDbLine
 10
17.8888049678
 20
7.7539080774
 30
0.0
 11
17.8888049678
 21
3.6289082098
 31
0.0
  0
LINE
  5
451
330
1F
100
AcDbEntity
  8
SLD-0
  6
Continuous
370
    15
100
AcDbLine
 10
17.9284049503
 20
7.7539080774
 30
0.0
 11
17.8888049678
 21
7.7539080774
 31
0.0
  0
LINE
  5
452
330
1F
100
AcDbEntity
  8
SLD-0
  6
Continuous
370
    15
100
AcDbLine
 10
17.9284049503
 20
3.2539081685
 30
0.0
 11
17.8888049678
 21
3.2539081685
 31
0.0
  0
LINE
  5
453
330
1F
100
AcDbEntity
  8
SLD-0
  6
Continuous
370
    15
100
AcDbLine
 10
17.8888049678
 20
3.2539081685
 30
0.0
 11
17.8888049678
 21
3.6289082098
 31
0.0
  0
LINE
  5
454
330
1F
100
AcDbEntity
  8
SLD-0
  6
Continuous
370
    15
100
AcDbLine
 10
17.9284049503
 20
3.6289082098
 30
0.0
 11
17.9284049503
 21
3.2539081685
 31
0.0
  0
LINE
  5
455
330
1F
100
AcDbEntity
  8
SLD-0
  6
Continuous
370
    15
100
AcDbLine
 10
17.9284049503
 20
24.2539081347
 30
0.0
 11
17.9284049503
 21
9.2539082426
 31
0.0
  0
LINE
  5
456
330
1F
100
AcDbEntity
  8
SLD-0
  6
Continuous
370
    15
100
AcDbLine
 10
17.9284049503
 20
9.2539082426
 30
0.0
 11
17.8888049678
 21
9.2539082426
 31
0.0
  0
LINE
  5
457
330
1F
100
AcDbEntity
  8
SLD-0
  6
Continuous
370
    15
100
AcDbLine
 10
17.8888049678
 20
24.2539081347
 30
0.0
 11
17.8888049678
 21
9.2539082426
 31
0.0
  0
LINE
  5
458
330
1F
100
AcDbEntity
  8
SLD-0
  6
Continuous
370
    15
100
AcDbLine
 10
17.9284049503
 20
24.2539081347
 30
0.0
 11
17.8888049678
 21
24.2539081347
 31
0.0
  0
LINE
  5
459
330
1F
100
AcDbEntity
  8
SLD-0
  6
Continuous
370
    15
100
AcDbLine
 10
17.9284049503
 20
9.2479081786
 30
0.0
 11
17.9284049503
 21
7.7539080774
 31
0.0
  0
LINE
  5
45A
330
1F
100
AcDbEntity
  8
SLD-0
  6
Continuous
370
    15
100
AcDbLine
 10
17.8888049678
 20
9.2539082426
 30
0.0
 11
17.8888049678
 21
7.7539080774
 31
0.0
  0
LINE
  5
45B
330
1F
100
AcDbEntity
  8
SLD-0
  6
Continuous
370
    15
100
AcDbLine
 10
17.8738049544
 20
24.2539081347
 30
0.0
 11
17.8738049544
 21
3.2539081685
 31
0.0
  0
LINE
  5
45C
330
1F
100
AcDbEntity
  8
SLD-0
  6
Continuous
370
    15
100
AcDbLine
 10
17.8888049678
 20
24.2539081347
 30
0.0
 11
17.8738049544
 21
24.2539081347
 31
0.0
  0
LINE
  5
45D
330
1F
100
AcDbEntity
  8
SLD-0
  6
Continuous
370
    15
100
AcDbLine
 10
17.8738049544
 20
3.2539081685
 30
0.0
 11
17.8888049678
 21
3.2539081685
 31
0.0
  0
LINE
  5
45E
330
1F
100
AcDbEntity
  8
SLD-0
  6
Continuous
370
    15
100
AcDbLine
 10
16.8844181572
 20
24.2539081347
 30
0.0
 11
16.8844181572
 21
3.2539081685
 31
0.0
  0
LINE
  5
45F
330
1F
100
AcDbEntity
  8
SLD-0
  6
Continuous
370
    15
100
AcDbLine
 10
17.8738049544
 20
24.2539081347
 30
0.0
 11
16.8844181572
 21
24.2539081347
 31
0.0
  0
LINE
  5
460
330
1F
100
AcDbEntity
  8
SLD-0
  6
Continuous
370
    15
100
AcDbLine
 10
17.8738049544
 20
3.2539081685
 30
0.0
 11
16.8844181572
 21
3.2539081685
 31
0.0
  0
LINE
  5
461
330
1F
100
AcDbEntity
  8
SLD-0
  6
Continuous
370
    15
100
AcDbLine
 10
16.8844181572
 20
24.2539081347
 30
0.0
 11
16.8675358456
 21
24.2539081347
 31
0.0
  0
LINE
  5
462
330
1F
100
AcDbEntity
  8
SLD-0
  6
Continuous
370
    15
100
AcDbLine
 10
16.874539098
 20
3.2539081685
 30
0.0
 11
16.8844181572
 21
3.2539081685
 31
0.0
  0
LINE
  5
463
330
1F
100
AcDbEntity
  8
SLD-0
  6
Continuous
370
    15
100
AcDbLine
 10
2.9959510246
 20
24.2539081347
 30
0.0
 11
2.9959510246
 21
3.2539081685
 31
0.0
  0
LINE
  5
464
330
1F
100
AcDbEntity
  8
SLD-0
  6
Continuous
370
    15
100
AcDbLine
 10
3.3531576715
 20
24.2539081347
 30
0.0
 11
2.9959510246
 21
24.2539081347
 31
0.0
  0
LINE
  5
465
330
1F
100
AcDbEntity
  8
SLD-0
  6
Continuous
370
    15
100
AcDbLine
 10
3.3464169493
 20
3.2539081685
 30
0.0
 11
2.9959510246
 21
3.2539081685
 31
0.0
  0
LWPOLYLINE
  5
466
330
1F
100
AcDbEntity
  8
SLD-0
  6
Continuous
370
    15
100
AcDbPolyline
 90
      142
 70
   128
 43
0.0
 10
9.4975963437
 20
5.2539079976
 10
9.496647128
 20
5.299846987
 10
9.4938018276
 20
5.345695044
 10
9.4890651356
 20
5.3913600631
 10
9.4824476121
 20
5.4367528721
 10
9.4739609901
 20
5.4817825385
 10
9.4636228695
 20
5.5263598903
 10
9.4514543701
 20
5.5703957549
 10
9.4374789582
 20
5.6138038934
 10
9.4217247935
 20
5.6564968936
 10
9.4042235557
 20
5.6983908629
 10
9.3850080977
 20
5.7394024958
 10
9.3641183123
 20
5.7794502465
 10
9.3415952659
 20
5.8184543293
 10
9.3174835444
 20
5.8563378917
 10
9.2918300808
 20
5.8930252545
 10
9.2646876743
 20
5.928443672
 10
9.2361102978
 20
5.962522745
 10
9.2061519239
 20
5.9951950076
 10
9.1748747385
 20
6.0263953405
 10
9.1423397544
 20
6.0560621444
 10
9.108611504
 20
6.0841367534
 10
9.0737580399
 20
6.1105622615
 10
9.0378474148
 20
6.1352876292
 10
9.0009500277
 20
6.1582629905
 10
8.9631409711
 20
6.1794425858
 10
8.9244953376
 20
6.1987847623
 10
8.8850893928
 20
6.2162508006
 10
8.8449994026
 20
6.2318060875
 10
8.8043086727
 20
6.2454201169
 10
8.7630946421
 20
6.2570653157
 10
8.7214417899
 20
6.2667193909
 10
8.6794299019
 20
6.2743623959
 10
8.6371458037
 20
6.2799790777
 10
8.5946704544
 20
6.2835588764
 10
8.5520895063
 20
6.2850941653
 10
8.5094886118
 20
6.2845820112
 10
8.4669499032
 20
6.2820241741
 10
8.4245590329
 20
6.2774247606
 10
8.3824004799
 20
6.2707931572
 10
8.3405587233
 20
6.2621428571
 10
8.299114722
 20
6.2514902868
 10
8.2581517819
 20
6.2388577394
 10
8.217750862
 20
6.2242692679
 10
8.1779940946
 20
6.2077542054
 10
8.1389577455
 20
6.1893454047
 10
8.1007204272
 20
6.1690798255
 10
8.0633584055
 20
6.1469967739
 10
8.0269455995
 20
6.1231408362
 10
7.991554755
 20
6.097558945
 10
7.9572550979
 20
6.0703021399
 10
7.924115854
 20
6.0414243935
 10
7.8922015561
 20
6.0109831985
 10
7.8615767365
 20
5.9790389809
 10
7.8323012347
 20
5.9456550999
 10
7.8044337166
 20
5.9108972614
 10
7.7780293283
 20
5.8748358646
 10
7.7531408692
 20
5.8375413088
 10
7.7298176186
 20
5.799087513
 10
7.7081065094
 20
5.7595519164
 10
7.6880486078
 20
5.7190125447
 10
7.6696861532
 20
5.6775491837
 10
7.6530531721
 20
5.6352451391
 10
7.6381848638
 20
5.5921837165
 10
7.6251093882
 20
5.5484511551
 10
7.6138537316
 20
5.504133107
 10
7.6044390136
 20
5.4593187447
 10
7.5968851809
 20
5.4140966538
 10
7.5912074865
 20
5.3685560066
 10
7.587415317
 20
5.3227883219
 10
7.5855168856
 20
5.2768833589
 10
7.5855168856
 20
5.230933223
 10
7.587415317
 20
5.18502826
 10
7.5912074865
 20
5.1392599887
 10
7.5968851809
 20
5.0937199281
 10
7.6044390136
 20
5.0484978372
 10
7.6138537316
 20
5.0036828883
 10
7.6251093882
 20
4.9593654269
 10
7.6381848638
 20
4.9156322788
 10
7.6530531721
 20
4.8725714429
 10
7.6696861532
 20
4.8302668116
 10
7.6880486078
 20
4.7888040372
 10
7.7081065094
 20
4.7482640789
 10
7.7298176186
 20
4.7087284823
 10
7.7531408692
 20
4.6702752732
 10
7.7780293283
 20
4.6329807173
 10
7.8044337166
 20
4.5969187339
 10
7.8323012347
 20
4.5621614821
 10
7.8615767365
 20
4.5287776011
 10
7.8922015561
 20
4.4968327968
 10
7.924115854
 20
4.4663916018
 10
7.9572550979
 20
4.4375138554
 10
7.991554755
 20
4.4102570502
 10
8.0269455995
 20
4.3846757458
 10
8.0633584055
 20
4.3608192213
 10
8.1007204272
 20
4.3387367564
 10
8.1389577455
 20
4.3184705906
 10
8.1779940946
 20
4.3000617899
 10
8.217750862
 20
4.283547314
 10
8.2581517819
 20
4.2689588425
 10
8.299114722
 20
4.2563257085
 10
8.3405587233
 20
4.2456737249
 10
8.3824004799
 20
4.2370234248
 10
8.4245590329
 20
4.2303918214
 10
8.4669499032
 20
4.2257924079
 10
8.5094886118
 20
4.2232339841
 10
8.5520895063
 20
4.2227224167
 10
8.5946704544
 20
4.2242577056
 10
8.6371458037
 20
4.2278375042
 10
8.6794299019
 20
4.233454186
 10
8.7214417899
 20
4.2410971911
 10
8.7630946421
 20
4.2507506795
 10
8.8043086727
 20
4.262396465
 10
8.8449994026
 20
4.2760099077
 10
8.8850893928
 20
4.2915657814
 10
8.9244953376
 20
4.3090318196
 10
8.9631409711
 20
4.3283739962
 10
9.0009500277
 20
4.3495535915
 10
9.0378474148
 20
4.3725289527
 10
9.0737580399
 20
4.3972537338
 10
9.108611504
 20
4.4236798285
 10
9.1423397544
 20
4.4517538509
 10
9.1748747385
 20
4.4814206548
 10
9.2061519239
 20
4.5126209877
 10
9.2361102978
 20
4.5452932503
 10
9.2646876743
 20
4.5793729099
 10
9.2918300808
 20
4.6147913274
 10
9.3174835444
 20
4.6514781036
 10
9.3415952659
 20
4.689361666
 10
9.3641183123
 20
4.7283657488
 10
9.3850080977
 20
4.7684134994
 10
9.4042235557
 20
4.8094251323
 10
9.4217247935
 20
4.8513191017
 10
9.4374789582
 20
4.8940126885
 10
9.4514543701
 20
4.9374202404
 10
9.4636228695
 20
4.9814566917
 10
9.4739609901
 20
5.0260340434
 10
9.4824476121
 20
5.0710631232
 10
9.4890651356
 20
5.1164559322
 10
9.4938018276
 20
5.162121538
 10
9.496647128
 20
5.2079690083
 10
9.4975963437
 20
5.2539079976
  0
LWPOLYLINE
  5
467
330
1F
100
AcDbEntity
  8
SLD-0
  6
Continuous
370
    15
100
AcDbPolyline
 90
       86
 70
   128
 43
0.0
 10
11.1916372007
 20
23.2539076334
 10
11.190687985
 20
23.2816026735
 10
11.1878444445
 20
23.3091463553
 10
11.1831230057
 20
23.336388494
 10
11.176548895
 20
23.3631789045
 10
11.1681584853
 20
23.3893732685
 10
11.1579969493
 20
23.4148284411
 10
11.1461200198
 20
23.4394036239
 10
11.1325934028
 20
23.4629662317
 10
11.1174898439
 20
23.4853871994
 10
11.1008920623
 20
23.5065445016
 10
11.0828915769
 20
23.5263208065
 10
11.0635851866
 20
23.5446093419
 10
11.0430796635
 20
23.5613103756
 10
11.021486473
 20
23.5763335621
 10
10.9989241203
 20
23.5895944222
 10
10.9755146307
 20
23.6010225569
 10
10.9513864828
 20
23.6105546068
 10
10.9266716749
 20
23.6181389458
 10
10.901505139
 20
23.6237333345
 10
10.87602474
 20
23.6273084399
 10
10.8503683431
 20
23.6288443155
 10
10.8246773332
 20
23.6283315747
 10
10.7990913354
 20
23.6257749109
 10
10.7737499748
 20
23.6211872306
 10
10.7487922898
 20
23.6145931734
 10
10.7243543855
 20
23.6060291124
 10
10.7005694336
 20
23.5955419802
 10
10.6775676726
 20
23.5831880962
 10
10.6554746478
 20
23.5690366864
 10
10.6344106245
 20
23.5531640164
 10
10.6144917613
 20
23.5356580853
 10
10.5958254169
 20
23.5166115853
 10
10.5785142569
 20
23.4961312886
 10
10.5626527334
 20
23.4743274871
 10
10.5483276723
 20
23.4513198596
 10
10.5356176858
 20
23.4272351245
 10
10.5245908265
 20
23.402202347
 10
10.5153086937
 20
23.3763599789
 10
10.5078211535
 20
23.3498488185
 10
10.5021692722
 20
23.3228143574
 10
10.4983847292
 20
23.2954032607
 10
10.4964868845
 20
23.26776454
 10
10.4964868845
 20
23.2400519002
 10
10.4983847292
 20
23.2124131795
 10
10.5021692722
 20
23.1850020828
 10
10.5078211535
 20
23.1579676218
 10
10.5153086937
 20
23.1314564613
 10
10.5245908265
 20
23.1056140932
 10
10.5356176858
 20
23.0805813157
 10
10.5483276723
 20
23.0564965806
 10
10.5626527334
 20
23.0334889531
 10
10.5785142569
 20
23.0116851516
 10
10.5958254169
 20
22.9912048549
 10
10.6144917613
 20
22.9721589416
 10
10.6344106245
 20
22.9546518371
 10
10.6554746478
 20
22.9387791672
 10
10.6775676726
 20
22.9246277573
 10
10.7005694336
 20
22.91227446
 10
10.7243543855
 20
22.9017873278
 10
10.7487922898
 20
22.8932232668
 10
10.7737499748
 20
22.8866292096
 10
10.7990913354
 20
22.8820415293
 10
10.8246773332
 20
22.8794842788
 10
10.8503683431
 20
22.8789721247
 10
10.87602474
 20
22.8805080003
 10
10.901505139
 20
22.8840831057
 10
10.9266716749
 20
22.8896774944
 10
10.9513864828
 20
22.8972618334
 10
10.9755146307
 20
22.9067938833
 10
10.9989241203
 20
22.918222018
 10
11.021486473
 20
22.9314834648
 10
11.0430796635
 20
22.9465054779
 10
11.0635851866
 20
22.9632065116
 10
11.0828915769
 20
22.9814956337
 10
11.1008920623
 20
23.0012719386
 10
11.1174898439
 20
23.0224292408
 10
11.1325934028
 20
23.0448490352
 10
11.1461200198
 20
23.068411643
 10
11.1579969493
 20
23.0929879991
 10
11.1681584853
 20
23.1184419984
 10
11.176548895
 20
23.1446375357
 10
11.1831230057
 20
23.1714279463
 10
11.1878444445
 20
23.1986700849
 10
11.190687985
 20
23.2262137667
 10
11.1916372007
 20
23.2539076334
  0
LINE
  5
468
330
1F
100
AcDbEntity
  8
SLD-0
  6
Continuous
370
    15
100
AcDbLine
 10
15.7816662296
 20
6.2851581112
 30
0.0
 11
15.7816662296
 21
6.3009081693
 31
0.0
  0
LINE
  5
469
330
1F
100
AcDbEntity
  8
SLD-0
  6
Continuous
370
    15
100
AcDbLine
 10
15.7816662296
 20
6.3009081693
 30
0.0
 11
14.627322258
 21
6.3009081693
 31
0.0
  0
LINE
  5
46A
330
1F
100
AcDbEntity
  8
SLD-0
  6
Continuous
370
    15
100
AcDbLine
 10
14.627322258
 20
6.3009081693
 30
0.0
 11
14.627322258
 21
6.2851581112
 31
0.0
  0
LINE
  5
46B
330
1F
100
AcDbEntity
  8
SLD-0
  6
Continuous
370
    15
100
AcDbLine
 10
14.627322258
 20
6.2851581112
 30
0.0
 11
14.5114240769
 21
6.2851581112
 31
0.0
  0
LINE
  5
46C
330
1F
100
AcDbEntity
  8
SLD-0
  6
Continuous
370
    15
100
AcDbLine
 10
14.5114240769
 20
6.2851581112
 30
0.0
 11
14.5114240769
 21
6.3009081693
 31
0.0
  0
LINE
  5
46D
330
1F
100
AcDbEntity
  8
SLD-0
  6
Continuous
370
    15
100
AcDbLine
 10
14.5114240769
 20
6.3009081693
 30
0.0
 11
11.4892685358
 21
6.3009081693
 31
0.0
  0
LINE
  5
46E
330
1F
100
AcDbEntity
  8
SLD-0
  6
Continuous
370
    15
100
AcDbLine
 10
11.4892685358
 20
6.3009081693
 30
0.0
 11
11.4892685358
 21
6.2851581112
 31
0.0
  0
LINE
  5
46F
330
1F
100
AcDbEntity
  8
SLD-0
  6
Continuous
370
    15
100
AcDbLine
 10
11.4892685358
 20
6.2851581112
 30
0.0
 11
11.3733703546
 21
6.2851581112
 31
0.0
  0
LINE
  5
470
330
1F
100
AcDbEntity
  8
SLD-0
  6
Continuous
370
    15
100
AcDbLine
 10
11.3733703546
 20
6.2851581112
 30
0.0
 11
11.3733703546
 21
6.3009081693
 31
0.0
  0
LINE
  5
471
330
1F
100
AcDbEntity
  8
SLD-0
  6
Continuous
370
    15
100
AcDbLine
 10
11.3733703546
 20
6.3009081693
 30
0.0
 11
10.2190266764
 21
6.3009081693
 31
0.0
  0
LINE
  5
472
330
1F
100
AcDbEntity
  8
SLD-0
  6
Continuous
370
    15
100
AcDbLine
 10
10.2190266764
 20
6.3009081693
 30
0.0
 11
10.2190266764
 21
6.2851581112
 31
0.0
  0
LINE
  5
473
330
1F
100
AcDbEntity
  8
SLD-0
  6
Continuous
370
    15
100
AcDbLine
 10
10.2190266764
 20
6.2851581112
 30
0.0
 11
10.1031284952
 21
6.2851581112
 31
0.0
  0
LINE
  5
474
330
1F
100
AcDbEntity
  8
SLD-0
  6
Continuous
370
    15
100
AcDbLine
 10
10.1031284952
 20
6.2851581112
 30
0.0
 11
10.0159731287
 21
6.2851581112
 31
0.0
  0
LINE
  5
475
330
1F
100
AcDbEntity
  8
SLD-0
  6
Continuous
370
    15
100
AcDbLine
 10
10.0159731287
 20
6.2851581112
 30
0.0
 11
10.0159731287
 21
4.2226578841
 31
0.0
  0
LINE
  5
476
330
1F
100
AcDbEntity
  8
SLD-0
  6
Continuous
370
    15
100
AcDbLine
 10
10.0159731287
 20
4.2226578841
 30
0.0
 11
15.9847194839
 21
4.2226578841
 31
0.0
  0
LINE
  5
477
330
1F
100
AcDbEntity
  8
SLD-0
  6
Continuous
370
    15
100
AcDbLine
 10
15.9847194839
 20
4.2226578841
 30
0.0
 11
15.9847194839
 21
6.2851581112
 31
0.0
  0
LINE
  5
478
330
1F
100
AcDbEntity
  8
SLD-0
  6
Continuous
370
    15
100
AcDbLine
 10
15.9847194839
 20
6.2851581112
 30
0.0
 11
15.8975641174
 21
6.2851581112
 31
0.0
  0
LINE
  5
479
330
1F
100
AcDbEntity
  8
SLD-0
  6
Continuous
370
    15
100
AcDbLine
 10
15.8975641174
 20
6.2851581112
 30
0.0
 11
15.7816662296
 21
6.2851581112
 31
0.0
  0
LWPOLYLINE
  5
47A
330
1F
100
AcDbEntity
  8
SLD-0
  6
Continuous
370
    15
100
AcDbPolyline
 90
        9
 70
   128
 43
0.0
 10
15.9180177211
 20
6.230558262
 10
15.9140272606
 20
6.2316072098
 10
15.9101905049
 20
6.2347141606
 10
15.9066544124
 20
6.2397600223
 10
15.9035547949
 20
6.2465500239
 10
15.9010110376
 20
6.254824275
 10
15.8991211128
 20
6.2642636326
 10
15.8979571796
 20
6.2745061276
 10
15.8975641174
 20
6.2851581112
  0
LWPOLYLINE
  5
47B
330
1F
100
AcDbEntity
  8
SLD-0
  6
Continuous
370
    15
100
AcDbPolyline
 90
        9
 70
   128
 43
0.0
 10
15.9180177211
 20
6.2701583912
 10
15.9169215471
 20
6.2704464412
 10
15.9158673193
 20
6.2713000313
 10
15.9148958105
 20
6.2726863086
 10
15.9140442737
 20
6.2745513004
 10
15.9133455618
 20
6.2768246075
 10
15.9128263678
 20
6.2794176442
 10
15.9125066381
 20
6.2822318517
 10
15.9123986927
 20
6.2851581112
  0
LINE
  5
47C
330
1F
100
AcDbEntity
  8
SLD-0
  6
Continuous
370
    15
100
AcDbLine
 10
15.9180177211
 20
6.230558262
 30
0.0
 11
15.9180177211
 21
6.2701583912
 31
0.0
  0
LINE
  5
47D
330
1F
100
AcDbEntity
  8
SLD-0
  6
Continuous
370
    15
100
AcDbLine
 10
15.9180177211
 20
6.230558262
 30
0.0
 11
15.80211954
 21
6.230558262
 31
0.0
  0
LWPOLYLINE
  5
47E
330
1F
100
AcDbEntity
  8
SLD-0
  6
Continuous
370
    15
100
AcDbPolyline
 90
        9
 70
   128
 43
0.0
 10
15.7816662296
 20
6.2851581112
 10
15.7820592917
 20
6.2745061276
 10
15.783223225
 20
6.2642636326
 10
15.7851131498
 20
6.254824275
 10
15.7876569071
 20
6.2465500239
 10
15.7907562313
 20
6.2397600223
 10
15.7942923238
 20
6.2347141606
 10
15.7981293728
 20
6.2316072098
 10
15.80211954
 20
6.230558262
  0
LINE
  5
47F
330
1F
100
AcDbEntity
  8
SLD-0
  6
Continuous
370
    15
100
AcDbLine
 10
15.9847194839
 20
6.2701583912
 30
0.0
 11
15.9180177211
 21
6.2701583912
 31
0.0
  0
LINE
  5
480
330
1F
100
AcDbEntity
  8
SLD-0
  6
Continuous
370
    15
100
AcDbLine
 10
15.9180177211
 20
6.230558262
 30
0.0
 11
15.9847194839
 21
6.230558262
 31
0.0
  0
LINE
  5
481
330
1F
100
AcDbEntity
  8
SLD-0
  6
Continuous
370
    15
100
AcDbLine
 10
14.656611253
 20
6.230558262
 30
0.0
 11
14.656611253
 21
6.2701583912
 31
0.0
  0
LINE
  5
482
330
1F
100
AcDbEntity
  8
SLD-0
  6
Continuous
370
    15
100
AcDbLine
 10
15.7824532339
 20
6.2701583912
 30
0.0
 11
14.656611253
 21
6.2701583912
 31
0.0
  0
LINE
  5
483
330
1F
100
AcDbEntity
  8
SLD-0
  6
Continuous
370
    15
100
AcDbLine
 10
14.656611253
 20
6.230558262
 30
0.0
 11
15.80211954
 21
6.230558262
 31
0.0
  0
LWPOLYLINE
  5
484
330
1F
100
AcDbEntity
  8
SLD-0
  6
Continuous
370
    15
100
AcDbPolyline
 90
        9
 70
   128
 43
0.0
 10
14.6477758618
 20
6.230558262
 10
14.6437854012
 20
6.2316072098
 10
14.6399486455
 20
6.2347141606
 10
14.6364122597
 20
6.2397600223
 10
14.6333132288
 20
6.2465500239
 10
14.6307694715
 20
6.254824275
 10
14.6288792534
 20
6.2642636326
 10
14.6277153202
 20
6.2745061276
 10
14.627322258
 20
6.2851581112
  0
LWPOLYLINE
  5
485
330
1F
100
AcDbEntity
  8
SLD-0
  6
Continuous
370
    15
100
AcDbPolyline
 90
        9
 70
   128
 43
0.0
 10
14.5114240769
 20
6.2851581112
 10
14.511817139
 20
6.2745061276
 10
14.5129810722
 20
6.2642636326
 10
14.5148712904
 20
6.254824275
 10
14.5174150477
 20
6.2465500239
 10
14.5205143719
 20
6.2397600223
 10
14.5240507577
 20
6.2347141606
 10
14.5278875134
 20
6.2316072098
 10
14.5318779739
 20
6.230558262
  0
LINE
  5
486
330
1F
100
AcDbEntity
  8
SLD-0
  6
Continuous
370
    15
100
AcDbLine
 10
14.6477758618
 20
6.230558262
 30
0.0
 11
14.5318779739
 21
6.230558262
 31
0.0
  0
LINE
  5
487
330
1F
100
AcDbEntity
  8
SLD-0
  6
Continuous
370
    15
100
AcDbLine
 10
14.627322258
 20
6.2851581112
 30
0.0
 11
14.64215654
 21
6.2851581112
 31
0.0
  0
LWPOLYLINE
  5
488
330
1F
100
AcDbEntity
  8
SLD-0
  6
Continuous
370
    15
100
AcDbPolyline
 90
        9
 70
   128
 43
0.0
 10
14.6477758618
 20
6.2701583912
 10
14.6466796877
 20
6.2704464412
 10
14.6456254599
 20
6.2713000313
 10
14.6446539512
 20
6.2726863086
 10
14.6438024143
 20
6.2745513004
 10
14.6431037024
 20
6.2768246075
 10
14.6425845084
 20
6.2794176442
 10
14.6422647788
 20
6.2822318517
 10
14.64215654
 20
6.2851581112
  0
LINE
  5
489
330
1F
100
AcDbEntity
  8
SLD-0
  6
Continuous
370
    15
100
AcDbLine
 10
14.6477758618
 20
6.230558262
 30
0.0
 11
14.6477758618
 21
6.2701583912
 31
0.0
  0
LINE
  5
48A
330
1F
100
AcDbEntity
  8
SLD-0
  6
Continuous
370
    15
100
AcDbLine
 10
14.64215654
 20
6.2851581112
 30
0.0
 11
14.64215654
 21
6.3009081693
 31
0.0
  0
LINE
  5
48B
330
1F
100
AcDbEntity
  8
SLD-0
  6
Continuous
370
    15
100
AcDbLine
 10
14.656611253
 20
6.2701583912
 30
0.0
 11
14.6477758618
 21
6.2701583912
 31
0.0
  0
LINE
  5
48C
330
1F
100
AcDbEntity
  8
SLD-0
  6
Continuous
370
    15
100
AcDbLine
 10
14.6477758618
 20
6.230558262
 30
0.0
 11
14.656611253
 21
6.230558262
 31
0.0
  0
LINE
  5
48D
330
1F
100
AcDbEntity
  8
SLD-0
  6
Continuous
370
    15
100
AcDbLine
 10
11.5185575308
 20
6.230558262
 30
0.0
 11
11.5185575308
 21
6.2701583912
 31
0.0
  0
LINE
  5
48E
330
1F
100
AcDbEntity
  8
SLD-0
  6
Continuous
370
    15
100
AcDbLine
 10
14.5122113745
 20
6.2701583912
 30
0.0
 11
11.5185575308
 21
6.2701583912
 31
0.0
  0
LINE
  5
48F
330
1F
100
AcDbEntity
  8
SLD-0
  6
Continuous
370
    15
100
AcDbLine
 10
11.5185575308
 20
6.230558262
 30
0.0
 11
14.5318779739
 21
6.230558262
 31
0.0
  0
LWPOLYLINE
  5
490
330
1F
100
AcDbEntity
  8
SLD-0
  6
Continuous
370
    15
100
AcDbPolyline
 90
        9
 70
   128
 43
0.0
 10
11.5097218462
 20
6.230558262
 10
11.5057319722
 20
6.2316072098
 10
11.5018946299
 20
6.2347141606
 10
11.4983588308
 20
6.2397600223
 10
11.4952589199
 20
6.2465500239
 10
11.4927157493
 20
6.254824275
 10
11.4908255311
 20
6.2642636326
 10
11.4896615979
 20
6.2745061276
 10
11.4892685358
 20
6.2851581112
  0
LINE
  5
491
330
1F
100
AcDbEntity
  8
SLD-0
  6
Continuous
370
    15
100
AcDbLine
 10
11.4892685358
 20
6.2851581112
 30
0.0
 11
11.5041028177
 21
6.2851581112
 31
0.0
  0
LWPOLYLINE
  5
492
330
1F
100
AcDbEntity
  8
SLD-0
  6
Continuous
370
    15
100
AcDbPolyline
 90
        9
 70
   128
 43
0.0
 10
11.5097218462
 20
6.2701583912
 10
11.5086259655
 20
6.2704464412
 10
11.5075717377
 20
6.2713000313
 10
11.5066002289
 20
6.2726863086
 10
11.5057489854
 20
6.2745513004
 10
11.5050496868
 20
6.2768246075
 10
11.5045304928
 20
6.2794176442
 10
11.5042107632
 20
6.2822318517
 10
11.5041028177
 20
6.2851581112
  0
LINE
  5
493
330
1F
100
AcDbEntity
  8
SLD-0
  6
Continuous
370
    15
100
AcDbLine
 10
11.5097218462
 20
6.230558262
 30
0.0
 11
11.5097218462
 21
6.2701583912
 31
0.0
  0
LWPOLYLINE
  5
494
330
1F
100
AcDbEntity
  8
SLD-0
  6
Continuous
370
    15
100
AcDbPolyline
 90
        9
 70
   128
 43
0.0
 10
11.3733703546
 20
6.2851581112
 10
11.3737634168
 20
6.2745061276
 10
11.37492735
 20
6.2642636326
 10
11.3768175681
 20
6.254824275
 10
11.3793613254
 20
6.2465500239
 10
11.3824606496
 20
6.2397600223
 10
11.3859970354
 20
6.2347141606
 10
11.3898337911
 20
6.2316072098
 10
11.3938242517
 20
6.230558262
  0
LINE
  5
495
330
1F
100
AcDbEntity
  8
SLD-0
  6
Continuous
370
    15
100
AcDbLine
 10
11.5097218462
 20
6.230558262
 30
0.0
 11
11.3938242517
 21
6.230558262
 31
0.0
  0
LINE
  5
496
330
1F
100
AcDbEntity
  8
SLD-0
  6
Continuous
370
    15
100
AcDbLine
 10
11.5041028177
 20
6.2851581112
 30
0.0
 11
11.5041028177
 21
6.3009081693
 31
0.0
  0
LINE
  5
497
330
1F
100
AcDbEntity
  8
SLD-0
  6
Continuous
370
    15
100
AcDbLine
 10
11.5185575308
 20
6.2701583912
 30
0.0
 11
11.5097218462
 21
6.2701583912
 31
0.0
  0
LINE
  5
498
330
1F
100
AcDbEntity
  8
SLD-0
  6
Continuous
370
    15
100
AcDbLine
 10
11.5097218462
 20
6.230558262
 30
0.0
 11
11.5185575308
 21
6.230558262
 31
0.0
  0
LINE
  5
499
330
1F
100
AcDbEntity
  8
SLD-0
  6
Continuous
370
    15
100
AcDbLine
 10
10.2483156714
 20
6.230558262
 30
0.0
 11
10.2483156714
 21
6.2701583912
 31
0.0
  0
LINE
  5
49A
330
1F
100
AcDbEntity
  8
SLD-0
  6
Continuous
370
    15
100
AcDbLine
 10
11.3741576522
 20
6.2701583912
 30
0.0
 11
10.2483156714
 21
6.2701583912
 31
0.0
  0
LINE
  5
49B
330
1F
100
AcDbEntity
  8
SLD-0
  6
Continuous
370
    15
100
AcDbLine
 10
10.2483156714
 20
6.230558262
 30
0.0
 11
11.3938242517
 21
6.230558262
 31
0.0
  0
ARC
  5
49C
330
1F
100
AcDbEntity
  8
SLD-0
  6
Continuous
370
    15
100
AcDbCircle
 10
10.8734027146
 20
23.2669404079
 30
0.0
 40
0.3625534669366102
100
AcDbArc
 50
93.4855874003
 51
182.0600654942
  0
ARC
  5
49D
330
1F
100
AcDbEntity
  8
SLD-0
  6
Continuous
370
    15
100
AcDbCircle
 10
10.8739012826
 20
23.2413284977
 30
0.0
 40
0.3630357114758914
100
AcDbArc
 50
178.0143119215
 51
266.4402136554
  0
LINE
  5
49E
330
1F
100
AcDbEntity
  8
SLD-0
  6
Continuous
370
    15
100
AcDbLine
 10
10.2190266764
 20
6.2851581112
 30
0.0
 11
10.2338609583
 21
6.2851581112
 31
0.0
  0
LINE
  5
49F
330
1F
100
AcDbEntity
  8
SLD-0
  6
Continuous
370
    15
100
AcDbLine
 10
10.2338609583
 20
6.2851581112
 30
0.0
 11
10.2338609583
 21
6.3009081693
 31
0.0
  0
LWPOLYLINE
  5
4A0
330
1F
100
AcDbEntity
  8
SLD-0
  6
Continuous
370
    15
100
AcDbPolyline
 90
        9
 70
   128
 43
0.0
 10
10.2394799868
 20
6.230558262
 10
10.2354901129
 20
6.2316072098
 10
10.2316527705
 20
6.2347141606
 10
10.2281169714
 20
6.2397600223
 10
10.2250170605
 20
6.2465500239
 10
10.2224738899
 20
6.254824275
 10
10.2205836717
 20
6.2642636326
 10
10.2194197385
 20
6.2745061276
 10
10.2190266764
 20
6.2851581112
  0
LWPOLYLINE
  5
4A1
330
1F
100
AcDbEntity
  8
SLD-0
  6
Continuous
370
    15
100
AcDbPolyline
 90
        9
 70
   128
 43
0.0
 10
10.2394799868
 20
6.2701583912
 10
10.2383841061
 20
6.2704464412
 10
10.2373298783
 20
6.2713000313
 10
10.2363583695
 20
6.2726863086
 10
10.235507126
 20
6.2745513004
 10
10.2348078274
 20
6.2768246075
 10
10.2342886334
 20
6.2794176442
 10
10.2339689038
 20
6.2822318517
 10
10.2338609583
 20
6.2851581112
  0
LINE
  5
4A2
330
1F
100
AcDbEntity
  8
SLD-0
  6
Continuous
370
    15
100
AcDbLine
 10
10.2394799868
 20
6.230558262
 30
0.0
 11
10.2394799868
 21
6.2701583912
 31
0.0
  0
LWPOLYLINE
  5
4A3
330
1F
100
AcDbEntity
  8
SLD-0
  6
Continuous
370
    15
100
AcDbPolyline
 90
        9
 70
   128
 43
0.0
 10
10.1031284952
 20
6.2851581112
 10
10.1035215574
 20
6.2745061276
 10
10.1046854906
 20
6.2642636326
 10
10.1065757088
 20
6.254824275
 10
10.109119466
 20
6.2465500239
 10
10.1122187902
 20
6.2397600223
 10
10.115755176
 20
6.2347141606
 10
10.1195919317
 20
6.2316072098
 10
10.1235823923
 20
6.230558262
  0
LINE
  5
4A4
330
1F
100
AcDbEntity
  8
SLD-0
  6
Continuous
370
    15
100
AcDbLine
 10
10.2394799868
 20
6.230558262
 30
0.0
 11
10.1235823923
 21
6.230558262
 31
0.0
  0
LINE
  5
4A5
330
1F
100
AcDbEntity
  8
SLD-0
  6
Continuous
370
    15
100
AcDbLine
 10
10.2483156714
 20
6.2701583912
 30
0.0
 11
10.2394799868
 21
6.2701583912
 31
0.0
  0
LINE
  5
4A6
330
1F
100
AcDbEntity
  8
SLD-0
  6
Continuous
370
    15
100
AcDbLine
 10
10.2394799868
 20
6.230558262
 30
0.0
 11
10.2483156714
 21
6.230558262
 31
0.0
  0
LINE
  5
4A7
330
1F
100
AcDbEntity
  8
SLD-0
  6
Continuous
370
    15
100
AcDbLine
 10
10.0308079974
 20
4.2226578841
 30
0.0
 11
10.0308079974
 21
6.2851581112
 31
0.0
  0
LWPOLYLINE
  5
4A8
330
1F
100
AcDbEntity
  8
SLD-0
  6
Continuous
370
    15
100
AcDbPolyline
 90
       37
 70
   128
 43
0.0
 10
7.6001141569
 20
5.2539079976
 10
7.6010633726
 20
5.299846987
 10
7.6039086731
 20
5.345695044
 10
7.6086453651
 20
5.3913600631
 10
7.6152628886
 20
5.4367528721
 10
7.6237495106
 20
5.4817825385
 10
7.6340876311
 20
5.5263598903
 10
7.6462561306
 20
5.5703957549
 10
7.6602315425
 20
5.6138038934
 10
7.6759857071
 20
5.6564968936
 10
7.693486945
 20
5.6983908629
 10
7.712702403
 20
5.7394024958
 10
7.7335921883
 20
5.7794502465
 10
7.7561152348
 20
5.8184543293
 10
7.7802269563
 20
5.8563378917
 10
7.8058804199
 20
5.8930252545
 10
7.8330228264
 20
5.928443672
 10
7.8616013762
 20
5.962522745
 10
7.8915585768
 20
5.9951950076
 10
7.9228357622
 20
6.0263953405
 10
7.9553707463
 20
6.0560621444
 10
7.9890989967
 20
6.0841367534
 10
8.0239524607
 20
6.1105622615
 10
8.0598642592
 20
6.1352876292
 10
8.096760473
 20
6.1582629905
 10
8.1345695295
 20
6.1794425858
 10
8.1732151631
 20
6.1987847623
 10
8.2126222812
 20
6.2162508006
 10
8.2527110981
 20
6.2318060875
 10
8.293401828
 20
6.2454201169
 10
8.3346158586
 20
6.2570653157
 10
8.3762687107
 20
6.2667193909
 10
8.4182805987
 20
6.2743623959
 10
8.4605646969
 20
6.2799790777
 10
8.5030400463
 20
6.2835588764
 10
8.5456209944
 20
6.2850941653
 10
8.548855837
 20
6.2851270182
  0
LWPOLYLINE
  5
4A9
330
1F
100
AcDbEntity
  8
SLD-0
  6
Continuous
370
    15
100
AcDbPolyline
 90
       37
 70
   128
 43
0.0
 10
8.548855837
 20
4.222688977
 10
8.5456209944
 20
4.2227224167
 10
8.5030400463
 20
4.2242577056
 10
8.4605646969
 20
4.2278375042
 10
8.4182805987
 20
4.233454186
 10
8.3762687107
 20
4.2410971911
 10
8.3346158586
 20
4.2507506795
 10
8.293401828
 20
4.262396465
 10
8.2527110981
 20
4.2760099077
 10
8.2126222812
 20
4.2915657814
 10
8.1732151631
 20
4.3090318196
 10
8.1345695295
 20
4.3283739962
 10
8.096760473
 20
4.3495535915
 10
8.0598642592
 20
4.3725289527
 10
8.0239524607
 20
4.3972537338
 10
7.9890989967
 20
4.4236798285
 10
7.9553707463
 20
4.4517538509
 10
7.9228357622
 20
4.4814206548
 10
7.8915585768
 20
4.5126209877
 10
7.8616013762
 20
4.5452932503
 10
7.8330228264
 20
4.5793729099
 10
7.8058804199
 20
4.6147913274
 10
7.7802269563
 20
4.6514781036
 10
7.7561152348
 20
4.689361666
 10
7.7335921883
 20
4.7283657488
 10
7.712702403
 20
4.7684134994
 10
7.693486945
 20
4.8094251323
 10
7.6759857071
 20
4.8513191017
 10
7.6602315425
 20
4.8940126885
 10
7.6462561306
 20
4.9374202404
 10
7.6340876311
 20
4.9814566917
 10
7.6237495106
 20
5.0260340434
 10
7.6152628886
 20
5.0710631232
 10
7.6086453651
 20
5.1164559322
 10
7.6039086731
 20
5.162121538
 10
7.6010633726
 20
5.2079690083
 10
7.6001141569
 20
5.2539079976
  0
LINE
  5
4AA
330
1F
100
AcDbEntity
  8
SLD-0
  6
Continuous
370
    15
100
AcDbLine
 10
2.9618050724
 20
24.2539081347
 30
0.0
 11
2.9618050724
 21
3.2539081685
 31
0.0
  0
LINE
  5
4AB
330
1F
100
AcDbEntity
  8
SLD-0
  6
Continuous
370
    15
100
AcDbLine
 10
2.9959510246
 20
24.2539081347
 30
0.0
 11
2.9618050724
 21
24.2539081347
 31
0.0
  0
LINE
  5
4AC
330
1F
100
AcDbEntity
  8
SLD-0
  6
Continuous
370
    15
100
AcDbLine
 10
2.9618050724
 20
3.2539081685
 30
0.0
 11
2.9959510246
 21
3.2539081685
 31
0.0
  0
LINE
  5
4AD
330
1F
100
AcDbEntity
  8
SLD-0
  6
Continuous
370
    15
100
AcDbLine
 10
18.4415200561
 20
6.3120541205
 30
0.0
 11
18.4415200561
 21
21.8590545202
 31
0.0
  0
LINE
  5
4AE
330
1F
100
AcDbEntity
  8
SLD-0
  6
Continuous
370
    15
100
AcDbLine
 10
18.4415200561
 20
6.3120541205
 30
0.0
 11
17.9565200389
 21
6.3120541205
 31
0.0
  0
LINE
  5
4AF
330
1F
100
AcDbEntity
  8
SLD-0
  6
Continuous
370
    15
100
AcDbLine
 10
17.9565200389
 20
6.3120541205
 30
0.0
 11
17.9565200389
 21
6.5303045059
 31
0.0
  0
LINE
  5
4B0
330
1F
100
AcDbEntity
  8
SLD-0
  6
Continuous
370
    15
100
AcDbLine
 10
17.9565200389
 20
21.8344541111
 30
0.0
 11
17.9565200389
 21
21.8590545202
 31
0.0
  0
LINE
  5
4B1
330
1F
100
AcDbEntity
  8
SLD-0
  6
Continuous
370
    15
100
AcDbLine
 10
17.9565200389
 20
21.8590545202
 30
0.0
 11
18.4415200561
 21
21.8590545202
 31
0.0
  0
LINE
  5
4B2
330
1F
100
AcDbEntity
  8
SLD-0
  6
Continuous
370
    15
100
AcDbLine
 10
18.4415200561
 20
21.8590545202
 30
0.0
 11
18.5165200497
 21
21.8590545202
 31
0.0
  0
LINE
  5
4B3
330
1F
100
AcDbEntity
  8
SLD-0
  6
Continuous
370
    15
100
AcDbLine
 10
18.5165200497
 20
21.8590545202
 30
0.0
 11
18.5165200497
 21
6.3120541205
 31
0.0
  0
LINE
  5
4B4
330
1F
100
AcDbEntity
  8
SLD-0
  6
Continuous
370
    15
100
AcDbLine
 10
18.5165200497
 20
6.3120541205
 30
0.0
 11
18.4415200561
 21
6.3120541205
 31
0.0
  0
LINE
  5
4B5
330
1F
100
AcDbEntity
  8
SLD-0
  6
Continuous
370
    15
100
AcDbLine
 10
18.0815201015
 20
21.8740542403
 30
0.0
 11
18.0815201015
 21
21.9340542938
 31
0.0
  0
LINE
  5
4B6
330
1F
100
AcDbEntity
  8
SLD-0
  6
Continuous
370
    15
100
AcDbLine
 10
18.4415200561
 20
21.9340542938
 30
0.0
 11
18.0815201015
 21
21.9340542938
 31
0.0
  0
LINE
  5
4B7
330
1F
100
AcDbEntity
  8
SLD-0
  6
Continuous
370
    15
100
AcDbLine
 10
18.4415200561
 20
21.9340542938
 30
0.0
 11
18.4415200561
 21
21.8740542403
 31
0.0
  0
LINE
  5
4B8
330
1F
100
AcDbEntity
  8
SLD-0
  6
Continuous
370
    15
100
AcDbLine
 10
18.4415200561
 20
21.8740542403
 30
0.0
 11
18.0815201015
 21
21.8740542403
 31
0.0
  0
ARC
  5
4B9
330
1F
100
AcDbEntity
  8
SLD-0
  6
Continuous
370
    15
100
AcDbCircle
 10
18.4415200521
 20
21.8590543368
 30
0.0
 40
0.0150000000000006
100
AcDbArc
 50
360.0
 51
90.0
  0
ARC
  5
4BA
330
1F
100
AcDbEntity
  8
SLD-0
  6
Continuous
370
    15
100
AcDbCircle
 10
18.4415200521
 20
21.8590543368
 30
0.0
 40
0.0749999999999993
100
AcDbArc
 50
360.0
 51
90.0
  0
LINE
  5
4BB
330
1F
100
AcDbEntity
  8
SLD-0
  6
Continuous
370
    15
100
AcDbLine
 10
18.4415200561
 20
6.2970544005
 30
0.0
 11
18.4415200561
 21
6.2370543469
 31
0.0
  0
ARC
  5
4BC
330
1F
100
AcDbEntity
  8
SLD-0
  6
Continuous
370
    15
100
AcDbCircle
 10
18.4415200521
 20
6.3120543368
 30
0.0
 40
0.0749999999999993
100
AcDbArc
 50
270.0
 51
0.0
  0
ARC
  5
4BD
330
1F
100
AcDbEntity
  8
SLD-0
  6
Continuous
370
    15
100
AcDbCircle
 10
18.4415200521
 20
6.3120543368
 30
0.0
 40
0.0149999999999997
100
AcDbArc
 50
270.0
 51
0.0
  0
LINE
  5
4BE
330
1F
100
AcDbEntity
  8
SLD-0
  6
Continuous
370
    15
100
AcDbLine
 10
18.0815201015
 20
6.2970544005
 30
0.0
 11
18.0815201015
 21
6.2370543469
 31
0.0
  0
LINE
  5
4BF
330
1F
100
AcDbEntity
  8
SLD-0
  6
Continuous
370
    15
100
AcDbLine
 10
18.4415200561
 20
6.2370543469
 30
0.0
 11
18.0815201015
 21
6.2370543469
 31
0.0
  0
LINE
  5
4C0
330
1F
100
AcDbEntity
  8
SLD-0
  6
Continuous
370
    15
100
AcDbLine
 10
18.4415200561
 20
6.2970544005
 30
0.0
 11
18.0815201015
 21
6.2970544005
 31
0.0
  0
LINE
  5
4C1
330
1F
100
AcDbEntity
  8
SLD-0
  6
Continuous
370
    15
100
AcDbLine
 10
17.9284049503
 20
6.2370543469
 30
0.0
 11
18.0815201015
 21
6.2370543469
 31
0.0
  0
LINE
  5
4C2
330
1F
100
AcDbEntity
  8
SLD-0
  6
Continuous
370
    15
100
AcDbLine
 10
17.9284049503
 20
6.2970544005
 30
0.0
 11
18.0815201015
 21
6.2970544005
 31
0.0
  0
LINE
  5
4C3
330
1F
100
AcDbEntity
  8
SLD-0
  6
Continuous
370
    15
100
AcDbLine
 10
18.0815201015
 20
21.9340542938
 30
0.0
 11
17.9284049503
 21
21.9340542938
 31
0.0
  0
LINE
  5
4C4
330
1F
100
AcDbEntity
  8
SLD-0
  6
Continuous
370
    15
100
AcDbLine
 10
18.0815201015
 20
21.8740542403
 30
0.0
 11
17.9470050021
 21
21.8740542403
 31
0.0
  0
LINE
  5
4C5
330
1F
100
AcDbEntity
  8
SLD-0
  6
Continuous
370
    15
100
AcDbLine
 10
17.9680049329
 20
20.9744541259
 30
0.0
 11
18.001604998
 21
20.9744541259
 31
0.0
  0
LINE
  5
4C6
330
1F
100
AcDbEntity
  8
SLD-0
  6
Continuous
370
    15
100
AcDbLine
 10
18.001604998
 20
21.819454391
 30
0.0
 11
18.001604998
 21
20.9744541259
 31
0.0
  0
LINE
  5
4C7
330
1F
100
AcDbEntity
  8
SLD-0
  6
Continuous
370
    15
100
AcDbLine
 10
17.9680049329
 20
21.819454391
 30
0.0
 11
18.001604998
 21
21.819454391
 31
0.0
  0
ARC
  5
4C8
330
1F
100
AcDbEntity
  8
SLD-0
  6
Continuous
370
    15
100
AcDbCircle
 10
17.947004957
 20
21.8194543368
 30
0.0
 40
0.0545999999999995
100
AcDbArc
 50
46.4917065346
 51
90.0
  0
LINE
  5
4C9
330
1F
100
AcDbEntity
  8
SLD-0
  6
Continuous
370
    15
100
AcDbLine
 10
17.9284049503
 20
21.8740542403
 30
0.0
 11
17.9470050021
 21
21.8740542403
 31
0.0
  0
LINE
  5
4CA
330
1F
100
AcDbEntity
  8
SLD-0
  6
Continuous
370
    15
100
AcDbLine
 10
17.9680049329
 20
21.8344541111
 30
0.0
 11
17.9680049329
 21
9.2479081786
 31
0.0
  0
LINE
  5
4CB
330
1F
100
AcDbEntity
  8
SLD-0
  6
Continuous
370
    15
100
AcDbLine
 10
17.9284049503
 20
9.2539082426
 30
0.0
 11
17.9284049503
 21
9.2479081786
 31
0.0
  0
LINE
  5
4CC
330
1F
100
AcDbEntity
  8
SLD-0
  6
Continuous
370
    15
100
AcDbLine
 10
17.9680049329
 20
9.2479081786
 30
0.0
 11
17.9284049503
 21
9.2479081786
 31
0.0
  0
LINE
  5
4CD
330
1F
100
AcDbEntity
  8
SLD-0
  6
Continuous
370
    15
100
AcDbLine
 10
17.9680049329
 20
21.8344541111
 30
0.0
 11
17.9284049503
 21
21.8344541111
 31
0.0
  0
LINE
  5
4CE
330
1F
100
AcDbEntity
  8
SLD-0
  6
Continuous
370
    15
100
AcDbLine
 10
17.9680049329
 20
7.7479083067
 30
0.0
 11
17.9680049329
 21
6.5303045059
 31
0.0
  0
LINE
  5
4CF
330
1F
100
AcDbEntity
  8
SLD-0
  6
Continuous
370
    15
100
AcDbLine
 10
17.9680049329
 20
7.7479083067
 30
0.0
 11
17.9284049503
 21
7.7479083067
 31
0.0
  0
LINE
  5
4D0
330
1F
100
AcDbEntity
  8
SLD-0
  6
Continuous
370
    15
100
AcDbLine
 10
17.9284049503
 20
6.5303045059
 30
0.0
 11
17.9680049329
 21
6.5303045059
 31
0.0
  0
LINE
  5
4D1
330
1F
100
AcDbEntity
  8
SLD-0
  6
Continuous
370
    15
100
AcDbLine
 10
17.9680049329
 20
9.2479081786
 30
0.0
 11
17.9680049329
 21
7.7479083067
 31
0.0
  0
LINE
  5
4D2
330
1F
100
AcDbEntity
  8
SLD-0
  6
Continuous
370
    15
100
AcDbLine
 10
18.0040050236
 20
6.5535069046
 30
0.0
 11
17.9680049329
 21
6.5535069046
 31
0.0
  0
LINE
  5
4D3
330
1F
100
AcDbEntity
  8
SLD-0
  6
Continuous
370
    15
100
AcDbLine
 10
18.0040050236
 20
7.1958818838
 30
0.0
 11
17.9680049329
 21
7.1958818838
 31
0.0
  0
LINE
  5
4D4
330
1F
100
AcDbEntity
  8
SLD-0
  6
Continuous
370
    15
100
AcDbLine
 10
18.0040050236
 20
7.1958818838
 30
0.0
 11
18.0040050236
 21
6.5535069046
 31
0.0
  0
LINE
  5
4D5
330
1F
100
AcDbEntity
  8
SLD-0
  6
Continuous
370
    15
100
AcDbLine
 10
17.9565200389
 20
6.4992203317
 30
0.0
 11
17.95237998
 21
6.4990543069
 31
0.0
  0
LINE
  5
4D6
330
1F
100
AcDbEntity
  8
SLD-0
  6
Continuous
370
    15
100
AcDbLine
 10
17.95237998
 20
6.4990543069
 30
0.0
 11
17.9284049503
 21
6.4990543069
 31
0.0
  0
LINE
  5
4D7
330
1F
100
AcDbEntity
  8
SLD-0
  6
Continuous
370
    15
100
AcDbLine
 10
16.8639645535
 20
24.2444852035
 30
0.0
 11
16.8639645535
 21
3.2812535592
 31
0.0
  0
LINE
  5
4D8
330
1F
100
AcDbEntity
  8
SLD-0
  6
Continuous
370
    15
100
AcDbLine
 10
17.95237998
 20
6.4990543069
 30
0.0
 11
17.95237998
 21
6.5303045059
 31
0.0
  0
ENDSEC
  0
SECTION
  2
OBJECTS
  0
DICTIONARY
  5
C
330
0
100
AcDbDictionary
281
     1
  3
ACAD_GROUP
350
D
  3
ACAD_LAYOUT
350
1A
  3
ACAD_MATERIAL
350
3B
  3
ACAD_MLEADERSTYLE
350
4DA
  3
ACAD_MLINESTYLE
350
17
  3
ACAD_PLOTSETTINGS
350
19
  3
ACAD_PLOTSTYLENAME
350
E
  3
ACAD_TABLESTYLE
350
4D9
  0
DICTIONARY
  5
D
102
{ACAD_REACTORS
330
C
102
}
330
C
100
AcDbDictionary
281
     1
  0
DICTIONARY
  5
1A
102
{ACAD_REACTORS
330
C
102
}
330
C
100
AcDbDictionary
281
     1
  3
Layout1
350
1E
  3
Layout2
350
26
  3
Model
350
22
  0
DICTIONARY
  5
3B
102
{ACAD_REACTORS
330
C
102
}
330
C
100
AcDbDictionary
281
     1
  3
ByBlock
350
3D
  3
ByLayer
350
3C
  3
Global
350
3E
  0
DICTIONARY
  5
4DA
102
{ACAD_REACTORS
330
C
102
}
330
C
100
AcDbDictionary
281
     1
  0
DICTIONARY
  5
17
102
{ACAD_REACTORS
330
C
102
}
330
C
100
AcDbDictionary
281
     1
  3
Standard
350
18
  0
DICTIONARY
  5
19
102
{ACAD_REACTORS
330
C
102
}
330
C
100
AcDbDictionary
281
     1
  0
ACDBDICTIONARYWDFLT
  5
E
102
{ACAD_REACTORS
330
C
102
}
330
C
100
AcDbDictionary
281
     1
  3
Normal
350
F
100
AcDbDictionaryWithDefault
340
F
  0
DICTIONARY
  5
4D9
102
{ACAD_REACTORS
330
C
102
}
330
C
100
AcDbDictionary
281
     1
  0
LAYOUT
  5
1E
102
{ACAD_REACTORS
330
1A
102
}
330
1A
100
AcDbPlotSettings
  1

  2
none_device
  4

  6

 40
0.0
 41
0.0
 42
0.0
 43
0.0
 44
0.0
 45
0.0
 46
0.0
 47
0.0
 48
0.0
 49
0.0
140
0.0
141
0.0
142
1.0
143
1.0
 70
   688
 72
     0
 73
     0
 74
     5
  7

 75
    16
 76
     0
 77
     2
 78
   300
147
1.0
148
0.0
149
0.0
100
AcDbLayout
  1
Layout1
 70
     1
 71
     1
 10
0.0
 20
0.0
 11
12.0
 21
9.0
 12
0.0
 22
0.0
 32
0.0
 14
1.0000000000E+20
 24
1.0000000000E+20
 34
1.0000000000E+20
 15
-1.0000000000E+20
 25
-1.0000000000E+20
 35
-1.0000000000E+20
146
0.0
 13
0.0
 23
0.0
 33
0.0
 16
1.0
 26
0.0
 36
0.0
 17
0.0
 27
1.0
 37
0.0
 76
     0
330
1B
  0
LAYOUT
  5
26
102
{ACAD_REACTORS
330
1A
102
}
330
1A
100
AcDbPlotSettings
  1

  2
none_device
  4

  6

 40
0.0
 41
0.0
 42
0.0
 43
0.0
 44
0.0
 45
0.0
 46
0.0
 47
0.0
 48
0.0
 49
0.0
140
0.0
141
0.0
142
1.0
143
1.0
 70
   688
 72
     0
 73
     0
 74
     5
  7

 75
    16
 76
     0
 77
     2
 78
   300
147
1.0
148
0.0
149
0.0
100
AcDbLayout
  1
Layout2
 70
     1
 71
     2
 10
0.0
 20
0.0
 11
0.0
 21
0.0
 12
0.0
 22
0.0
 32
0.0
 14
0.0
 24
0.0
 34
0.0
 15
0.0
 25
0.0
 35
0.0
146
0.0
 13
0.0
 23
0.0
 33
0.0
 16
1.0
 26
0.0
 36
0.0
 17
0.0
 27
1.0
 37
0.0
 76
     0
330
23
  0
LAYOUT
  5
22
102
{ACAD_REACTORS
330
1A
102
}
330
1A
100
AcDbPlotSettings
  1

  2
none_device
  4

  6

 40
0.0
 41
0.0
 42
0.0
 43
0.0
 44
0.0
 45
0.0
 46
0.0
 47
0.0
 48
0.0
 49
0.0
140
0.0
141
0.0
142
1.0
143
1.0
 70
  1712
 72
     0
 73
     0
 74
     0
  7

 75
     0
 76
     0
 77
     2
 78
   300
147
1.0
148
0.0
149
0.0
100
AcDbLayout
  1
Model
 70
     1
 71
     0
 10
0.0
 20
0.0
 11
110.0
 21
65.0
 12
0.0
 22
0.0
 32
0.0
 14
0.0
 24
0.0
 34
0.0
 15
110.0
 25
65.0
 35
0.0
146
0.0
 13
0.0
 23
0.0
 33
0.0
 16
1.0
 26
0.0
 36
0.0
 17
0.0
 27
1.0
 37
0.0
 76
     0
330
1F
331
29
  0
MATERIAL
  5
3D
102
{ACAD_REACTORS
330
3B
102
}
330
3B
100
AcDbMaterial
  1
ByBlock
  0
MATERIAL
  5
3C
102
{ACAD_REACTORS
330
3B
102
}
330
3B
100
AcDbMaterial
  1
ByLayer
  0
MATERIAL
  5
3E
102
{ACAD_REACTORS
330
3B
102
}
330
3B
100
AcDbMaterial
  1
Global
  0
MLINESTYLE
  5
18
102
{ACAD_REACTORS
330
17
102
}
330
17
100
AcDbMlineStyle
  2
Standard
 70
     0
  3

 62
   256
 51
90.0
 52
90.0
 71
     2
 49
0.5
 62
   256
  6
BYLAYER
 49
-0.5
 62
   256
  6
BYLAYER
  0
ACDBPLACEHOLDER
  5
F
102
{ACAD_REACTORS
330
E
102
}
330
E
  0
ENDSEC
  0
EOF
