  0
SECTION
  2
HEADER
  9
$ACADVER
  1
AC1014
  9
$ACADMAINTVER
 70
     9
  9
$DWGCODEPAGE
  3
ANSI_1252
  9
$INSBASE
 10
0.0
 20
0.0
 30
0.0
  9
$EXTMIN
 10
1.222316508
 20
-5.7962550923
 30
0.0
  9
$EXTMAX
 10
142.8553646778667
 20
87.3911151788
 30
0.0
  9
$LIMMIN
 10
0.0
 20
0.0
  9
$LIMMAX
 10
132.0
 20
76.0
  9
$ORTHOMODE
 70
     0
  9
$REGENMODE
 70
     1
  9
$FILLMODE
 70
     1
  9
$QTEXTMODE
 70
     0
  9
$MIRRTEXT
 70
     1
  9
$DRAGMODE
 70
     2
  9
$LTSCALE
 40
1.0
  9
$OSMODE
 70
     0
  9
$ATTMODE
 70
     1
  9
$TEXTSIZE
 40
0.1875
  9
$TRACEWID
 40
0.05
  9
$TEXTSTYLE
  7
STANDARD
  9
$CLAYER
  8
0
  9
$CELTYPE
  6
BYLAYER
  9
$CECOLOR
 62
   256
  9
$CELTSCALE
 40
1.0
  9
$DELOBJ
 70
     1
  9
$DISPSILH
 70
     0
  9
$DIMSCALE
 40
1.0
  9
$DIMASZ
 40
0.75
  9
$DIMEXO
 40
0.5
  9
$DIMDLI
 40
0.38
  9
$DIMRND
 40
0.0
  9
$DIMDLE
 40
0.0
  9
$DIMEXE
 40
1.0
  9
$DIMTP
 40
0.0
  9
$DIMTM
 40
0.0
  9
$DIMTXT
 40
1.0
  9
$DIMCEN
 40
0.09
  9
$DIMTSZ
 40
0.0
  9
$DIMTOL
 70
     0
  9
$DIMLIM
 70
     0
  9
$DIMTIH
 70
     1
  9
$DIMTOH
 70
     1
  9
$DIMSE1
 70
     0
  9
$DIMSE2
 70
     0
  9
$DIMTAD
 70
     0
  9
$DIMZIN
 70
    12
  9
$DIMBLK
  1

  9
$DIMASO
 70
     1
  9
$DIMSHO
 70
     1
  9
$DIMPOST
  1
"
  9
$DIMAPOST
  1

  9
$DIMALT
 70
     0
  9
$DIMALTD
 70
     2
  9
$DIMALTF
 40
25.4
  9
$DIMLFAC
 40
1.0
  9
$DIMTOFL
 70
     0
  9
$DIMTVP
 40
0.0
  9
$DIMTIX
 70
     0
  9
$DIMSOXD
 70
     0
  9
$DIMSAH
 70
     1
  9
$DIMBLK1
  1

  9
$DIMBLK2
  1

  9
$DIMSTYLE
  2
ARCH_SALES_DRAWING
  9
$DIMCLRD
 70
   256
  9
$DIMCLRE
 70
   256
  9
$DIMCLRT
 70
   256
  9
$DIMTFAC
 40
1.0
  9
$DIMGAP
 40
0.25
  9
$DIMJUST
 70
     0
  9
$DIMSD1
 70
     0
  9
$DIMSD2
 70
     0
  9
$DIMTOLJ
 70
     1
  9
$DIMTZIN
 70
    12
  9
$DIMALTZ
 70
     0
  9
$DIMALTTZ
 70
     0
  9
$DIMFIT
 70
     3
  9
$DIMUPT
 70
     0
  9
$DIMUNIT
 70
     5
  9
$DIMDEC
 70
     4
  9
$DIMTDEC
 70
     3
  9
$DIMALTU
 70
     2
  9
$DIMALTTD
 70
     2
  9
$DIMTXSTY
  7
SLDTEXTSTYLE0
  9
$DIMAUNIT
 70
     0
  9
$LUNITS
 70
     2
  9
$LUPREC
 70
     3
  9
$SKETCHINC
 40
0.1
  9
$FILLETRAD
 40
0.5
  9
$AUNITS
 70
     0
  9
$AUPREC
 70
     0
  9
$MENU
  1
.
  9
$ELEVATION
 40
0.0
  9
$PELEVATION
 40
0.0
  9
$THICKNESS
 40
0.0
  9
$LIMCHECK
 70
     0
  9
$CHAMFERA
 40
0.0
  9
$CHAMFERB
 40
0.0
  9
$CHAMFERC
 40
0.0
  9
$CHAMFERD
 40
0.0
  9
$SKPOLY
 70
     0
  9
$TDCREATE
 40
2457294.601431968
  9
$TDUPDATE
 40
2457295.486997488
  9
$TDINDWG
 40
0.0021683912
  9
$TDUSRTIMER
 40
2457295.695062361
  9
$USRTIMER
 70
     1
  9
$ANGBASE
 50
0.0
  9
$ANGDIR
 70
     0
  9
$PDMODE
 70
     0
  9
$PDSIZE
 40
-1.0
  9
$PLINEWID
 40
0.0
  9
$COORDS
 70
     1
  9
$SPLFRAME
 70
     0
  9
$SPLINETYPE
 70
     6
  9
$SPLINESEGS
 70
     8
  9
$ATTDIA
 70
     1
  9
$ATTREQ
 70
     1
  9
$HANDLING
 70
     1
  9
$HANDSEED
  5
87C
  9
$SURFTAB1
 70
     6
  9
$SURFTAB2
 70
     6
  9
$SURFTYPE
 70
     6
  9
$SURFU
 70
     6
  9
$SURFV
 70
     6
  9
$UCSNAME
  2

  9
$UCSORG
 10
0.0
 20
0.0
 30
0.0
  9
$UCSXDIR
 10
1.0
 20
0.0
 30
0.0
  9
$UCSYDIR
 10
0.0
 20
1.0
 30
0.0
  9
$PUCSNAME
  2

  9
$PUCSORG
 10
0.0
 20
0.0
 30
0.0
  9
$PUCSXDIR
 10
1.0
 20
0.0
 30
0.0
  9
$PUCSYDIR
 10
0.0
 20
1.0
 30
0.0
  9
$USERI1
 70
     0
  9
$USERI2
 70
     0
  9
$USERI3
 70
     0
  9
$USERI4
 70
     0
  9
$USERI5
 70
     0
  9
$USERR1
 40
0.0
  9
$USERR2
 40
0.0
  9
$USERR3
 40
0.0
  9
$USERR4
 40
0.0
  9
$USERR5
 40
0.0
  9
$WORLDVIEW
 70
     1
  9
$SHADEDGE
 70
     3
  9
$SHADEDIF
 70
    70
  9
$TILEMODE
 70
     1
  9
$MAXACTVP
 70
    64
  9
$PINSBASE
 10
0.0
 20
0.0
 30
0.0
  9
$PLIMCHECK
 70
     0
  9
$PEXTMIN
 10
1.000000000000000E+20
 20
1.000000000000000E+20
 30
1.000000000000000E+20
  9
$PEXTMAX
 10
-1.000000000000000E+20
 20
-1.000000000000000E+20
 30
-1.000000000000000E+20
  9
$PLIMMIN
 10
0.0
 20
0.0
  9
$PLIMMAX
 10
0.0
 20
0.0
  9
$UNITMODE
 70
     0
  9
$VISRETAIN
 70
     1
  9
$PLINEGEN
 70
     0
  9
$PSLTSCALE
 70
     1
  9
$TREEDEPTH
 70
  3020
  9
$PICKSTYLE
 70
     1
  9
$CMLSTYLE
  2
STANDARD
  9
$CMLJUST
 70
     0
  9
$CMLSCALE
 40
1.0
  9
$PROXYGRAPHICS
 70
     1
  9
$MEASUREMENT
 70
     0
  0
ENDSEC
  0
SECTION
  2
CLASSES
  0
CLASS
  1
ACDBDICTIONARYWDFLT
  2
AcDbDictionaryWithDefault
  3
ObjectDBX Classes
 90
        0
280
     0
281
     0
  0
CLASS
  1
MATERIAL
  2
AcDbMaterial
  3
ObjectDBX Classes
 90
     1153
280
     0
281
     0
  0
CLASS
  1
SCALE
  2
AcDbScale
  3
ObjectDBX Classes
 90
     1153
280
     0
281
     0
  0
CLASS
  1
VISUALSTYLE
  2
AcDbVisualStyle
  3
ObjectDBX Classes
 90
     4095
280
     0
281
     0
  0
CLASS
  1
TABLESTYLE
  2
AcDbTableStyle
  3
ObjectDBX Classes
 90
     4095
280
     0
281
     0
  0
CLASS
  1
MLEADERSTYLE
  2
AcDbMLeaderStyle
  3
ACDB_MLEADERSTYLE_CLASS
 90
     4095
280
     0
281
     0
  0
CLASS
  1
SUN
  2
AcDbSun
  3
SCENEOE
 90
     1153
280
     0
281
     0
  0
CLASS
  1
RASTERVARIABLES
  2
AcDbRasterVariables
  3
ISM
 90
        0
280
     0
281
     0
  0
CLASS
  1
XRECORD
  2
AcDbXrecord
  3
ObjectDBX Classes
 90
        0
280
     0
281
     0
  0
CLASS
  1
LWPOLYLINE
  2
AcDbPolyline
  3
ObjectDBX Classes
 90
        0
280
     0
281
     1
  0
CLASS
  1
HATCH
  2
AcDbHatch
  3
ObjectDBX Classes
 90
        0
280
     0
281
     1
  0
ENDSEC
  0
SECTION
  2
TABLES
  0
TABLE
  2
VPORT
  5
71C
330
0
100
AcDbSymbolTable
 70
     1
  0
VPORT
  5
733
330
71C
100
AcDbSymbolTableRecord
100
AcDbViewportTableRecord
  2
*ACTIVE
 70
     0
 10
0.0
 20
0.0
 11
1.0
 21
1.0
 12
118.0700062723554
 22
30.0677958804881
 13
0.0
 23
0.0
 14
0.5
 24
0.5
 15
0.5
 25
0.5
 16
0.0
 26
0.0
 36
1.0
 17
0.0
 27
0.0
 37
0.0
 40
148.4374999999999
 41
2.067708333333333
 42
50.0
 43
0.0
 44
0.0
 50
0.0
 51
0.0
 71
    16
 72
  2000
 73
     1
 74
     3
 75
     0
 76
     0
 77
     0
 78
     0
  0
ENDTAB
  0
TABLE
  2
LTYPE
  5
719
330
0
100
AcDbSymbolTable
 70
     8
  0
LTYPE
  5
727
330
719
100
AcDbSymbolTableRecord
100
AcDbLinetypeTableRecord
  2
BYBLOCK
 70
     0
  3

 72
    65
 73
     0
 40
0.0
  0
LTYPE
  5
728
330
719
100
AcDbSymbolTableRecord
100
AcDbLinetypeTableRecord
  2
BYLAYER
 70
     0
  3

 72
    65
 73
     0
 40
0.0
  0
LTYPE
  5
729
330
719
100
AcDbSymbolTableRecord
100
AcDbLinetypeTableRecord
  2
CONTINUOUS
 70
     0
  3
Solid line
 72
    65
 73
     0
 40
0.0
  0
LTYPE
  5
735
330
719
100
AcDbSymbolTableRecord
100
AcDbLinetypeTableRecord
  2
SLD-SOLID
 70
     0
  3
SolidWorks Line Style
 72
    65
 73
     0
 40
0.0
  0
LTYPE
  5
736
330
719
100
AcDbSymbolTableRecord
100
AcDbLinetypeTableRecord
  2
SLD-DASHED
 70
     0
  3
SolidWorks Line Style
 72
    65
 73
     2
 40
0.075
 49
0.05
 74
     0
 49
-0.025
 74
     0
  0
LTYPE
  5
737
330
719
100
AcDbSymbolTableRecord
100
AcDbLinetypeTableRecord
  2
SLD-PHANTOM
 70
     0
  3
SolidWorks Line Style
 72
    65
 73
     6
 40
0.5
 49
0.25
 74
     0
 49
-0.05
 74
     0
 49
0.05
 74
     0
 49
-0.05
 74
     0
 49
0.05
 74
     0
 49
-0.05
 74
     0
  0
LTYPE
  5
738
330
719
100
AcDbSymbolTableRecord
100
AcDbLinetypeTableRecord
  2
SLD-CHAIN
 70
     0
  3
SolidWorks Line Style
 72
    65
 73
     4
 40
0.4
 49
0.25
 74
     0
 49
-0.05
 74
     0
 49
0.05
 74
     0
 49
-0.05
 74
     0
  0
LTYPE
  5
739
330
719
100
AcDbSymbolTableRecord
100
AcDbLinetypeTableRecord
  2
SLD-CENTER
 70
     0
  3
SolidWorks Line Style
 72
    65
 73
     4
 40
0.75
 49
0.6
 74
     0
 49
-0.05
 74
     0
 49
0.05
 74
     0
 49
-0.05
 74
     0
  0
LTYPE
  5
73A
330
719
100
AcDbSymbolTableRecord
100
AcDbLinetypeTableRecord
  2
SLD-STITCH
 70
     0
  3
SolidWorks Line Style
 72
    65
 73
     2
 40
0.025
 49
0.0
 74
     0
 49
-0.025
 74
     0
  0
LTYPE
  5
73B
330
719
100
AcDbSymbolTableRecord
100
AcDbLinetypeTableRecord
  2
SLD-THIN-THICK-CHAIN
 70
     0
  3
SolidWorks Line Style
 72
    65
 73
     4
 40
0.4
 49
0.25
 74
     0
 49
-0.05
 74
     0
 49
0.05
 74
     0
 49
-0.05
 74
     0
  0
ENDTAB
  0
TABLE
  2
LAYER
  5
716
102
{ACAD_XDICTIONARY
360
810
102
}
330
0
100
AcDbSymbolTable
 70
     5
  0
LAYER
  5
724
330
716
100
AcDbSymbolTableRecord
100
AcDbLayerTableRecord
  2
0
 70
     0
 62
     7
  6
CONTINUOUS
  0
LAYER
  5
741
330
716
100
AcDbSymbolTableRecord
100
AcDbLayerTableRecord
  2
SLD-0
 70
     0
 62
     7
  6
SLD-SOLID
  0
LAYER
  5
742
330
716
100
AcDbSymbolTableRecord
100
AcDbLayerTableRecord
  2
NOTES
 70
     0
 62
     1
  6
SLD-SOLID
  0
LAYER
  5
743
330
716
100
AcDbSymbolTableRecord
100
AcDbLayerTableRecord
  2
DIM
 70
     0
 62
     3
  6
SLD-SOLID
  0
LAYER
  5
7BB
330
716
100
AcDbSymbolTableRecord
100
AcDbLayerTableRecord
  2
DEFPOINTS
 70
     0
 62
     7
  6
CONTINUOUS
  0
ENDTAB
  0
TABLE
  2
STYLE
  5
717
330
0
100
AcDbSymbolTable
 70
     2
  0
STYLE
  5
725
330
717
100
AcDbSymbolTableRecord
100
AcDbTextStyleTableRecord
  2
STANDARD
 70
     0
 40
0.0
 41
1.0
 50
0.0
 71
     0
 42
0.1875
  3
txt
  4

  0
STYLE
  5
7C1
330
717
100
AcDbSymbolTableRecord
100
AcDbTextStyleTableRecord
  2
SLDTEXTSTYLE0
 70
     0
 40
0.0
 41
0.75
 50
0.0
 71
     0
 42
0.1875
  3
TXT
  4

  0
ENDTAB
  0
TABLE
  2
VIEW
  5
71A
330
0
100
AcDbSymbolTable
 70
     0
  0
ENDTAB
  0
TABLE
  2
UCS
  5
71B
330
0
100
AcDbSymbolTable
 70
     0
  0
ENDTAB
  0
TABLE
  2
APPID
  5
71D
330
0
100
AcDbSymbolTable
 70
     1
  0
APPID
  5
726
330
71D
100
AcDbSymbolTableRecord
100
AcDbRegAppTableRecord
  2
ACAD
 70
     0
  0
ENDTAB
  0
TABLE
  2
DIMSTYLE
  5
71E
330
0
100
AcDbSymbolTable
 70
     5
  0
DIMSTYLE
105
746
330
71E
100
AcDbSymbolTableRecord
100
AcDbDimStyleTableRecord
  2
STANDARD
 70
     0
  3

  4

  5

  6

  7

 40
1.0
 41
0.18
 42
0.0625
 43
0.38
 44
0.18
 45
0.0
 46
0.0
 47
0.0
 48
0.0
140
0.18
141
0.09
142
0.0
143
25.4
144
1.0
145
0.0
146
1.0
147
0.09
 71
     0
 72
     0
 73
     1
 74
     1
 75
     0
 76
     0
 77
     0
 78
     0
170
     0
171
     2
172
     0
173
     0
174
     0
175
     0
176
     0
177
     0
178
     0
270
     2
271
     4
272
     4
273
     2
274
     2
340
725
275
     0
280
     0
281
     0
282
     0
283
     1
284
     0
285
     0
286
     0
287
     3
288
     0
  0
DIMSTYLE
105
747
330
71E
100
AcDbSymbolTableRecord
100
AcDbDimStyleTableRecord
  2
SLDDIMSTYLE0
 70
     0
  3

  4

  5

  6

  7

 40
1.0
 41
1.875
 42
0.0625
 43
0.38
 44
0.0
 45
0.000000001
 46
0.0
 47
0.0
 48
0.0
140
1.25
141
0.09
142
0.0
143
25.4
144
1.0
145
0.0
146
1.0
147
0.3125
 71
     0
 72
     0
 73
     1
 74
     1
 75
     0
 76
     0
 77
     0
 78
    12
170
     0
171
     2
172
     0
173
     1
174
     0
175
     0
176
     0
177
     0
178
     0
270
     2
271
     4
272
     4
273
     2
274
     2
340
725
275
     0
280
     0
281
     0
282
     0
283
     1
284
     0
285
     0
286
     0
287
     3
288
     0
  0
DIMSTYLE
105
748
330
71E
100
AcDbSymbolTableRecord
100
AcDbDimStyleTableRecord
  2
SLDDIMSTYLE1
 70
     0
  3

  4

  5

  6

  7

 40
1.0
 41
1.875
 42
0.0625
 43
0.38
 44
0.0
 45
0.000000001
 46
0.0
 47
0.0
 48
0.0
140
1.25
141
0.09
142
0.0
143
25.4
144
1.0
145
0.0
146
1.0
147
0.3125
 71
     0
 72
     0
 73
     1
 74
     1
 75
     0
 76
     0
 77
     0
 78
    12
170
     0
171
     2
172
     1
173
     1
174
     0
175
     0
176
     0
177
     0
178
     0
270
     2
271
     4
272
     4
273
     2
274
     2
340
725
275
     0
280
     0
281
     0
282
     0
283
     1
284
     0
285
     0
286
     0
287
     3
288
     0
  0
DIMSTYLE
105
749
330
71E
100
AcDbSymbolTableRecord
100
AcDbDimStyleTableRecord
  2
SLDDIMSTYLE2
 70
     0
  3

  4

  5

  6

  7

 40
1.0
 41
1.875
 42
0.0625
 43
0.38
 44
0.0
 45
0.000000001
 46
0.0
 47
0.0
 48
0.0
140
1.25
141
0.09
142
0.0
143
25.4
144
1.0
145
0.0
146
1.0
147
0.3125
 71
     0
 72
     0
 73
     1
 74
     1
 75
     0
 76
     0
 77
     0
 78
    12
170
     0
171
     2
172
     0
173
     1
174
     0
175
     0
176
     0
177
     0
178
     0
270
     2
271
     4
272
     4
273
     2
274
     2
340
725
275
     0
280
     0
281
     0
282
     0
283
     1
284
     0
285
     0
286
     0
287
     3
288
     0
  0
DIMSTYLE
105
7C0
102
{ACAD_REACTORS
330
802
102
}
330
71E
100
AcDbSymbolTableRecord
100
AcDbDimStyleTableRecord
  2
ARCH_SALES_DRAWING
 70
     0
  3
"
  4

  5

  6

  7

 40
1.0
 41
0.75
 42
0.5
 43
0.38
 44
1.0
 45
0.0
 46
0.0
 47
0.0
 48
0.0
140
1.0
141
0.09
142
0.0
143
25.4
144
1.0
145
0.0
146
1.0
147
0.25
 71
     0
 72
     0
 73
     1
 74
     1
 75
     0
 76
     0
 77
     0
 78
    12
170
     0
171
     2
172
     0
173
     1
174
     0
175
     0
176
   256
177
   256
178
   256
270
     5
271
     4
272
     3
273
     2
274
     2
340
7C1
275
     0
280
     0
281
     0
282
     0
283
     1
284
    12
285
     0
286
     0
287
     3
288
     0
  0
ENDTAB
  0
TABLE
  2
BLOCK_RECORD
  5
715
330
0
100
AcDbSymbolTable
 70
    25
  0
BLOCK_RECORD
  5
730
330
715
100
AcDbSymbolTableRecord
100
AcDbBlockTableRecord
  2
*MODEL_SPACE
  0
BLOCK_RECORD
  5
72E
330
715
100
AcDbSymbolTableRecord
100
AcDbBlockTableRecord
  2
*PAPER_SPACE
  0
BLOCK_RECORD
  5
74D
330
715
100
AcDbSymbolTableRecord
100
AcDbBlockTableRecord
  2
SW_NOTE_0
  0
BLOCK_RECORD
  5
74F
330
715
100
AcDbSymbolTableRecord
100
AcDbBlockTableRecord
  2
_D
  0
BLOCK_RECORD
  5
751
330
715
100
AcDbSymbolTableRecord
100
AcDbBlockTableRecord
  2
_D_1
  0
BLOCK_RECORD
  5
753
330
715
100
AcDbSymbolTableRecord
100
AcDbBlockTableRecord
  2
_D_2
  0
BLOCK_RECORD
  5
755
330
715
100
AcDbSymbolTableRecord
100
AcDbBlockTableRecord
  2
_D_3
  0
BLOCK_RECORD
  5
757
330
715
100
AcDbSymbolTableRecord
100
AcDbBlockTableRecord
  2
_D_4
  0
BLOCK_RECORD
  5
759
330
715
100
AcDbSymbolTableRecord
100
AcDbBlockTableRecord
  2
_D_5
  0
BLOCK_RECORD
  5
75B
330
715
100
AcDbSymbolTableRecord
100
AcDbBlockTableRecord
  2
_D_6
  0
BLOCK_RECORD
  5
75D
330
715
100
AcDbSymbolTableRecord
100
AcDbBlockTableRecord
  2
_D_7
  0
BLOCK_RECORD
  5
75F
330
715
100
AcDbSymbolTableRecord
100
AcDbBlockTableRecord
  2
_D_8
  0
BLOCK_RECORD
  5
761
330
715
100
AcDbSymbolTableRecord
100
AcDbBlockTableRecord
  2
_D_9
  0
BLOCK_RECORD
  5
763
330
715
100
AcDbSymbolTableRecord
100
AcDbBlockTableRecord
  2
_D_10
  0
BLOCK_RECORD
  5
765
330
715
100
AcDbSymbolTableRecord
100
AcDbBlockTableRecord
  2
_D_11
  0
BLOCK_RECORD
  5
767
330
715
100
AcDbSymbolTableRecord
100
AcDbBlockTableRecord
  2
_D_12
  0
BLOCK_RECORD
  5
769
330
715
100
AcDbSymbolTableRecord
100
AcDbBlockTableRecord
  2
_D_13
  0
BLOCK_RECORD
  5
76B
330
715
100
AcDbSymbolTableRecord
100
AcDbBlockTableRecord
  2
_D_14
  0
BLOCK_RECORD
  5
76D
330
715
100
AcDbSymbolTableRecord
100
AcDbBlockTableRecord
  2
SW_CENTERMARKSYMBOL_0
  0
BLOCK_RECORD
  5
76F
330
715
100
AcDbSymbolTableRecord
100
AcDbBlockTableRecord
  2
SW_CENTERMARKSYMBOL_1
  0
BLOCK_RECORD
  5
771
330
715
100
AcDbSymbolTableRecord
100
AcDbBlockTableRecord
  2
SW_CENTERMARKSYMBOL_2
  0
BLOCK_RECORD
  5
773
330
715
100
AcDbSymbolTableRecord
100
AcDbBlockTableRecord
  2
_D_15
  0
BLOCK_RECORD
  5
775
330
715
100
AcDbSymbolTableRecord
100
AcDbBlockTableRecord
  2
_D_16
  0
BLOCK_RECORD
  5
777
330
715
100
AcDbSymbolTableRecord
100
AcDbBlockTableRecord
  2
_D_17
  0
BLOCK_RECORD
  5
7BA
330
715
100
AcDbSymbolTableRecord
100
AcDbBlockTableRecord
  2
DIMBLOCK
  0
BLOCK_RECORD
  5
803
330
715
100
AcDbSymbolTableRecord
100
AcDbBlockTableRecord
  2
*D23
  0
ENDTAB
  0
ENDSEC
  0
SECTION
  2
BLOCKS
  0
BLOCK
  5
74A
330
730
100
AcDbEntity
  8
0
100
AcDbBlockBegin
  2
*MODEL_SPACE
 70
     0
 10
0.0
 20
0.0
 30
0.0
  3
*MODEL_SPACE
  1

  0
ENDBLK
  5
21
330
730
100
AcDbEntity
  8
0
100
AcDbBlockEnd
  0
BLOCK
  5
74B
330
72E
100
AcDbEntity
 67
     1
  8
0
100
AcDbBlockBegin
  2
*PAPER_SPACE
 70
     0
 10
0.0
 20
0.0
 30
0.0
  3
*PAPER_SPACE
  1

  0
ENDBLK
  5
1D
330
72E
100
AcDbEntity
 67
     1
  8
0
100
AcDbBlockEnd
  0
BLOCK
  5
74C
330
74D
100
AcDbEntity
  8
0
100
AcDbBlockBegin
  2
SW_NOTE_0
 70
     0
 10
0.0
 20
0.0
 30
0.0
  3
SW_NOTE_0
  1
SW_NOTE_0
  0
TEXT
  5
77
330
74D
100
AcDbEntity
  8
NOTES
 62
     0
100
AcDbText
 10
0.0
 20
1.5
 30
0.0
 40
3.0
  1
OLL48FP12SN
 41
0.7
 11
0.0
 21
0.0
 31
0.0
100
AcDbText
 73
     1
  0
TEXT
  5
78
330
74D
100
AcDbEntity
  8
NOTES
 62
     0
100
AcDbText
 10
0.0
 20
-2.3791667875
 30
0.0
 40
3.0
  1
OLL48FP12SP
 41
0.7
 11
0.0
 21
-3.8791667875
 31
0.0
100
AcDbText
 73
     1
  0
ENDBLK
  5
76
330
74D
100
AcDbEntity
  8
0
100
AcDbBlockEnd
  0
BLOCK
  5
74E
330
74F
100
AcDbEntity
  8
0
100
AcDbBlockBegin
  2
_D
 70
     0
 10
0.0
 20
0.0
 30
0.0
  3
_D
  1
_D
  0
LINE
  5
234
330
74F
100
AcDbEntity
  8
DIM
100
AcDbLine
 10
87.9222849576
 20
7.7317043538
 30
0.0
 11
100.3057707629
 21
7.731704353799998
 31
0.0
  0
LINE
  5
235
330
74F
100
AcDbEntity
  8
DIM
100
AcDbLine
 10
78.2385349576
 20
49.5202543538
 30
0.0
 11
100.3057707629
 21
49.5202543538
 31
0.0
  0
LINE
  5
236
330
74F
100
AcDbEntity
  8
DIM
100
AcDbLine
 10
99.3057707629
 20
8.481704353799998
 30
0.0
 11
99.3057707629
 21
27.3759793538
 31
0.0
  0
LINE
  5
237
330
74F
100
AcDbEntity
  8
DIM
100
AcDbLine
 10
99.3057707629
 20
48.7702543538
 30
0.0
 11
99.3057707629
 21
29.8759793538
 31
0.0
  0
SOLID
  5
238
330
74F
100
AcDbEntity
  8
DIM
100
AcDbTrace
 10
99.1807707629
 20
8.481704353799998
 30
0.0
 11
99.4307707629
 21
8.481704353799998
 31
0.0
 12
99.3057707629
 22
7.731704353799998
 32
0.0
 13
99.3057707629
 23
7.731704353799998
 33
0.0
  0
SOLID
  5
239
330
74F
100
AcDbEntity
  8
DIM
100
AcDbTrace
 10
99.4307707629
 20
48.7702543538
 30
0.0
 11
99.1807707629
 21
48.7702543538
 31
0.0
 12
99.3057707629
 22
49.5202543538
 32
0.0
 13
99.3057707629
 23
49.5202543538
 33
0.0
  0
MTEXT
  5
23A
330
74F
100
AcDbEntity
  8
DIM
100
AcDbMText
 10
99.3057707629
 20
28.6259793538
 30
0.0
 40
1.0
 41
0.0
 71
     5
 72
     1
  1
\A1;41{\H1.000000x;\S13#16;}"
  7
SLDTEXTSTYLE0
  0
POINT
  5
23B
330
74F
100
AcDbEntity
  8
DEFPOINTS
 62
     0
100
AcDbPoint
 10
87.4222849576
 20
7.7317043538
 30
0.0
  0
POINT
  5
23C
330
74F
100
AcDbEntity
  8
DEFPOINTS
 62
     0
100
AcDbPoint
 10
77.7385349576
 20
49.5202543538
 30
0.0
  0
POINT
  5
23D
330
74F
100
AcDbEntity
  8
DEFPOINTS
 62
     0
100
AcDbPoint
 10
99.3057707629
 20
49.5202543538
 30
0.0
  0
ENDBLK
  5
233
330
74F
100
AcDbEntity
  8
0
100
AcDbBlockEnd
  0
BLOCK
  5
750
330
751
100
AcDbEntity
  8
0
100
AcDbBlockBegin
  2
_D_1
 70
     0
 10
0.0
 20
0.0
 30
0.0
  3
_D_1
  1
_D_1
  0
LINE
  5
244
330
751
100
AcDbEntity
  8
DIM
100
AcDbLine
 10
31.11222840973333
 20
35.3557133835
 30
0.0
 11
30.36222840973333
 21
35.3557133835
 31
0.0
  0
LINE
  5
245
330
751
100
AcDbEntity
  8
DIM
100
AcDbLine
 10
30.36222840973333
 20
35.3557133835
 30
0.0
 11
30.36222840973333
 21
32.0204543538
 31
0.0
  0
LINE
  5
246
330
751
100
AcDbEntity
  8
DIM
100
AcDbLine
 10
37.3441852426
 20
30.5047043538
 30
0.0
 11
29.36222840973333
 21
30.5047043538
 31
0.0
  0
LINE
  5
247
330
751
100
AcDbEntity
  8
DIM
100
AcDbLine
 10
35.7660349576
 20
32.0204543538
 30
0.0
 11
29.36222840973333
 21
32.0204543538
 31
0.0
  0
LINE
  5
248
330
751
100
AcDbEntity
  8
DIM
100
AcDbLine
 10
30.36222840973333
 20
29.7547043538
 30
0.0
 11
30.36222840973333
 21
29.0047043538
 31
0.0
  0
SOLID
  5
249
330
751
100
AcDbEntity
  8
DIM
100
AcDbTrace
 10
30.48722840973333
 20
29.7547043538
 30
0.0
 11
30.23722840973333
 21
29.7547043538
 31
0.0
 12
30.36222840973333
 22
30.5047043538
 32
0.0
 13
30.36222840973333
 23
30.5047043538
 33
0.0
  0
SOLID
  5
24A
330
751
100
AcDbEntity
  8
DIM
100
AcDbTrace
 10
30.23722840973333
 20
32.7704543538
 30
0.0
 11
30.48722840973333
 21
32.7704543538
 31
0.0
 12
30.36222840973333
 22
32.0204543538
 32
0.0
 13
30.36222840973333
 23
32.0204543538
 33
0.0
  0
MTEXT
  5
24B
330
751
100
AcDbEntity
  8
DIM
100
AcDbMText
 10
32.4038950764
 20
35.3557133835
 30
0.0
 40
1.0
 41
0.0
 71
     5
 72
     1
  1
\A1;1{\H1.000000x;\S1#2;}"
  7
SLDTEXTSTYLE0
  0
POINT
  5
24C
330
751
100
AcDbEntity
  8
DEFPOINTS
 62
     0
100
AcDbPoint
 10
37.8441852426
 20
30.5047043538
 30
0.0
  0
POINT
  5
24D
330
751
100
AcDbEntity
  8
DEFPOINTS
 62
     0
100
AcDbPoint
 10
36.2660349576
 20
32.0204543538
 30
0.0
  0
POINT
  5
24E
330
751
100
AcDbEntity
  8
DEFPOINTS
 62
     0
100
AcDbPoint
 10
30.36222840973333
 20
32.0204543538
 30
0.0
  0
ENDBLK
  5
243
330
751
100
AcDbEntity
  8
0
100
AcDbBlockEnd
  0
BLOCK
  5
752
330
753
100
AcDbEntity
  8
0
100
AcDbBlockBegin
  2
_D_2
 70
     0
 10
0.0
 20
0.0
 30
0.0
  3
_D_2
  1
_D_2
  0
LINE
  5
254
330
753
100
AcDbEntity
  8
DIM
100
AcDbLine
 10
37.3441599576
 20
14.4698293538
 30
0.0
 11
30.6020339733
 21
14.4698293538
 31
0.0
  0
LINE
  5
255
330
753
100
AcDbEntity
  8
DIM
100
AcDbLine
 10
35.7660349576
 20
7.7317043538
 30
0.0
 11
30.6020339733
 21
7.7317043538
 31
0.0
  0
LINE
  5
256
330
753
100
AcDbEntity
  8
DIM
100
AcDbLine
 10
31.6020339733
 20
13.7198293538
 30
0.0
 11
31.6020339733
 21
12.3507668538
 31
0.0
  0
LINE
  5
257
330
753
100
AcDbEntity
  8
DIM
100
AcDbLine
 10
31.6020339733
 20
8.4817043538
 30
0.0
 11
31.6020339733
 21
9.8507668538
 31
0.0
  0
SOLID
  5
258
330
753
100
AcDbEntity
  8
DIM
100
AcDbTrace
 10
31.7270339733
 20
13.7198293538
 30
0.0
 11
31.4770339733
 21
13.7198293538
 31
0.0
 12
31.6020339733
 22
14.4698293538
 32
0.0
 13
31.6020339733
 23
14.4698293538
 33
0.0
  0
SOLID
  5
259
330
753
100
AcDbEntity
  8
DIM
100
AcDbTrace
 10
31.4770339733
 20
8.4817043538
 30
0.0
 11
31.7270339733
 21
8.4817043538
 31
0.0
 12
31.6020339733
 22
7.7317043538
 32
0.0
 13
31.6020339733
 23
7.7317043538
 33
0.0
  0
MTEXT
  5
25A
330
753
100
AcDbEntity
  8
DIM
100
AcDbMText
 10
31.6020339733
 20
11.1007668538
 30
0.0
 40
1.0
 41
0.0
 71
     5
 72
     1
  1
\A1;6{\H1.000000x;\S3#4;}"
  7
SLDTEXTSTYLE0
  0
POINT
  5
25B
330
753
100
AcDbEntity
  8
DEFPOINTS
 62
     0
100
AcDbPoint
 10
37.8441599576
 20
14.4698293538
 30
0.0
  0
POINT
  5
25C
330
753
100
AcDbEntity
  8
DEFPOINTS
 62
     0
100
AcDbPoint
 10
36.2660349576
 20
7.7317043538
 30
0.0
  0
POINT
  5
25D
330
753
100
AcDbEntity
  8
DEFPOINTS
 62
     0
100
AcDbPoint
 10
31.6020339733
 20
7.7317043538
 30
0.0
  0
ENDBLK
  5
253
330
753
100
AcDbEntity
  8
0
100
AcDbBlockEnd
  0
BLOCK
  5
754
330
755
100
AcDbEntity
  8
0
100
AcDbBlockBegin
  2
_D_3
 70
     0
 10
0.0
 20
0.0
 30
0.0
  3
_D_3
  1
_D_3
  0
LINE
  5
264
330
755
100
AcDbEntity
  8
DIM
100
AcDbLine
 10
37.8441852426
 20
29.9697043538
 30
0.0
 11
37.8441852426
 21
25.2208742796
 31
0.0
  0
LINE
  5
265
330
755
100
AcDbEntity
  8
DIM
100
AcDbLine
 10
85.8441852426
 20
29.9697043538
 30
0.0
 11
85.8441852426
 21
25.2208742796
 31
0.0
  0
LINE
  5
266
330
755
100
AcDbEntity
  8
DIM
100
AcDbLine
 10
38.5941852426
 20
26.2208742796
 30
0.0
 11
60.71918524259999
 21
26.2208742796
 31
0.0
  0
LINE
  5
267
330
755
100
AcDbEntity
  8
DIM
100
AcDbLine
 10
85.0941852426
 20
26.2208742796
 30
0.0
 11
62.9691852426
 21
26.2208742796
 31
0.0
  0
SOLID
  5
268
330
755
100
AcDbEntity
  8
DIM
100
AcDbTrace
 10
38.5941852426
 20
26.3458742796
 30
0.0
 11
38.5941852426
 21
26.0958742796
 31
0.0
 12
37.8441852426
 22
26.2208742796
 32
0.0
 13
37.8441852426
 23
26.2208742796
 33
0.0
  0
SOLID
  5
82A
330
755
100
AcDbEntity
  8
DIM
100
AcDbTrace
 10
85.0941852426
 20
26.0958742796
 30
0.0
 11
85.0941852426
 21
26.3458742796
 31
0.0
 12
85.8441852426
 22
26.2208742796
 32
0.0
 13
85.8441852426
 23
26.2208742796
 33
0.0
  0
MTEXT
  5
82B
330
755
100
AcDbEntity
  8
DIM
100
AcDbMText
 10
61.8441852426
 20
26.2208742796
 30
0.0
 40
1.0
 41
0.0
 71
     5
 72
     1
  1
\A1;48"
  7
SLDTEXTSTYLE0
  0
POINT
  5
82C
330
755
100
AcDbEntity
  8
DEFPOINTS
 62
     0
100
AcDbPoint
 10
37.8441852426
 20
30.4697043538
 30
0.0
  0
POINT
  5
82D
330
755
100
AcDbEntity
  8
DEFPOINTS
 62
     0
100
AcDbPoint
 10
85.8441852426
 20
30.4697043538
 30
0.0
  0
POINT
  5
82E
330
755
100
AcDbEntity
  8
DEFPOINTS
 62
     0
100
AcDbPoint
 10
85.8441852426
 20
26.2208742796
 30
0.0
  0
ENDBLK
  5
263
330
755
100
AcDbEntity
  8
0
100
AcDbBlockEnd
  0
BLOCK
  5
756
330
757
100
AcDbEntity
  8
0
100
AcDbBlockBegin
  2
_D_4
 70
     0
 10
0.0
 20
0.0
 30
0.0
  3
_D_4
  1
_D_4
  0
LINE
  5
26D
330
757
100
AcDbEntity
  8
DIM
100
AcDbLine
 10
89.0941599576
 20
27.9698293538
 30
0.0
 11
89.0941599576
 21
54.9605759894
 31
0.0
  0
LINE
  5
26E
330
757
100
AcDbEntity
  8
DIM
100
AcDbLine
 10
34.5941599576
 20
28.2823293538
 30
0.0
 11
34.5941599576
 21
54.9605759894
 31
0.0
  0
LINE
  5
26F
330
757
100
AcDbEntity
  8
DIM
100
AcDbLine
 10
88.3441599576
 20
53.9605759894
 30
0.0
 11
63.63582662426666
 21
53.9605759894
 31
0.0
  0
LINE
  5
270
330
757
100
AcDbEntity
  8
DIM
100
AcDbLine
 10
35.3441599576
 20
53.9605759894
 30
0.0
 11
60.05249329093334
 21
53.9605759894
 31
0.0
  0
SOLID
  5
271
330
757
100
AcDbEntity
  8
DIM
100
AcDbTrace
 10
88.3441599576
 20
53.8355759894
 30
0.0
 11
88.3441599576
 21
54.0855759894
 31
0.0
 12
89.0941599576
 22
53.9605759894
 32
0.0
 13
89.0941599576
 23
53.9605759894
 33
0.0
  0
SOLID
  5
272
330
757
100
AcDbEntity
  8
DIM
100
AcDbTrace
 10
35.3441599576
 20
54.0855759894
 30
0.0
 11
35.3441599576
 21
53.8355759894
 31
0.0
 12
34.5941599576
 22
53.9605759894
 32
0.0
 13
34.5941599576
 23
53.9605759894
 33
0.0
  0
MTEXT
  5
273
330
757
100
AcDbEntity
  8
DIM
100
AcDbMText
 10
61.8441599576
 20
53.9605759894
 30
0.0
 40
1.0
 41
0.0
 71
     5
 72
     1
  1
\A1;54{\H1.000000x;\S1#2;}"
  7
SLDTEXTSTYLE0
  0
POINT
  5
274
330
757
100
AcDbEntity
  8
DEFPOINTS
 62
     0
100
AcDbPoint
 10
89.0941599576
 20
27.4698293538
 30
0.0
  0
POINT
  5
275
330
757
100
AcDbEntity
  8
DEFPOINTS
 62
     0
100
AcDbPoint
 10
34.5941599576
 20
27.7823293538
 30
0.0
  0
POINT
  5
276
330
757
100
AcDbEntity
  8
DEFPOINTS
 62
     0
100
AcDbPoint
 10
34.5941599576
 20
53.9605759894
 30
0.0
  0
ENDBLK
  5
26C
330
757
100
AcDbEntity
  8
0
100
AcDbBlockEnd
  0
BLOCK
  5
758
330
759
100
AcDbEntity
  8
0
100
AcDbBlockBegin
  2
_D_5
 70
     0
 10
0.0
 20
0.0
 30
0.0
  3
_D_5
  1
_D_5
  0
LINE
  5
27C
330
759
100
AcDbEntity
  8
DIM
100
AcDbLine
 10
85.3441852426
 20
30.5047043538
 30
0.0
 11
72.5012527289
 21
30.5047043538
 31
0.0
  0
LINE
  5
27D
330
759
100
AcDbEntity
  8
DIM
100
AcDbLine
 10
85.1327849576
 20
14.5949043538
 30
0.0
 11
72.5012527289
 21
14.5949043538
 31
0.0
  0
LINE
  5
27E
330
759
100
AcDbEntity
  8
DIM
100
AcDbLine
 10
73.5012527289
 20
29.7547043538
 30
0.0
 11
73.5012527289
 21
23.7998043538
 31
0.0
  0
LINE
  5
27F
330
759
100
AcDbEntity
  8
DIM
100
AcDbLine
 10
73.5012527289
 20
15.3449043538
 30
0.0
 11
73.5012527289
 21
21.2998043538
 31
0.0
  0
SOLID
  5
280
330
759
100
AcDbEntity
  8
DIM
100
AcDbTrace
 10
73.6262527289
 20
29.7547043538
 30
0.0
 11
73.3762527289
 21
29.7547043538
 31
0.0
 12
73.5012527289
 22
30.5047043538
 32
0.0
 13
73.5012527289
 23
30.5047043538
 33
0.0
  0
SOLID
  5
281
330
759
100
AcDbEntity
  8
DIM
100
AcDbTrace
 10
73.3762527289
 20
15.3449043538
 30
0.0
 11
73.6262527289
 21
15.3449043538
 31
0.0
 12
73.5012527289
 22
14.5949043538
 32
0.0
 13
73.5012527289
 23
14.5949043538
 33
0.0
  0
MTEXT
  5
282
330
759
100
AcDbEntity
  8
DIM
100
AcDbMText
 10
73.5012527289
 20
22.5498043538
 30
0.0
 40
1.0
 41
0.0
 71
     5
 72
     1
  1
\A1;15{\H1.000000x;\S15#16;}"
  7
SLDTEXTSTYLE0
  0
POINT
  5
283
330
759
100
AcDbEntity
  8
DEFPOINTS
 62
     0
100
AcDbPoint
 10
85.8441852426
 20
30.5047043538
 30
0.0
  0
POINT
  5
284
330
759
100
AcDbEntity
  8
DEFPOINTS
 62
     0
100
AcDbPoint
 10
85.6327849576
 20
14.5949043538
 30
0.0
  0
POINT
  5
82F
330
759
100
AcDbEntity
  8
DEFPOINTS
 62
     0
100
AcDbPoint
 10
73.5012527289
 20
14.5949043538
 30
0.0
  0
ENDBLK
  5
27B
330
759
100
AcDbEntity
  8
0
100
AcDbBlockEnd
  0
BLOCK
  5
75A
330
75B
100
AcDbEntity
  8
0
100
AcDbBlockBegin
  2
_D_6
 70
     0
 10
0.0
 20
0.0
 30
0.0
  3
_D_6
  1
_D_6
  0
LINE
  5
289
330
75B
100
AcDbEntity
  8
DIM
100
AcDbLine
 10
87.5269099576
 20
7.3217043538
 30
0.0
 11
87.5269099576
 21
2.0034742801
 31
0.0
  0
LINE
  5
28A
330
75B
100
AcDbEntity
  8
DIM
100
AcDbLine
 10
36.1614099576
 20
7.3217043538
 30
0.0
 11
36.1614099576
 21
2.0034742801
 31
0.0
  0
LINE
  5
28B
330
75B
100
AcDbEntity
  8
DIM
100
AcDbLine
 10
86.7769099576
 20
3.0034742801
 30
0.0
 11
63.63582662426666
 21
3.0034742801
 31
0.0
  0
LINE
  5
28C
330
75B
100
AcDbEntity
  8
DIM
100
AcDbLine
 10
36.9114099576
 20
3.0034742801
 30
0.0
 11
60.05249329093334
 21
3.0034742801
 31
0.0
  0
SOLID
  5
28D
330
75B
100
AcDbEntity
  8
DIM
100
AcDbTrace
 10
86.7769099576
 20
2.8784742801
 30
0.0
 11
86.7769099576
 21
3.1284742801
 31
0.0
 12
87.5269099576
 22
3.0034742801
 32
0.0
 13
87.5269099576
 23
3.0034742801
 33
0.0
  0
SOLID
  5
28E
330
75B
100
AcDbEntity
  8
DIM
100
AcDbTrace
 10
36.9114099576
 20
3.1284742801
 30
0.0
 11
36.9114099576
 21
2.8784742801
 31
0.0
 12
36.1614099576
 22
3.0034742801
 32
0.0
 13
36.1614099576
 23
3.0034742801
 33
0.0
  0
MTEXT
  5
28F
330
75B
100
AcDbEntity
  8
DIM
100
AcDbMText
 10
61.8441599576
 20
3.0034742801
 30
0.0
 40
1.0
 41
0.0
 71
     5
 72
     1
  1
\A1;51{\H1.000000x;\S3#8;}"
  7
SLDTEXTSTYLE0
  0
POINT
  5
290
330
75B
100
AcDbEntity
  8
DEFPOINTS
 62
     0
100
AcDbPoint
 10
87.5269099576
 20
7.8217043538
 30
0.0
  0
POINT
  5
291
330
75B
100
AcDbEntity
  8
DEFPOINTS
 62
     0
100
AcDbPoint
 10
36.1614099576
 20
7.8217043538
 30
0.0
  0
POINT
  5
292
330
75B
100
AcDbEntity
  8
DEFPOINTS
 62
     0
100
AcDbPoint
 10
36.1614099576
 20
3.0034742801
 30
0.0
  0
ENDBLK
  5
288
330
75B
100
AcDbEntity
  8
0
100
AcDbBlockEnd
  0
BLOCK
  5
75C
330
75D
100
AcDbEntity
  8
0
100
AcDbBlockBegin
  2
_D_7
 70
     0
 10
0.0
 20
0.0
 30
0.0
  3
_D_7
  1
_D_7
  0
LINE
  5
3AF
330
75D
100
AcDbEntity
  8
DIM
100
AcDbLine
 10
109.1479992327333
 20
13.7672213258
 30
0.0
 11
108.3979992327333
 21
13.7672213258
 31
0.0
  0
LINE
  5
3B0
330
75D
100
AcDbEntity
  8
DIM
100
AcDbLine
 10
108.3979992327333
 20
13.7672213258
 30
0.0
 11
108.3979992327333
 21
10.2823293538
 31
0.0
  0
LINE
  5
3B1
330
75D
100
AcDbEntity
  8
DIM
100
AcDbLine
 10
118.64810586
 20
10.2823293538
 30
0.0
 11
107.3979992327333
 21
10.2823293538
 31
0.0
  0
LINE
  5
3B2
330
75D
100
AcDbEntity
  8
DIM
100
AcDbLine
 10
115.08710586
 20
7.7317043538
 30
0.0
 11
107.3979992327333
 21
7.7317043538
 31
0.0
  0
LINE
  5
3B3
330
75D
100
AcDbEntity
  8
DIM
100
AcDbLine
 10
108.3979992327333
 20
9.5323293538
 30
0.0
 11
108.3979992327333
 21
8.4817043538
 31
0.0
  0
SOLID
  5
3B4
330
75D
100
AcDbEntity
  8
DIM
100
AcDbTrace
 10
108.5229992327333
 20
9.5323293538
 30
0.0
 11
108.2729992327333
 21
9.5323293538
 31
0.0
 12
108.3979992327333
 22
10.2823293538
 32
0.0
 13
108.3979992327333
 23
10.2823293538
 33
0.0
  0
SOLID
  5
3B5
330
75D
100
AcDbEntity
  8
DIM
100
AcDbTrace
 10
108.2729992327333
 20
8.4817043538
 30
0.0
 11
108.5229992327333
 21
8.4817043538
 31
0.0
 12
108.3979992327333
 22
7.7317043538
 32
0.0
 13
108.3979992327333
 23
7.7317043538
 33
0.0
  0
MTEXT
  5
3B6
330
75D
100
AcDbEntity
  8
DIM
100
AcDbMText
 10
110.9396658994
 20
13.7672213258
 30
0.0
 40
1.0
 41
0.0
 71
     5
 72
     1
  1
\A1;2{\H1.000000x;\S9#16;}"
  7
SLDTEXTSTYLE0
  0
POINT
  5
3B7
330
75D
100
AcDbEntity
  8
DEFPOINTS
 62
     0
100
AcDbPoint
 10
119.14810586
 20
10.2823293538
 30
0.0
  0
POINT
  5
3B8
330
75D
100
AcDbEntity
  8
DEFPOINTS
 62
     0
100
AcDbPoint
 10
115.58710586
 20
7.7317043538
 30
0.0
  0
POINT
  5
3B9
330
75D
100
AcDbEntity
  8
DEFPOINTS
 62
     0
100
AcDbPoint
 10
108.3979992327333
 20
7.7317043538
 30
0.0
  0
ENDBLK
  5
3AE
330
75D
100
AcDbEntity
  8
0
100
AcDbBlockEnd
  0
BLOCK
  5
75E
330
75F
100
AcDbEntity
  8
0
100
AcDbBlockBegin
  2
_D_8
 70
     0
 10
0.0
 20
0.0
 30
0.0
  3
_D_8
  1
_D_8
  0
LINE
  5
3BF
330
75F
100
AcDbEntity
  8
DIM
100
AcDbLine
 10
120.12310586
 20
8.8073293538
 30
0.0
 11
120.12310586
 21
-5.7962550923
 31
0.0
  0
LINE
  5
3C0
330
75F
100
AcDbEntity
  8
DIM
100
AcDbLine
 10
133.82623086
 20
7.3217043538
 30
0.0
 11
133.82623086
 21
-5.7962550923
 31
0.0
  0
LINE
  5
3C1
330
75F
100
AcDbEntity
  8
DIM
100
AcDbLine
 10
120.12310586
 20
-4.7962550923
 30
0.0
 11
114.3701120936667
 21
-4.7962550923
 31
0.0
  0
LINE
  5
3C2
330
75F
100
AcDbEntity
  8
DIM
100
AcDbLine
 10
120.87310586
 20
-4.7962550923
 30
0.0
 11
133.07623086
 21
-4.7962550923
 31
0.0
  0
SOLID
  5
3C3
330
75F
100
AcDbEntity
  8
DIM
100
AcDbTrace
 10
120.87310586
 20
-4.6712550923
 30
0.0
 11
120.87310586
 21
-4.9212550923
 31
0.0
 12
120.12310586
 22
-4.7962550923
 32
0.0
 13
120.12310586
 23
-4.7962550923
 33
0.0
  0
SOLID
  5
3C4
330
75F
100
AcDbEntity
  8
DIM
100
AcDbTrace
 10
133.07623086
 20
-4.9212550923
 30
0.0
 11
133.07623086
 21
-4.6712550923
 31
0.0
 12
133.82623086
 22
-4.7962550923
 32
0.0
 13
133.82623086
 23
-4.7962550923
 33
0.0
  0
MTEXT
  5
3C5
330
75F
100
AcDbEntity
  8
DIM
100
AcDbMText
 10
110.703445427
 20
-4.7962550923
 30
0.0
 40
1.0
 41
0.0
 71
     5
 72
     1
  1
\A1;13{\H1.000000x;\S11#16;}" TYP
  7
SLDTEXTSTYLE0
  0
POINT
  5
3C6
330
75F
100
AcDbEntity
  8
DEFPOINTS
 62
     0
100
AcDbPoint
 10
120.12310586
 20
9.3073293538
 30
0.0
  0
POINT
  5
3C7
330
75F
100
AcDbEntity
  8
DEFPOINTS
 62
     0
100
AcDbPoint
 10
133.82623086
 20
7.8217043538
 30
0.0
  0
POINT
  5
3C8
330
75F
100
AcDbEntity
  8
DEFPOINTS
 62
     0
100
AcDbPoint
 10
133.82623086
 20
-4.7962550923
 30
0.0
  0
ENDBLK
  5
3BE
330
75F
100
AcDbEntity
  8
0
100
AcDbBlockEnd
  0
BLOCK
  5
760
330
761
100
AcDbEntity
  8
0
100
AcDbBlockBegin
  2
_D_9
 70
     0
 10
0.0
 20
0.0
 30
0.0
  3
_D_9
  1
_D_9
  0
LINE
  5
3CF
330
761
100
AcDbEntity
  8
DIM
100
AcDbLine
 10
124.37685586
 20
8.8073293538
 30
0.0
 11
124.37685586
 21
-1.7416579583
 31
0.0
  0
LINE
  5
3D0
330
761
100
AcDbEntity
  8
DIM
100
AcDbLine
 10
133.82623086
 20
7.3217043538
 30
0.0
 11
133.82623086
 21
-1.7416579583
 31
0.0
  0
LINE
  5
3D1
330
761
100
AcDbEntity
  8
DIM
100
AcDbLine
 10
133.82623086
 20
-0.7416579583
 30
0.0
 11
136.5220313445333
 21
-0.7416579583
 31
0.0
  0
LINE
  5
3D2
330
761
100
AcDbEntity
  8
DIM
100
AcDbLine
 10
125.12685586
 20
-0.7416579583
 30
0.0
 11
133.07623086
 21
-0.7416579583
 31
0.0
  0
SOLID
  5
3D3
330
761
100
AcDbEntity
  8
DIM
100
AcDbTrace
 10
125.12685586
 20
-0.6166579583
 30
0.0
 11
125.12685586
 21
-0.8666579583
 31
0.0
 12
124.37685586
 22
-0.7416579583
 32
0.0
 13
124.37685586
 23
-0.7416579583
 33
0.0
  0
SOLID
  5
3D4
330
761
100
AcDbEntity
  8
DIM
100
AcDbTrace
 10
133.07623086
 20
-0.8666579583
 30
0.0
 11
133.07623086
 21
-0.6166579583
 31
0.0
 12
133.82623086
 22
-0.7416579583
 32
0.0
 13
133.82623086
 23
-0.7416579583
 33
0.0
  0
MTEXT
  5
3D5
330
761
100
AcDbEntity
  8
DIM
100
AcDbMText
 10
139.8136980112
 20
-0.7416579583
 30
0.0
 40
1.0
 41
0.0
 71
     5
 72
     1
  1
\A1;9{\H1.000000x;\S7#16;}" TYP
  7
SLDTEXTSTYLE0
  0
POINT
  5
3D6
330
761
100
AcDbEntity
  8
DEFPOINTS
 62
     0
100
AcDbPoint
 10
124.37685586
 20
9.3073293538
 30
0.0
  0
POINT
  5
3D7
330
761
100
AcDbEntity
  8
DEFPOINTS
 62
     0
100
AcDbPoint
 10
133.82623086
 20
7.8217043538
 30
0.0
  0
POINT
  5
3D8
330
761
100
AcDbEntity
  8
DEFPOINTS
 62
     0
100
AcDbPoint
 10
133.82623086
 20
-0.7416579583
 30
0.0
  0
ENDBLK
  5
3CE
330
761
100
AcDbEntity
  8
0
100
AcDbBlockEnd
  0
BLOCK
  5
762
330
763
100
AcDbEntity
  8
0
100
AcDbBlockBegin
  2
_D_10
 70
     0
 10
0.0
 20
0.0
 30
0.0
  3
_D_10
  1
_D_10
  0
LINE
  5
3DF
330
763
100
AcDbEntity
  8
DIM
100
AcDbLine
 10
128.63060586
 20
8.8073293538
 30
0.0
 11
128.63060586
 21
2.7121356974
 31
0.0
  0
LINE
  5
3E0
330
763
100
AcDbEntity
  8
DIM
100
AcDbLine
 10
133.82623086
 20
7.3217043538
 30
0.0
 11
133.82623086
 21
2.7121356974
 31
0.0
  0
LINE
  5
3E1
330
763
100
AcDbEntity
  8
DIM
100
AcDbLine
 10
133.82623086
 20
3.7121356974
 30
0.0
 11
138.0220313445333
 21
3.7121356974
 31
0.0
  0
LINE
  5
3E2
330
763
100
AcDbEntity
  8
DIM
100
AcDbLine
 10
129.38060586
 20
3.7121356974
 30
0.0
 11
133.07623086
 21
3.7121356974
 31
0.0
  0
SOLID
  5
3E3
330
763
100
AcDbEntity
  8
DIM
100
AcDbTrace
 10
129.38060586
 20
3.8371356974
 30
0.0
 11
129.38060586
 21
3.5871356974
 31
0.0
 12
128.63060586
 22
3.7121356974
 32
0.0
 13
128.63060586
 23
3.7121356974
 33
0.0
  0
SOLID
  5
3E4
330
763
100
AcDbEntity
  8
DIM
100
AcDbTrace
 10
133.07623086
 20
3.5871356974
 30
0.0
 11
133.07623086
 21
3.8371356974
 31
0.0
 12
133.82623086
 22
3.7121356974
 32
0.0
 13
133.82623086
 23
3.7121356974
 33
0.0
  0
MTEXT
  5
3E5
330
763
100
AcDbEntity
  8
DIM
100
AcDbMText
 10
139.8136980112
 20
3.7121356974
 30
0.0
 40
1.0
 41
0.0
 71
     5
 72
     1
  1
\A1;5{\H1.000000x;\S3#16;}"\PTYP
  7
SLDTEXTSTYLE0
  0
POINT
  5
3E6
330
763
100
AcDbEntity
  8
DEFPOINTS
 62
     0
100
AcDbPoint
 10
128.63060586
 20
9.3073293538
 30
0.0
  0
POINT
  5
3E7
330
763
100
AcDbEntity
  8
DEFPOINTS
 62
     0
100
AcDbPoint
 10
133.82623086
 20
7.8217043538
 30
0.0
  0
POINT
  5
3E8
330
763
100
AcDbEntity
  8
DEFPOINTS
 62
     0
100
AcDbPoint
 10
133.82623086
 20
3.7121356974
 30
0.0
  0
ENDBLK
  5
3DE
330
763
100
AcDbEntity
  8
0
100
AcDbBlockEnd
  0
BLOCK
  5
764
330
765
100
AcDbEntity
  8
0
100
AcDbBlockBegin
  2
_D_11
 70
     0
 10
0.0
 20
0.0
 30
0.0
  3
_D_11
  1
_D_11
  0
LINE
  5
3EF
330
765
100
AcDbEntity
  8
DIM
100
AcDbLine
 10
123.6598066277333
 20
18.4721632732
 30
0.0
 11
122.9098066277333
 21
18.4721632732
 31
0.0
  0
LINE
  5
3F0
330
765
100
AcDbEntity
  8
DIM
100
AcDbLine
 10
122.9098066277333
 20
18.4721632732
 30
0.0
 11
122.9098066277333
 21
10.0323293538
 31
0.0
  0
LINE
  5
3F1
330
765
100
AcDbEntity
  8
DIM
100
AcDbLine
 10
132.72160586
 20
7.7317043538
 30
0.0
 11
121.9098066277333
 21
7.7317043538
 31
0.0
  0
LINE
  5
3F2
330
765
100
AcDbEntity
  8
DIM
100
AcDbLine
 10
124.60185586
 20
10.0323293538
 30
0.0
 11
121.9098066277333
 21
10.0323293538
 31
0.0
  0
LINE
  5
3F3
330
765
100
AcDbEntity
  8
DIM
100
AcDbLine
 10
122.9098066277333
 20
8.4817043538
 30
0.0
 11
122.9098066277333
 21
9.2823293538
 31
0.0
  0
SOLID
  5
3F4
330
765
100
AcDbEntity
  8
DIM
100
AcDbTrace
 10
122.7848066277333
 20
8.4817043538
 30
0.0
 11
123.0348066277333
 21
8.4817043538
 31
0.0
 12
122.9098066277333
 22
7.7317043538
 32
0.0
 13
122.9098066277333
 23
7.7317043538
 33
0.0
  0
SOLID
  5
3F5
330
765
100
AcDbEntity
  8
DIM
100
AcDbTrace
 10
123.0348066277333
 20
9.2823293538
 30
0.0
 11
122.7848066277333
 21
9.2823293538
 31
0.0
 12
122.9098066277333
 22
10.0323293538
 32
0.0
 13
122.9098066277333
 23
10.0323293538
 33
0.0
  0
MTEXT
  5
3F6
330
765
100
AcDbEntity
  8
DIM
100
AcDbMText
 10
125.4514732944
 20
18.4721632732
 30
0.0
 40
1.0
 41
0.0
 71
     5
 72
     1
  1
\A1;2{\H1.000000x;\S5#16;}"
  7
SLDTEXTSTYLE0
  0
POINT
  5
3F7
330
765
100
AcDbEntity
  8
DEFPOINTS
 62
     0
100
AcDbPoint
 10
133.22160586
 20
7.7317043538
 30
0.0
  0
POINT
  5
3F8
330
765
100
AcDbEntity
  8
DEFPOINTS
 62
     0
100
AcDbPoint
 10
125.10185586
 20
10.0323293538
 30
0.0
  0
POINT
  5
3F9
330
765
100
AcDbEntity
  8
DEFPOINTS
 62
     0
100
AcDbPoint
 10
122.9098066277333
 20
10.0323293538
 30
0.0
  0
ENDBLK
  5
3EE
330
765
100
AcDbEntity
  8
0
100
AcDbBlockEnd
  0
BLOCK
  5
766
330
767
100
AcDbEntity
  8
0
100
AcDbBlockBegin
  2
_D_12
 70
     0
 10
0.0
 20
0.0
 30
0.0
  3
_D_12
  1
_D_12
  0
LINE
  5
3FE
330
767
100
AcDbEntity
  8
DIM
100
AcDbLine
 10
114.57248086
 20
32.0204543538
 30
0.0
 11
110.6483273167
 21
32.0204543538
 31
0.0
  0
LINE
  5
3FF
330
767
100
AcDbEntity
  8
DIM
100
AcDbLine
 10
114.48248086
 20
49.5202543538
 30
0.0
 11
110.6483273167
 21
49.5202543538
 31
0.0
  0
LINE
  5
400
330
767
100
AcDbEntity
  8
DIM
100
AcDbLine
 10
111.6483273167
 20
32.7704543538
 30
0.0
 11
111.6483273167
 21
39.5203543538
 31
0.0
  0
LINE
  5
401
330
767
100
AcDbEntity
  8
DIM
100
AcDbLine
 10
111.6483273167
 20
48.7702543538
 30
0.0
 11
111.6483273167
 21
42.0203543538
 31
0.0
  0
SOLID
  5
402
330
767
100
AcDbEntity
  8
DIM
100
AcDbTrace
 10
111.5233273167
 20
32.7704543538
 30
0.0
 11
111.7733273167
 21
32.7704543538
 31
0.0
 12
111.6483273167
 22
32.0204543538
 32
0.0
 13
111.6483273167
 23
32.0204543538
 33
0.0
  0
SOLID
  5
403
330
767
100
AcDbEntity
  8
DIM
100
AcDbTrace
 10
111.7733273167
 20
48.7702543538
 30
0.0
 11
111.5233273167
 21
48.7702543538
 31
0.0
 12
111.6483273167
 22
49.5202543538
 32
0.0
 13
111.6483273167
 23
49.5202543538
 33
0.0
  0
MTEXT
  5
404
330
767
100
AcDbEntity
  8
DIM
100
AcDbMText
 10
111.6483273167
 20
40.7703543538
 30
0.0
 40
1.0
 41
0.0
 71
     5
 72
     1
  1
\A1;17{\H1.000000x;\S1#2;}"
  7
SLDTEXTSTYLE0
  0
POINT
  5
405
330
767
100
AcDbEntity
  8
DEFPOINTS
 62
     0
100
AcDbPoint
 10
115.07248086
 20
32.0204543538
 30
0.0
  0
POINT
  5
406
330
767
100
AcDbEntity
  8
DEFPOINTS
 62
     0
100
AcDbPoint
 10
114.98248086
 20
49.5202543538
 30
0.0
  0
POINT
  5
407
330
767
100
AcDbEntity
  8
DEFPOINTS
 62
     0
100
AcDbPoint
 10
111.6483273167
 20
49.5202543538
 30
0.0
  0
ENDBLK
  5
3FD
330
767
100
AcDbEntity
  8
0
100
AcDbBlockEnd
  0
BLOCK
  5
768
330
769
100
AcDbEntity
  8
0
100
AcDbBlockBegin
  2
_D_13
 70
     0
 10
0.0
 20
0.0
 30
0.0
  3
_D_13
  1
_D_13
  0
LINE
  5
40D
330
769
100
AcDbEntity
  8
DIM
100
AcDbLine
 10
133.72160586
 20
7.7317043538
 30
0.0
 11
140.5297249545
 21
7.731704353799998
 31
0.0
  0
LINE
  5
40E
330
769
100
AcDbEntity
  8
DIM
100
AcDbLine
 10
134.23623086
 20
32.0204543538
 30
0.0
 11
140.5297249545
 21
32.0204543538
 31
0.0
  0
LINE
  5
40F
330
769
100
AcDbEntity
  8
DIM
100
AcDbLine
 10
139.5297249545
 20
8.481704353799998
 30
0.0
 11
139.5297249545
 21
18.6260793538
 31
0.0
  0
LINE
  5
410
330
769
100
AcDbEntity
  8
DIM
100
AcDbLine
 10
139.5297249545
 20
31.2704543538
 30
0.0
 11
139.5297249545
 21
21.1260793538
 31
0.0
  0
SOLID
  5
411
330
769
100
AcDbEntity
  8
DIM
100
AcDbTrace
 10
139.4047249545
 20
8.481704353799998
 30
0.0
 11
139.6547249545
 21
8.481704353799998
 31
0.0
 12
139.5297249545
 22
7.731704353799998
 32
0.0
 13
139.5297249545
 23
7.731704353799998
 33
0.0
  0
SOLID
  5
412
330
769
100
AcDbEntity
  8
DIM
100
AcDbTrace
 10
139.6547249545
 20
31.2704543538
 30
0.0
 11
139.4047249545
 21
31.2704543538
 31
0.0
 12
139.5297249545
 22
32.0204543538
 32
0.0
 13
139.5297249545
 23
32.0204543538
 33
0.0
  0
MTEXT
  5
413
330
769
100
AcDbEntity
  8
DIM
100
AcDbMText
 10
139.5297249545
 20
19.8760793538
 30
0.0
 40
1.0
 41
0.0
 71
     5
 72
     1
  1
\A1;24{\H1.000000x;\S5#16;}"
  7
SLDTEXTSTYLE0
  0
POINT
  5
414
330
769
100
AcDbEntity
  8
DEFPOINTS
 62
     0
100
AcDbPoint
 10
133.22160586
 20
7.7317043538
 30
0.0
  0
POINT
  5
415
330
769
100
AcDbEntity
  8
DEFPOINTS
 62
     0
100
AcDbPoint
 10
133.73623086
 20
32.0204543538
 30
0.0
  0
POINT
  5
416
330
769
100
AcDbEntity
  8
DEFPOINTS
 62
     0
100
AcDbPoint
 10
139.5297249545
 20
32.0204543538
 30
0.0
  0
ENDBLK
  5
40C
330
769
100
AcDbEntity
  8
0
100
AcDbBlockEnd
  0
BLOCK
  5
76A
330
76B
100
AcDbEntity
  8
0
100
AcDbBlockBegin
  2
_D_14
 70
     0
 10
0.0
 20
0.0
 30
0.0
  3
_D_14
  1
_D_14
  0
LINE
  5
41C
330
76B
100
AcDbEntity
  8
DIM
100
AcDbLine
 10
115.01748086
 20
50.0202543538
 30
0.0
 11
115.01748086
 21
53.9132462168
 31
0.0
  0
LINE
  5
41D
330
76B
100
AcDbEntity
  8
DIM
100
AcDbLine
 10
133.82623086
 20
32.4304543538
 30
0.0
 11
133.82623086
 21
53.9132462168
 31
0.0
  0
LINE
  5
41E
330
76B
100
AcDbEntity
  8
DIM
100
AcDbLine
 10
115.76748086
 20
52.9132462168
 30
0.0
 11
122.1301891933333
 21
52.9132462168
 31
0.0
  0
LINE
  5
41F
330
76B
100
AcDbEntity
  8
DIM
100
AcDbLine
 10
133.07623086
 20
52.9132462168
 30
0.0
 11
126.7135225266667
 21
52.9132462168
 31
0.0
  0
SOLID
  5
420
330
76B
100
AcDbEntity
  8
DIM
100
AcDbTrace
 10
115.76748086
 20
53.0382462168
 30
0.0
 11
115.76748086
 21
52.7882462168
 31
0.0
 12
115.01748086
 22
52.9132462168
 32
0.0
 13
115.01748086
 23
52.9132462168
 33
0.0
  0
SOLID
  5
421
330
76B
100
AcDbEntity
  8
DIM
100
AcDbTrace
 10
133.07623086
 20
52.7882462168
 30
0.0
 11
133.07623086
 21
53.0382462168
 31
0.0
 12
133.82623086
 22
52.9132462168
 32
0.0
 13
133.82623086
 23
52.9132462168
 33
0.0
  0
MTEXT
  5
422
330
76B
100
AcDbEntity
  8
DIM
100
AcDbMText
 10
124.42185586
 20
52.9132462168
 30
0.0
 40
1.0
 41
0.0
 71
     5
 72
     1
  1
\A1;18{\H1.000000x;\S13#16;}"
  7
SLDTEXTSTYLE0
  0
POINT
  5
423
330
76B
100
AcDbEntity
  8
DEFPOINTS
 62
     0
100
AcDbPoint
 10
115.01748086
 20
49.5202543538
 30
0.0
  0
POINT
  5
424
330
76B
100
AcDbEntity
  8
DEFPOINTS
 62
     0
100
AcDbPoint
 10
133.82623086
 20
31.9304543538
 30
0.0
  0
POINT
  5
425
330
76B
100
AcDbEntity
  8
DEFPOINTS
 62
     0
100
AcDbPoint
 10
133.82623086
 20
52.9132462168
 30
0.0
  0
ENDBLK
  5
41B
330
76B
100
AcDbEntity
  8
0
100
AcDbBlockEnd
  0
BLOCK
  5
76C
330
76D
100
AcDbEntity
  8
0
100
AcDbBlockBegin
  2
SW_CENTERMARKSYMBOL_0
 70
     0
 10
0.0
 20
0.0
 30
0.0
  3
SW_CENTERMARKSYMBOL_0
  1
SW_CENTERMARKSYMBOL_0
  0
LINE
  5
42A
330
76D
100
AcDbEntity
  8
SLD-0
 62
     0
100
AcDbLine
 10
0.0
 20
0.0
 30
0.0
 11
0.0
 21
0.1
 31
0.0
  0
LINE
  5
42B
330
76D
100
AcDbEntity
  8
SLD-0
 62
     0
100
AcDbLine
 10
0.0
 20
0.0
 30
0.0
 11
-0.1
 21
0.0
 31
0.0
  0
LINE
  5
42C
330
76D
100
AcDbEntity
  8
SLD-0
 62
     0
100
AcDbLine
 10
0.0
 20
0.0
 30
0.0
 11
0.0
 21
-0.1
 31
0.0
  0
LINE
  5
42D
330
76D
100
AcDbEntity
  8
SLD-0
 62
     0
100
AcDbLine
 10
0.0
 20
0.0
 30
0.0
 11
0.1
 21
0.0
 31
0.0
  0
LINE
  5
42E
330
76D
100
AcDbEntity
  8
SLD-0
 62
     0
100
AcDbLine
 10
0.0
 20
0.2
 30
0.0
 11
0.0
 21
0.975
 31
0.0
  0
LINE
  5
42F
330
76D
100
AcDbEntity
  8
SLD-0
 62
     0
100
AcDbLine
 10
-0.2
 20
0.0
 30
0.0
 11
-0.975
 21
0.0
 31
0.0
  0
LINE
  5
430
330
76D
100
AcDbEntity
  8
SLD-0
 62
     0
100
AcDbLine
 10
0.0
 20
-0.2
 30
0.0
 11
0.0
 21
-0.975
 31
0.0
  0
LINE
  5
431
330
76D
100
AcDbEntity
  8
SLD-0
 62
     0
100
AcDbLine
 10
0.2
 20
0.0
 30
0.0
 11
0.975
 21
0.0
 31
0.0
  0
ENDBLK
  5
429
330
76D
100
AcDbEntity
  8
0
100
AcDbBlockEnd
  0
BLOCK
  5
76E
330
76F
100
AcDbEntity
  8
0
100
AcDbBlockBegin
  2
SW_CENTERMARKSYMBOL_1
 70
     0
 10
0.0
 20
0.0
 30
0.0
  3
SW_CENTERMARKSYMBOL_1
  1
SW_CENTERMARKSYMBOL_1
  0
LINE
  5
436
330
76F
100
AcDbEntity
  8
SLD-0
 62
     0
100
AcDbLine
 10
0.0
 20
0.0
 30
0.0
 11
0.0
 21
0.1
 31
0.0
  0
LINE
  5
437
330
76F
100
AcDbEntity
  8
SLD-0
 62
     0
100
AcDbLine
 10
0.0
 20
0.0
 30
0.0
 11
-0.1
 21
0.0
 31
0.0
  0
LINE
  5
438
330
76F
100
AcDbEntity
  8
SLD-0
 62
     0
100
AcDbLine
 10
0.0
 20
0.0
 30
0.0
 11
0.0
 21
-0.1
 31
0.0
  0
LINE
  5
439
330
76F
100
AcDbEntity
  8
SLD-0
 62
     0
100
AcDbLine
 10
0.0
 20
0.0
 30
0.0
 11
0.1
 21
0.0
 31
0.0
  0
LINE
  5
43A
330
76F
100
AcDbEntity
  8
SLD-0
 62
     0
100
AcDbLine
 10
0.0
 20
0.2
 30
0.0
 11
0.0
 21
0.725
 31
0.0
  0
LINE
  5
43B
330
76F
100
AcDbEntity
  8
SLD-0
 62
     0
100
AcDbLine
 10
-0.2
 20
0.0
 30
0.0
 11
-0.725
 21
0.0
 31
0.0
  0
LINE
  5
43C
330
76F
100
AcDbEntity
  8
SLD-0
 62
     0
100
AcDbLine
 10
0.0
 20
-0.2
 30
0.0
 11
0.0
 21
-0.725
 31
0.0
  0
LINE
  5
43D
330
76F
100
AcDbEntity
  8
SLD-0
 62
     0
100
AcDbLine
 10
0.2
 20
0.0
 30
0.0
 11
0.725
 21
0.0
 31
0.0
  0
ENDBLK
  5
435
330
76F
100
AcDbEntity
  8
0
100
AcDbBlockEnd
  0
BLOCK
  5
770
330
771
100
AcDbEntity
  8
0
100
AcDbBlockBegin
  2
SW_CENTERMARKSYMBOL_2
 70
     0
 10
0.0
 20
0.0
 30
0.0
  3
SW_CENTERMARKSYMBOL_2
  1
SW_CENTERMARKSYMBOL_2
  0
LINE
  5
442
330
771
100
AcDbEntity
  8
SLD-0
 62
     0
100
AcDbLine
 10
0.0
 20
0.0
 30
0.0
 11
0.0
 21
0.1
 31
0.0
  0
LINE
  5
443
330
771
100
AcDbEntity
  8
SLD-0
 62
     0
100
AcDbLine
 10
0.0
 20
0.0
 30
0.0
 11
-0.1
 21
0.0
 31
0.0
  0
LINE
  5
444
330
771
100
AcDbEntity
  8
SLD-0
 62
     0
100
AcDbLine
 10
0.0
 20
0.0
 30
0.0
 11
0.0
 21
-0.1
 31
0.0
  0
LINE
  5
445
330
771
100
AcDbEntity
  8
SLD-0
 62
     0
100
AcDbLine
 10
0.0
 20
0.0
 30
0.0
 11
0.1
 21
0.0
 31
0.0
  0
LINE
  5
446
330
771
100
AcDbEntity
  8
SLD-0
 62
     0
100
AcDbLine
 10
0.0
 20
0.2
 30
0.0
 11
0.0
 21
0.975
 31
0.0
  0
LINE
  5
447
330
771
100
AcDbEntity
  8
SLD-0
 62
     0
100
AcDbLine
 10
-0.2
 20
0.0
 30
0.0
 11
-0.975
 21
0.0
 31
0.0
  0
LINE
  5
448
330
771
100
AcDbEntity
  8
SLD-0
 62
     0
100
AcDbLine
 10
0.0
 20
-0.2
 30
0.0
 11
0.0
 21
-0.975
 31
0.0
  0
LINE
  5
449
330
771
100
AcDbEntity
  8
SLD-0
 62
     0
100
AcDbLine
 10
0.2
 20
0.0
 30
0.0
 11
0.975
 21
0.0
 31
0.0
  0
ENDBLK
  5
441
330
771
100
AcDbEntity
  8
0
100
AcDbBlockEnd
  0
BLOCK
  5
772
330
773
100
AcDbEntity
  8
0
100
AcDbBlockBegin
  2
_D_15
 70
     0
 10
0.0
 20
0.0
 30
0.0
  3
_D_15
  1
_D_15
  0
LINE
  5
558
330
773
100
AcDbEntity
  8
DIM
100
AcDbLine
 10
23.1102977888
 20
30.6443043538
 30
0.0
 11
28.2262535425
 21
30.6443043538
 31
0.0
  0
LINE
  5
559
330
773
100
AcDbEntity
  8
DIM
100
AcDbLine
 10
23.1921227888
 20
14.3958923459
 30
0.0
 11
28.2262535425
 21
14.3958923459
 31
0.0
  0
LINE
  5
55A
330
773
100
AcDbEntity
  8
DIM
100
AcDbLine
 10
27.2262535425
 20
29.8943043538
 30
0.0
 11
27.2262535425
 21
23.7700983498
 31
0.0
  0
LINE
  5
55B
330
773
100
AcDbEntity
  8
DIM
100
AcDbLine
 10
27.2262535425
 20
15.1458923459
 30
0.0
 11
27.2262535425
 21
21.2700983498
 31
0.0
  0
SOLID
  5
55C
330
773
100
AcDbEntity
  8
DIM
100
AcDbTrace
 10
27.3512535425
 20
29.8943043538
 30
0.0
 11
27.1012535425
 21
29.8943043538
 31
0.0
 12
27.2262535425
 22
30.6443043538
 32
0.0
 13
27.2262535425
 23
30.6443043538
 33
0.0
  0
SOLID
  5
55D
330
773
100
AcDbEntity
  8
DIM
100
AcDbTrace
 10
27.1012535425
 20
15.1458923459
 30
0.0
 11
27.3512535425
 21
15.1458923459
 31
0.0
 12
27.2262535425
 22
14.3958923459
 32
0.0
 13
27.2262535425
 23
14.3958923459
 33
0.0
  0
MTEXT
  5
55E
330
773
100
AcDbEntity
  8
DIM
100
AcDbMText
 10
27.2262535425
 20
22.5200983498
 30
0.0
 40
1.0
 41
0.0
 71
     5
 72
     1
  1
\A1;16{\H1.000000x;\S1#4;}"
  7
SLDTEXTSTYLE0
  0
POINT
  5
55F
330
773
100
AcDbEntity
  8
DEFPOINTS
 62
     0
100
AcDbPoint
 10
22.6102977888
 20
30.6443043538
 30
0.0
  0
POINT
  5
560
330
773
100
AcDbEntity
  8
DEFPOINTS
 62
     0
100
AcDbPoint
 10
22.6921227888
 20
14.3958923459
 30
0.0
  0
POINT
  5
561
330
773
100
AcDbEntity
  8
DEFPOINTS
 62
     0
100
AcDbPoint
 10
27.2262535425
 20
14.3958923459
 30
0.0
  0
ENDBLK
  5
557
330
773
100
AcDbEntity
  8
0
100
AcDbBlockEnd
  0
BLOCK
  5
774
330
775
100
AcDbEntity
  8
0
100
AcDbBlockBegin
  2
_D_16
 70
     0
 10
0.0
 20
0.0
 30
0.0
  3
_D_16
  1
_D_16
  0
LINE
  5
674
330
775
100
AcDbEntity
  8
DIM
100
AcDbLine
 10
86.0177052426
 20
67.3500275211
 30
0.0
 11
86.0177052426
 21
61.2380536717
 31
0.0
  0
LINE
  5
675
330
775
100
AcDbEntity
  8
DIM
100
AcDbLine
 10
37.6706652426
 20
67.3500275211
 30
0.0
 11
37.6706652426
 21
61.2380536717
 31
0.0
  0
LINE
  5
676
330
775
100
AcDbEntity
  8
DIM
100
AcDbLine
 10
85.2677052426
 20
62.2380536717
 30
0.0
 11
63.76085190926666
 21
62.2380536717
 31
0.0
  0
LINE
  5
677
330
775
100
AcDbEntity
  8
DIM
100
AcDbLine
 10
38.4206652426
 20
62.2380536717
 30
0.0
 11
59.92751857593333
 21
62.2380536717
 31
0.0
  0
SOLID
  5
678
330
775
100
AcDbEntity
  8
DIM
100
AcDbTrace
 10
85.2677052426
 20
62.1130536717
 30
0.0
 11
85.2677052426
 21
62.3630536717
 31
0.0
 12
86.0177052426
 22
62.2380536717
 32
0.0
 13
86.0177052426
 23
62.2380536717
 33
0.0
  0
SOLID
  5
679
330
775
100
AcDbEntity
  8
DIM
100
AcDbTrace
 10
38.4206652426
 20
62.3630536717
 30
0.0
 11
38.4206652426
 21
62.1130536717
 31
0.0
 12
37.6706652426
 22
62.2380536717
 32
0.0
 13
37.6706652426
 23
62.2380536717
 33
0.0
  0
MTEXT
  5
67A
330
775
100
AcDbEntity
  8
DIM
100
AcDbMText
 10
61.8441852426
 20
62.2380536717
 30
0.0
 40
1.0
 41
0.0
 71
     5
 72
     1
  1
\A1;48{\H1.000000x;\S3#8;}"
  7
SLDTEXTSTYLE0
  0
POINT
  5
67B
330
775
100
AcDbEntity
  8
DEFPOINTS
 62
     0
100
AcDbPoint
 10
86.0177052426
 20
67.8500275211
 30
0.0
  0
POINT
  5
67C
330
775
100
AcDbEntity
  8
DEFPOINTS
 62
     0
100
AcDbPoint
 10
37.6706652426
 20
67.8500275211
 30
0.0
  0
POINT
  5
67D
330
775
100
AcDbEntity
  8
DEFPOINTS
 62
     0
100
AcDbPoint
 10
37.6706652426
 20
62.2380536717
 30
0.0
  0
ENDBLK
  5
673
330
775
100
AcDbEntity
  8
0
100
AcDbBlockEnd
  0
BLOCK
  5
776
330
777
100
AcDbEntity
  8
0
100
AcDbBlockBegin
  2
_D_17
 70
     0
 10
0.0
 20
0.0
 30
0.0
  3
_D_17
  1
_D_17
  0
LINE
  5
683
330
777
100
AcDbEntity
  8
DIM
100
AcDbLine
 10
96.55899832633332
 20
72.3212624782
 30
0.0
 11
95.80899832633332
 21
72.3212624782
 31
0.0
  0
LINE
  5
684
330
777
100
AcDbEntity
  8
DIM
100
AcDbLine
 10
95.80899832633332
 20
72.3212624782
 30
0.0
 11
95.80899832633332
 21
68.6173650211
 31
0.0
  0
LINE
  5
685
330
777
100
AcDbEntity
  8
DIM
100
AcDbLine
 10
86.3441599576
 20
67.7328965171
 30
0.0
 11
96.80899832633332
 21
67.7328965171
 31
0.0
  0
LINE
  5
686
330
777
100
AcDbEntity
  8
DIM
100
AcDbLine
 10
89.5941599576
 20
68.6173650211
 30
0.0
 11
96.80899832633332
 21
68.6173650211
 31
0.0
  0
LINE
  5
687
330
777
100
AcDbEntity
  8
DIM
100
AcDbLine
 10
95.80899832633332
 20
66.9828965171
 30
0.0
 11
95.80899832633332
 21
66.2328965171
 31
0.0
  0
SOLID
  5
688
330
777
100
AcDbEntity
  8
DIM
100
AcDbTrace
 10
95.93399832633332
 20
66.9828965171
 30
0.0
 11
95.68399832633332
 21
66.9828965171
 31
0.0
 12
95.80899832633332
 22
67.7328965171
 32
0.0
 13
95.80899832633332
 23
67.7328965171
 33
0.0
  0
SOLID
  5
689
330
777
100
AcDbEntity
  8
DIM
100
AcDbTrace
 10
95.68399832633332
 20
69.3673650211
 30
0.0
 11
95.93399832633332
 21
69.3673650211
 31
0.0
 12
95.80899832633332
 22
68.6173650211
 32
0.0
 13
95.80899832633332
 23
68.6173650211
 33
0.0
  0
MTEXT
  5
68A
330
777
100
AcDbEntity
  8
DIM
100
AcDbMText
 10
99.225664993
 20
72.3212624782
 30
0.0
 40
1.0
 41
0.0
 71
     5
 72
     1
  1
\A1;{\H1.000000x;\S7#8;}" TYP
  7
SLDTEXTSTYLE0
  0
POINT
  5
68B
330
777
100
AcDbEntity
  8
DEFPOINTS
 62
     0
100
AcDbPoint
 10
85.8441599576
 20
67.7328965171
 30
0.0
  0
POINT
  5
68C
330
777
100
AcDbEntity
  8
DEFPOINTS
 62
     0
100
AcDbPoint
 10
89.0941599576
 20
68.6173650211
 30
0.0
  0
POINT
  5
68D
330
777
100
AcDbEntity
  8
DEFPOINTS
 62
     0
100
AcDbPoint
 10
95.80899832633332
 20
68.6173650211
 30
0.0
  0
ENDBLK
  5
682
330
777
100
AcDbEntity
  8
0
100
AcDbBlockEnd
  0
BLOCK
  5
819
330
7BA
100
AcDbEntity
  8
0
100
AcDbBlockBegin
  2
DIMBLOCK
 70
     0
 10
0.0
 20
0.0
 30
0.0
  3
DIMBLOCK
  1
DIMBLOCK
  0
DIMENSION
  5
802
330
7BA
100
AcDbEntity
  8
DIM
100
AcDbDimension
  2
*D23
 10
52.21867827481636
 20
37.56898393355885
 30
0.0
 11
30.22184851641212
 21
37.56898393355885
 31
0.0
 70
    32
  3
ARCH_SALES_DRAWING
100
AcDbAlignedDimension
 13
8.225018758007892
 23
68.11134467724243
 33
0.0
 14
52.21867827481636
 24
50.38728041147787
 34
0.0
100
AcDbRotatedDimension
  0
ENDBLK
  5
81A
330
7BA
100
AcDbEntity
  8
0
100
AcDbBlockEnd
  0
BLOCK
  5
804
330
803
100
AcDbEntity
  8
0
100
AcDbBlockBegin
  2
*D23
 70
     1
 10
0.0
 20
0.0
 30
0.0
  3
*D23
  1
*D23
  0
LINE
  5
805
330
803
100
AcDbEntity
  8
DIM
100
AcDbLine
 10
8.225018758007892
 20
67.61134467724243
 30
0.0
 11
8.225018758007892
 21
36.56898393355885
 31
0.0
  0
LINE
  5
806
330
803
100
AcDbEntity
  8
DIM
100
AcDbLine
 10
52.21867827481636
 20
49.88728041147787
 30
0.0
 11
52.21867827481636
 21
36.56898393355885
 31
0.0
  0
LINE
  5
807
330
803
100
AcDbEntity
  8
DIM
100
AcDbLine
 10
8.975018758007892
 20
37.56898393355885
 30
0.0
 11
29.09684851641212
 21
37.56898393355885
 31
0.0
  0
LINE
  5
808
330
803
100
AcDbEntity
  8
DIM
100
AcDbLine
 10
51.46867827481636
 20
37.56898393355885
 30
0.0
 11
31.34684851641212
 21
37.56898393355885
 31
0.0
  0
SOLID
  5
809
330
803
100
AcDbEntity
  8
DIM
100
AcDbTrace
 10
8.975018758007892
 20
37.69398393355885
 30
0.0
 11
8.975018758007892
 21
37.44398393355885
 31
0.0
 12
8.225018758007892
 22
37.56898393355885
 32
0.0
 13
8.225018758007892
 23
37.56898393355885
 33
0.0
  0
SOLID
  5
80A
330
803
100
AcDbEntity
  8
DIM
100
AcDbTrace
 10
51.46867827481636
 20
37.44398393355885
 30
0.0
 11
51.46867827481636
 21
37.69398393355885
 31
0.0
 12
52.21867827481636
 22
37.56898393355885
 32
0.0
 13
52.21867827481636
 23
37.56898393355885
 33
0.0
  0
MTEXT
  5
80B
330
803
100
AcDbEntity
  8
DIM
100
AcDbMText
 10
30.22184851641212
 20
37.56898393355885
 30
0.0
 40
1.0
 41
0.0
 71
     5
 72
     1
  1
\A1;44"
  7
SLDTEXTSTYLE0
  0
POINT
  5
80C
330
803
100
AcDbEntity
  8
DEFPOINTS
 62
     0
100
AcDbPoint
 10
8.225018758007892
 20
68.11134467724243
 30
0.0
  0
POINT
  5
80D
330
803
100
AcDbEntity
  8
DEFPOINTS
 62
     0
100
AcDbPoint
 10
52.21867827481636
 20
50.38728041147787
 30
0.0
  0
POINT
  5
80E
330
803
100
AcDbEntity
  8
DEFPOINTS
 62
     0
100
AcDbPoint
 10
52.21867827481636
 20
37.56898393355885
 30
0.0
  0
ENDBLK
  5
80F
330
803
100
AcDbEntity
  8
0
100
AcDbBlockEnd
  0
ENDSEC
  0
SECTION
  2
ENTITIES
  0
INSERT
  5
79
330
730
100
AcDbEntity
  8
NOTES
100
AcDbBlockReference
  2
SW_NOTE_0
 10
1.222316508
 20
70.3242182576
 30
0.0
  0
LINE
  5
7A
330
730
100
AcDbEntity
  8
0
  6
SLD-SOLID
 62
     7
100
AcDbLine
 10
85.8441860672
 20
30.6443047321
 30
0.0
 11
37.844185474
 21
30.6443047321
 31
0.0
  0
LINE
  5
7B
330
730
100
AcDbEntity
  8
0
  6
SLD-SOLID
 62
     7
100
AcDbLine
 10
86.0177059827
 20
14.4697043825
 30
0.0
 11
86.0177059827
 21
30.4697053624
 31
0.0
  0
LINE
  5
7C
330
730
100
AcDbEntity
  8
0
  6
SLD-SOLID
 62
     7
100
AcDbLine
 10
37.6706655585
 20
30.4697053624
 30
0.0
 11
37.6706655585
 21
14.4697043825
 31
0.0
  0
LINE
  5
7D
330
730
100
AcDbEntity
  8
0
  6
SLD-SOLID
 62
     7
100
AcDbLine
 10
76.1244202708
 20
14.9059540629
 30
0.0
 11
76.91308828
 21
14.9059540629
 31
0.0
  0
LINE
  5
7E
330
730
100
AcDbEntity
  8
0
  6
SLD-SOLID
 62
     7
100
AcDbLine
 10
76.91308828
 20
15.0199543993
 30
0.0
 11
76.1244202708
 21
15.0199543993
 31
0.0
  0
LWPOLYLINE
  5
7F
330
730
100
AcDbEntity
  8
0
  6
SLD-SOLID
 62
     7
100
AcDbPolyline
 90
        7
 70
   128
 43
0.0
 10
76.9080911111
 20
14.9067454671
 10
76.9076018367
 20
14.9068733589
 10
76.9120592786
 20
14.9016292062
 10
76.918544217
 20
14.8893422015
 10
76.9243615364
 20
14.8704705261
 10
76.9275940324
 20
14.8457897446
 10
76.9277852836
 20
14.8379543151
  0
LWPOLYLINE
  5
80
330
730
100
AcDbEntity
  8
0
  6
SLD-SOLID
 62
     7
100
AcDbPolyline
 90
        8
 70
   128
 43
0.0
 10
77.0417850333
 20
14.8379543151
 10
77.0405718206
 20
14.8637028176
 10
77.0319256272
 20
14.9098524178
 10
77.0145687077
 20
14.9523248339
 10
76.9912618836
 20
14.9844409429
 10
76.9633239663
 20
15.0064401021
 10
76.9319224091
 20
15.0181345803
 10
76.91308828
 20
15.0199543993
  0
LINE
  5
81
330
730
100
AcDbEntity
  8
0
  6
SLD-SOLID
 62
     7
100
AcDbLine
 10
77.0417850333
 20
14.6504542944
 30
0.0
 11
77.0417850333
 21
14.8379543151
 31
0.0
  0
LINE
  5
82
330
730
100
AcDbEntity
  8
0
  6
SLD-SOLID
 62
     7
100
AcDbLine
 10
76.9277852836
 20
14.8379543151
 30
0.0
 11
76.9277852836
 21
14.6504542944
 31
0.0
  0
LINE
  5
83
330
730
100
AcDbEntity
  8
0
  6
SLD-SOLID
 62
     7
100
AcDbLine
 10
76.103510539
 20
14.8008997031
 30
0.0
 11
76.0031166054
 21
14.8008997031
 31
0.0
  0
LINE
  5
84
330
730
100
AcDbEntity
  8
0
  6
SLD-SOLID
 62
     7
100
AcDbLine
 10
75.8102028873
 20
14.8008997031
 30
0.0
 11
75.709810127
 21
14.8008997031
 31
0.0
  0
LINE
  5
85
330
730
100
AcDbEntity
  8
0
  6
SLD-SOLID
 62
     7
100
AcDbLine
 10
76.0004097567
 20
14.7644200179
 30
0.0
 11
76.0004097567
 21
14.9714751726
 31
0.0
  0
LINE
  5
86
330
730
100
AcDbEntity
  8
0
  6
SLD-SOLID
 62
     7
100
AcDbLine
 10
75.812909736
 20
14.9714751726
 30
0.0
 11
75.812909736
 21
14.7644200179
 31
0.0
  0
LINE
  5
87
330
730
100
AcDbEntity
  8
0
  6
SLD-SOLID
 62
     7
100
AcDbLine
 10
76.0004097567
 20
14.7498614661
 30
0.0
 11
76.0004097567
 21
14.7579491593
 31
0.0
  0
LINE
  5
88
330
730
100
AcDbEntity
  8
0
  6
SLD-SOLID
 62
     7
100
AcDbLine
 10
75.812909736
 20
14.7579491593
 30
0.0
 11
75.812909736
 21
14.7498614661
 31
0.0
  0
LINE
  5
89
330
730
100
AcDbEntity
  8
0
  6
SLD-SOLID
 62
     7
100
AcDbLine
 10
76.0004097567
 20
14.7353029143
 30
0.0
 11
76.0004097567
 21
14.7433906075
 31
0.0
  0
LINE
  5
8A
330
730
100
AcDbEntity
  8
0
  6
SLD-SOLID
 62
     7
100
AcDbLine
 10
75.812909736
 20
14.7433906075
 30
0.0
 11
75.812909736
 21
14.7353029143
 31
0.0
  0
LINE
  5
8B
330
730
100
AcDbEntity
  8
0
  6
SLD-SOLID
 62
     7
100
AcDbLine
 10
76.0004097567
 20
14.7207443624
 30
0.0
 11
76.0004097567
 21
14.7288320557
 31
0.0
  0
LINE
  5
8C
330
730
100
AcDbEntity
  8
0
  6
SLD-SOLID
 62
     7
100
AcDbLine
 10
75.812909736
 20
14.7288320557
 30
0.0
 11
75.812909736
 21
14.7207443624
 31
0.0
  0
LINE
  5
8D
330
730
100
AcDbEntity
  8
0
  6
SLD-SOLID
 62
     7
100
AcDbLine
 10
76.0004097567
 20
14.7061858106
 30
0.0
 11
76.0004097567
 21
14.7142735039
 31
0.0
  0
LINE
  5
8E
330
730
100
AcDbEntity
  8
0
  6
SLD-SOLID
 62
     7
100
AcDbLine
 10
75.812909736
 20
14.7142735039
 30
0.0
 11
75.812909736
 21
14.7061858106
 31
0.0
  0
LINE
  5
8F
330
730
100
AcDbEntity
  8
0
  6
SLD-SOLID
 62
     7
100
AcDbLine
 10
76.0004097567
 20
14.6916266721
 30
0.0
 11
76.0004097567
 21
14.699714952
 31
0.0
  0
LINE
  5
90
330
730
100
AcDbEntity
  8
0
  6
SLD-SOLID
 62
     7
100
AcDbLine
 10
75.812909736
 20
14.699714952
 30
0.0
 11
75.812909736
 21
14.6916266721
 31
0.0
  0
LINE
  5
91
330
730
100
AcDbEntity
  8
0
  6
SLD-SOLID
 62
     7
100
AcDbLine
 10
76.0004097567
 20
14.6770681203
 30
0.0
 11
76.0004097567
 21
14.6851564002
 31
0.0
  0
LINE
  5
92
330
730
100
AcDbEntity
  8
0
  6
SLD-SOLID
 62
     7
100
AcDbLine
 10
75.812909736
 20
14.6851564002
 30
0.0
 11
75.812909736
 21
14.6770681203
 31
0.0
  0
LINE
  5
93
330
730
100
AcDbEntity
  8
0
  6
SLD-SOLID
 62
     7
100
AcDbLine
 10
76.0004097567
 20
14.6625095685
 30
0.0
 11
76.0004097567
 21
14.6705978484
 31
0.0
  0
LINE
  5
94
330
730
100
AcDbEntity
  8
0
  6
SLD-SOLID
 62
     7
100
AcDbLine
 10
75.812909736
 20
14.6705978484
 30
0.0
 11
75.812909736
 21
14.6625095685
 31
0.0
  0
LINE
  5
95
330
730
100
AcDbEntity
  8
0
  6
SLD-SOLID
 62
     7
100
AcDbLine
 10
76.0004097567
 20
14.6419043132
 30
0.0
 11
76.0004097567
 21
14.6560392966
 31
0.0
  0
LINE
  5
96
330
730
100
AcDbEntity
  8
0
  6
SLD-SOLID
 62
     7
100
AcDbLine
 10
75.812909736
 20
14.6560392966
 30
0.0
 11
75.812909736
 21
14.6419043132
 31
0.0
  0
LINE
  5
97
330
730
100
AcDbEntity
  8
0
  6
SLD-SOLID
 62
     7
100
AcDbLine
 10
80.7368811206
 20
14.469829341
 30
0.0
 11
80.7208805587
 21
14.5044170481
 31
0.0
  0
LINE
  5
98
330
730
100
AcDbEntity
  8
0
  6
SLD-SOLID
 62
     7
100
AcDbLine
 10
78.9661749626
 20
14.5020621953
 30
0.0
 11
78.951598811
 21
14.469829341
 31
0.0
  0
LINE
  5
99
330
730
100
AcDbEntity
  8
0
  6
SLD-SOLID
 62
     7
100
AcDbLine
 10
59.8441599817
 20
48.5202563076
 30
0.0
 11
59.8441599817
 21
32.1154553106
 31
0.0
  0
LINE
  5
9A
330
730
100
AcDbEntity
  8
0
  6
SLD-SOLID
 62
     7
100
AcDbLine
 10
59.9341599154
 20
48.5202563076
 30
0.0
 11
59.8441599817
 21
48.5202563076
 31
0.0
  0
LINE
  5
9B
330
730
100
AcDbEntity
  8
0
  6
SLD-SOLID
 62
     7
100
AcDbLine
 10
59.9341599154
 20
48.5202563076
 30
0.0
 11
59.9341599154
 21
32.1154553106
 31
0.0
  0
LINE
  5
9C
330
730
100
AcDbEntity
  8
0
  6
SLD-SOLID
 62
     7
100
AcDbLine
 10
59.8441599817
 20
32.1154553106
 30
0.0
 11
59.9341599154
 21
32.1154553106
 31
0.0
  0
LINE
  5
9D
330
730
100
AcDbEntity
  8
0
  6
SLD-SOLID
 62
     7
100
AcDbLine
 10
63.8441599334
 20
48.5202563076
 30
0.0
 11
63.8441599334
 21
32.1154553106
 31
0.0
  0
LINE
  5
9E
330
730
100
AcDbEntity
  8
0
  6
SLD-SOLID
 62
     7
100
AcDbLine
 10
63.7541599997
 20
48.5202563076
 30
0.0
 11
63.7541599997
 21
32.1154553106
 31
0.0
  0
LINE
  5
9F
330
730
100
AcDbEntity
  8
0
  6
SLD-SOLID
 62
     7
100
AcDbLine
 10
63.8441599334
 20
48.5202563076
 30
0.0
 11
63.7541599997
 21
48.5202563076
 31
0.0
  0
LINE
  5
A0
330
730
100
AcDbEntity
  8
0
  6
SLD-SOLID
 62
     7
100
AcDbLine
 10
63.7541599997
 20
32.1154553106
 30
0.0
 11
63.8441599334
 21
32.1154553106
 31
0.0
  0
LINE
  5
A1
330
730
100
AcDbEntity
  8
0
  6
SLD-SOLID
 62
     7
100
AcDbLine
 10
59.9341599154
 20
48.5202563076
 30
0.0
 11
59.9497850149
 21
48.5202563076
 31
0.0
  0
LINE
  5
A2
330
730
100
AcDbEntity
  8
0
  6
SLD-SOLID
 62
     7
100
AcDbLine
 10
59.9497850149
 20
48.5202563076
 30
0.0
 11
59.9497850149
 21
49.5202532889
 31
0.0
  0
LINE
  5
A3
330
730
100
AcDbEntity
  8
0
  6
SLD-SOLID
 62
     7
100
AcDbLine
 10
63.7541599997
 20
32.1154553106
 30
0.0
 11
59.9341599154
 21
32.1154553106
 31
0.0
  0
LINE
  5
A4
330
730
100
AcDbEntity
  8
0
  6
SLD-SOLID
 62
     7
100
AcDbLine
 10
63.7385349002
 20
48.5202563076
 30
0.0
 11
63.7541599997
 21
48.5202563076
 31
0.0
  0
CIRCLE
  5
A5
330
730
100
AcDbEntity
  8
0
  6
SLD-SOLID
 62
     7
100
AcDbCircle
 10
61.8441599576
 20
49.2077543538
 30
0.0
 40
0.1093749999999929
  0
LINE
  5
A6
330
730
100
AcDbEntity
  8
0
  6
SLD-SOLID
 62
     7
100
AcDbLine
 10
63.7385349002
 20
49.5202532889
 30
0.0
 11
59.9497850149
 21
49.5202532889
 31
0.0
  0
LINE
  5
A7
330
730
100
AcDbEntity
  8
0
  6
SLD-SOLID
 62
     7
100
AcDbLine
 10
63.7385349002
 20
49.5202532889
 30
0.0
 11
63.7385349002
 21
48.5202563076
 31
0.0
  0
LINE
  5
A8
330
730
100
AcDbEntity
  8
0
  6
SLD-SOLID
 62
     7
100
AcDbLine
 10
64.5941598693
 20
32.0554540837
 30
0.0
 11
63.8991598847
 21
32.0554540837
 31
0.0
  0
LINE
  5
A9
330
730
100
AcDbEntity
  8
0
  6
SLD-SOLID
 62
     7
100
AcDbLine
 10
64.5941598693
 20
32.0204539547
 30
0.0
 11
64.5941598693
 21
32.0554540837
 31
0.0
  0
LINE
  5
AA
330
730
100
AcDbEntity
  8
0
  6
SLD-SOLID
 62
     7
100
AcDbLine
 10
63.8991598847
 20
32.0204539547
 30
0.0
 11
63.8991598847
 21
32.0554540837
 31
0.0
  0
LINE
  5
AB
330
730
100
AcDbEntity
  8
0
  6
SLD-SOLID
 62
     7
100
AcDbLine
 10
59.0941600458
 20
32.0204539547
 30
0.0
 11
59.0941600458
 21
32.0554540837
 31
0.0
  0
LINE
  5
AC
330
730
100
AcDbEntity
  8
0
  6
SLD-SOLID
 62
     7
100
AcDbLine
 10
59.7891600304
 20
32.0554540837
 30
0.0
 11
59.0941600458
 21
32.0554540837
 31
0.0
  0
LINE
  5
AD
330
730
100
AcDbEntity
  8
0
  6
SLD-SOLID
 62
     7
100
AcDbLine
 10
59.7891600304
 20
32.0554540837
 30
0.0
 11
59.7891600304
 21
32.0204539547
 31
0.0
  0
LINE
  5
AE
330
730
100
AcDbEntity
  8
0
  6
SLD-SOLID
 62
     7
100
AcDbLine
 10
63.8441599334
 20
32.1104546217
 30
0.0
 11
63.809159951
 21
32.1104546217
 31
0.0
  0
LINE
  5
AF
330
730
100
AcDbEntity
  8
0
  6
SLD-SOLID
 62
     7
100
AcDbLine
 10
63.8441599334
 20
32.1104546217
 30
0.0
 11
63.8441599334
 21
32.1154553106
 31
0.0
  0
LINE
  5
B0
330
730
100
AcDbEntity
  8
0
  6
SLD-SOLID
 62
     7
100
AcDbLine
 10
63.809159951
 20
32.1104546217
 30
0.0
 11
63.809159951
 21
32.1154553106
 31
0.0
  0
LINE
  5
B1
330
730
100
AcDbEntity
  8
0
  6
SLD-SOLID
 62
     7
100
AcDbLine
 10
59.8791599641
 20
32.1104546217
 30
0.0
 11
59.8441599817
 21
32.1104546217
 31
0.0
  0
ARC
  5
B2
330
730
100
AcDbEntity
  8
0
  6
SLD-SOLID
 62
     7
100
AcDbCircle
 10
59.7891599576
 20
32.1104543538
 30
0.0
 40
0.0550000000000068
100
AcDbArc
 50
270.0
 51
0.0
  0
ARC
  5
B3
330
730
100
AcDbEntity
  8
0
  6
SLD-SOLID
 62
     7
100
AcDbCircle
 10
59.7891599576
 20
32.1104543538
 30
0.0
 40
0.0900000000000034
100
AcDbArc
 50
270.0
 51
0.0
  0
ARC
  5
B4
330
730
100
AcDbEntity
  8
0
  6
SLD-SOLID
 62
     7
100
AcDbCircle
 10
63.8991599576
 20
32.1104543538
 30
0.0
 40
0.0900000000000034
100
AcDbArc
 50
180.0
 51
270.0
  0
ARC
  5
B5
330
730
100
AcDbEntity
  8
0
  6
SLD-SOLID
 62
     7
100
AcDbCircle
 10
63.8991599576
 20
32.1104543538
 30
0.0
 40
0.0550000000000068
100
AcDbArc
 50
180.0
 51
270.0
  0
LINE
  5
B6
330
730
100
AcDbEntity
  8
0
  6
SLD-SOLID
 62
     7
100
AcDbLine
 10
59.8441599817
 20
32.1154553106
 30
0.0
 11
59.8441599817
 21
32.1104546217
 31
0.0
  0
LINE
  5
B7
330
730
100
AcDbEntity
  8
0
  6
SLD-SOLID
 62
     7
100
AcDbLine
 10
59.8791599641
 20
32.1154553106
 30
0.0
 11
59.8791599641
 21
32.1104546217
 31
0.0
  0
LINE
  5
B8
330
730
100
AcDbEntity
  8
0
  6
SLD-SOLID
 62
     7
100
AcDbLine
 10
49.8441598092
 20
48.5202563076
 30
0.0
 11
49.8441598092
 21
32.1154553106
 31
0.0
  0
LINE
  5
B9
330
730
100
AcDbEntity
  8
0
  6
SLD-SOLID
 62
     7
100
AcDbLine
 10
49.7541603156
 20
32.1154553106
 30
0.0
 11
49.8441598092
 21
32.1154553106
 31
0.0
  0
LINE
  5
BA
330
730
100
AcDbEntity
  8
0
  6
SLD-SOLID
 62
     7
100
AcDbLine
 10
49.7541603156
 20
48.5202563076
 30
0.0
 11
49.7541603156
 21
32.1154553106
 31
0.0
  0
LINE
  5
BB
330
730
100
AcDbEntity
  8
0
  6
SLD-SOLID
 62
     7
100
AcDbLine
 10
49.8441598092
 20
48.5202563076
 30
0.0
 11
49.7541603156
 21
48.5202563076
 31
0.0
  0
LINE
  5
BC
330
730
100
AcDbEntity
  8
0
  6
SLD-SOLID
 62
     7
100
AcDbLine
 10
45.8441601509
 20
48.5202563076
 30
0.0
 11
45.8441601509
 21
32.1154553106
 31
0.0
  0
LINE
  5
BD
330
730
100
AcDbEntity
  8
0
  6
SLD-SOLID
 62
     7
100
AcDbLine
 10
45.9341596446
 20
48.5202563076
 30
0.0
 11
45.9341596446
 21
32.1154553106
 31
0.0
  0
LINE
  5
BE
330
730
100
AcDbEntity
  8
0
  6
SLD-SOLID
 62
     7
100
AcDbLine
 10
45.9341596446
 20
48.5202563076
 30
0.0
 11
45.8441601509
 21
48.5202563076
 31
0.0
  0
LINE
  5
BF
330
730
100
AcDbEntity
  8
0
  6
SLD-SOLID
 62
     7
100
AcDbLine
 10
45.8441601509
 20
32.1154553106
 30
0.0
 11
45.9341596446
 21
32.1154553106
 31
0.0
  0
LINE
  5
C0
330
730
100
AcDbEntity
  8
0
  6
SLD-SOLID
 62
     7
100
AcDbLine
 10
49.7385352161
 20
49.5202532889
 30
0.0
 11
49.7385352161
 21
48.5202563076
 31
0.0
  0
LINE
  5
C1
330
730
100
AcDbEntity
  8
0
  6
SLD-SOLID
 62
     7
100
AcDbLine
 10
45.9341596446
 20
48.5202563076
 30
0.0
 11
45.9497847441
 21
48.5202563076
 31
0.0
  0
LINE
  5
C2
330
730
100
AcDbEntity
  8
0
  6
SLD-SOLID
 62
     7
100
AcDbLine
 10
49.7541603156
 20
32.1154553106
 30
0.0
 11
45.9341596446
 21
32.1154553106
 31
0.0
  0
CIRCLE
  5
C3
330
730
100
AcDbEntity
  8
0
  6
SLD-SOLID
 62
     7
100
AcDbCircle
 10
47.8441599576
 20
49.2077543538
 30
0.0
 40
0.1093749999999929
  0
LINE
  5
C4
330
730
100
AcDbEntity
  8
0
  6
SLD-SOLID
 62
     7
100
AcDbLine
 10
49.7385352161
 20
48.5202563076
 30
0.0
 11
49.7541603156
 21
48.5202563076
 31
0.0
  0
LINE
  5
C5
330
730
100
AcDbEntity
  8
0
  6
SLD-SOLID
 62
     7
100
AcDbLine
 10
49.7385352161
 20
49.5202532889
 30
0.0
 11
45.9497847441
 21
49.5202532889
 31
0.0
  0
LINE
  5
C6
330
730
100
AcDbEntity
  8
0
  6
SLD-SOLID
 62
     7
100
AcDbLine
 10
45.9497847441
 20
48.5202563076
 30
0.0
 11
45.9497847441
 21
49.5202532889
 31
0.0
  0
LINE
  5
C7
330
730
100
AcDbEntity
  8
0
  6
SLD-SOLID
 62
     7
100
AcDbLine
 10
49.8441598092
 20
32.1104546217
 30
0.0
 11
49.8091596802
 21
32.1104546217
 31
0.0
  0
LINE
  5
C8
330
730
100
AcDbEntity
  8
0
  6
SLD-SOLID
 62
     7
100
AcDbLine
 10
49.8441598092
 20
32.1104546217
 30
0.0
 11
49.8441598092
 21
32.1154553106
 31
0.0
  0
LINE
  5
C9
330
730
100
AcDbEntity
  8
0
  6
SLD-SOLID
 62
     7
100
AcDbLine
 10
49.8091596802
 20
32.1104546217
 30
0.0
 11
49.8091596802
 21
32.1154553106
 31
0.0
  0
LINE
  5
CA
330
730
100
AcDbEntity
  8
0
  6
SLD-SOLID
 62
     7
100
AcDbLine
 10
45.8791602799
 20
32.1104546217
 30
0.0
 11
45.8441601509
 21
32.1104546217
 31
0.0
  0
LINE
  5
CB
330
730
100
AcDbEntity
  8
0
  6
SLD-SOLID
 62
     7
100
AcDbLine
 10
45.8441601509
 20
32.1154553106
 30
0.0
 11
45.8441601509
 21
32.1104546217
 31
0.0
  0
LINE
  5
CC
330
730
100
AcDbEntity
  8
0
  6
SLD-SOLID
 62
     7
100
AcDbLine
 10
45.8791602799
 20
32.1154553106
 30
0.0
 11
45.8791602799
 21
32.1104546217
 31
0.0
  0
LINE
  5
CD
330
730
100
AcDbEntity
  8
0
  6
SLD-SOLID
 62
     7
100
AcDbLine
 10
45.789159613
 20
32.0554540837
 30
0.0
 11
45.789159613
 21
32.0204539547
 31
0.0
  0
LINE
  5
CE
330
730
100
AcDbEntity
  8
0
  6
SLD-SOLID
 62
     7
100
AcDbLine
 10
45.789159613
 20
32.0554540837
 30
0.0
 11
45.0941600683
 21
32.0554540837
 31
0.0
  0
LINE
  5
CF
330
730
100
AcDbEntity
  8
0
  6
SLD-SOLID
 62
     7
100
AcDbLine
 10
45.0941600683
 20
32.0204539547
 30
0.0
 11
45.0941600683
 21
32.0554540837
 31
0.0
  0
ARC
  5
D0
330
730
100
AcDbEntity
  8
0
  6
SLD-SOLID
 62
     7
100
AcDbCircle
 10
45.7891599576
 20
32.1104543538
 30
0.0
 40
0.0549999999999997
100
AcDbArc
 50
270.0
 51
0.0
  0
ARC
  5
D1
330
730
100
AcDbEntity
  8
0
  6
SLD-SOLID
 62
     7
100
AcDbCircle
 10
45.7891599576
 20
32.1104543538
 30
0.0
 40
0.0900000000000034
100
AcDbArc
 50
270.0
 51
0.0
  0
LINE
  5
D2
330
730
100
AcDbEntity
  8
0
  6
SLD-SOLID
 62
     7
100
AcDbLine
 10
49.8991603472
 20
32.0204539547
 30
0.0
 11
49.8991603472
 21
32.0554540837
 31
0.0
  0
ARC
  5
D3
330
730
100
AcDbEntity
  8
0
  6
SLD-SOLID
 62
     7
100
AcDbCircle
 10
49.8991599576
 20
32.1104543538
 30
0.0
 40
0.0900000000000034
100
AcDbArc
 50
180.0
 51
270.0
  0
ARC
  5
D4
330
730
100
AcDbEntity
  8
0
  6
SLD-SOLID
 62
     7
100
AcDbCircle
 10
49.8991599576
 20
32.1104543538
 30
0.0
 40
0.0549999999999997
100
AcDbArc
 50
180.0
 51
270.0
  0
LINE
  5
D5
330
730
100
AcDbEntity
  8
0
  6
SLD-SOLID
 62
     7
100
AcDbLine
 10
50.5941598918
 20
32.0204539547
 30
0.0
 11
50.5941598918
 21
32.0554540837
 31
0.0
  0
LINE
  5
D6
330
730
100
AcDbEntity
  8
0
  6
SLD-SOLID
 62
     7
100
AcDbLine
 10
50.5941598918
 20
32.0554540837
 30
0.0
 11
49.8991603472
 21
32.0554540837
 31
0.0
  0
LINE
  5
D7
330
730
100
AcDbEntity
  8
0
  6
SLD-SOLID
 62
     7
100
AcDbLine
 10
73.8441601059
 20
48.5202563076
 30
0.0
 11
73.8441601059
 21
32.1154553106
 31
0.0
  0
LINE
  5
D8
330
730
100
AcDbEntity
  8
0
  6
SLD-SOLID
 62
     7
100
AcDbLine
 10
73.9341595995
 20
48.5202563076
 30
0.0
 11
73.8441601059
 21
48.5202563076
 31
0.0
  0
LINE
  5
D9
330
730
100
AcDbEntity
  8
0
  6
SLD-SOLID
 62
     7
100
AcDbLine
 10
73.9341595995
 20
48.5202563076
 30
0.0
 11
73.9341595995
 21
32.1154553106
 31
0.0
  0
LINE
  5
DA
330
730
100
AcDbEntity
  8
0
  6
SLD-SOLID
 62
     7
100
AcDbLine
 10
73.8441601059
 20
32.1154553106
 30
0.0
 11
73.9341595995
 21
32.1154553106
 31
0.0
  0
LINE
  5
DB
330
730
100
AcDbEntity
  8
0
  6
SLD-SOLID
 62
     7
100
AcDbLine
 10
77.738535171
 20
49.5202532889
 30
0.0
 11
73.949784699
 21
49.5202532889
 31
0.0
  0
LINE
  5
DC
330
730
100
AcDbEntity
  8
0
  6
SLD-SOLID
 62
     7
100
AcDbLine
 10
77.738535171
 20
49.5202532889
 30
0.0
 11
77.738535171
 21
48.5202563076
 31
0.0
  0
LINE
  5
DD
330
730
100
AcDbEntity
  8
0
  6
SLD-SOLID
 62
     7
100
AcDbLine
 10
77.738535171
 20
48.5202563076
 30
0.0
 11
77.7541602705
 21
48.5202563076
 31
0.0
  0
LINE
  5
DE
330
730
100
AcDbEntity
  8
0
  6
SLD-SOLID
 62
     7
100
AcDbLine
 10
77.7541602705
 20
48.5202563076
 30
0.0
 11
77.7541602705
 21
32.1154553106
 31
0.0
  0
LINE
  5
DF
330
730
100
AcDbEntity
  8
0
  6
SLD-SOLID
 62
     7
100
AcDbLine
 10
77.7541602705
 20
32.1154553106
 30
0.0
 11
73.9341595995
 21
32.1154553106
 31
0.0
  0
LINE
  5
E0
330
730
100
AcDbEntity
  8
0
  6
SLD-SOLID
 62
     7
100
AcDbLine
 10
73.9341595995
 20
48.5202563076
 30
0.0
 11
73.949784699
 21
48.5202563076
 31
0.0
  0
LINE
  5
E1
330
730
100
AcDbEntity
  8
0
  6
SLD-SOLID
 62
     7
100
AcDbLine
 10
73.949784699
 20
48.5202563076
 30
0.0
 11
73.949784699
 21
49.5202532889
 31
0.0
  0
CIRCLE
  5
E2
330
730
100
AcDbEntity
  8
0
  6
SLD-SOLID
 62
     7
100
AcDbCircle
 10
75.8441599576
 20
49.2077543538
 30
0.0
 40
0.109375
  0
LINE
  5
E3
330
730
100
AcDbEntity
  8
0
  6
SLD-SOLID
 62
     7
100
AcDbLine
 10
77.8441597642
 20
48.5202563076
 30
0.0
 11
77.8441597642
 21
32.1154553106
 31
0.0
  0
LINE
  5
E4
330
730
100
AcDbEntity
  8
0
  6
SLD-SOLID
 62
     7
100
AcDbLine
 10
77.8441597642
 20
48.5202563076
 30
0.0
 11
77.7541602705
 21
48.5202563076
 31
0.0
  0
LINE
  5
E5
330
730
100
AcDbEntity
  8
0
  6
SLD-SOLID
 62
     7
100
AcDbLine
 10
77.7541602705
 20
32.1154553106
 30
0.0
 11
77.8441597642
 21
32.1154553106
 31
0.0
  0
ARC
  5
E6
330
730
100
AcDbEntity
  8
0
  6
SLD-SOLID
 62
     7
100
AcDbCircle
 10
77.8991599576
 20
32.1104543538
 30
0.0
 40
0.0550000000000068
100
AcDbArc
 50
180.0
 51
270.0
  0
LINE
  5
E7
330
730
100
AcDbEntity
  8
0
  6
SLD-SOLID
 62
     7
100
AcDbLine
 10
77.8991603022
 20
32.0204539547
 30
0.0
 11
77.8991603022
 21
32.0554540837
 31
0.0
  0
ARC
  5
E8
330
730
100
AcDbEntity
  8
0
  6
SLD-SOLID
 62
     7
100
AcDbCircle
 10
77.8991599576
 20
32.1104543538
 30
0.0
 40
0.0900000000000034
100
AcDbArc
 50
180.0
 51
270.0
  0
LINE
  5
E9
330
730
100
AcDbEntity
  8
0
  6
SLD-SOLID
 62
     7
100
AcDbLine
 10
77.8441597642
 20
32.1104546217
 30
0.0
 11
77.8091596352
 21
32.1104546217
 31
0.0
  0
LINE
  5
EA
330
730
100
AcDbEntity
  8
0
  6
SLD-SOLID
 62
     7
100
AcDbLine
 10
73.8791602349
 20
32.1104546217
 30
0.0
 11
73.8441601059
 21
32.1104546217
 31
0.0
  0
LINE
  5
EB
330
730
100
AcDbEntity
  8
0
  6
SLD-SOLID
 62
     7
100
AcDbLine
 10
73.8441601059
 20
32.1154553106
 30
0.0
 11
73.8441601059
 21
32.1104546217
 31
0.0
  0
LINE
  5
EC
330
730
100
AcDbEntity
  8
0
  6
SLD-SOLID
 62
     7
100
AcDbLine
 10
73.8791602349
 20
32.1154553106
 30
0.0
 11
73.8791602349
 21
32.1104546217
 31
0.0
  0
LINE
  5
ED
330
730
100
AcDbEntity
  8
0
  6
SLD-SOLID
 62
     7
100
AcDbLine
 10
78.5941598468
 20
32.0554540837
 30
0.0
 11
77.8991603022
 21
32.0554540837
 31
0.0
  0
LINE
  5
EE
330
730
100
AcDbEntity
  8
0
  6
SLD-SOLID
 62
     7
100
AcDbLine
 10
78.5941598468
 20
32.0204539547
 30
0.0
 11
78.5941598468
 21
32.0554540837
 31
0.0
  0
ARC
  5
EF
330
730
100
AcDbEntity
  8
0
  6
SLD-SOLID
 62
     7
100
AcDbCircle
 10
73.7891599576
 20
32.1104543538
 30
0.0
 40
0.0550000000000068
100
AcDbArc
 50
270.0
 51
0.0
  0
ARC
  5
F0
330
730
100
AcDbEntity
  8
0
  6
SLD-SOLID
 62
     7
100
AcDbCircle
 10
73.7891599576
 20
32.1104543538
 30
0.0
 40
0.0900000000000034
100
AcDbArc
 50
270.0
 51
0.0
  0
LINE
  5
F1
330
730
100
AcDbEntity
  8
0
  6
SLD-SOLID
 62
     7
100
AcDbLine
 10
73.7891595679
 20
32.0554540837
 30
0.0
 11
73.7891595679
 21
32.0204539547
 31
0.0
  0
LINE
  5
F2
330
730
100
AcDbEntity
  8
0
  6
SLD-SOLID
 62
     7
100
AcDbLine
 10
73.7891595679
 20
32.0554540837
 30
0.0
 11
73.0941600233
 21
32.0554540837
 31
0.0
  0
LINE
  5
F3
330
730
100
AcDbEntity
  8
0
  6
SLD-SOLID
 62
     7
100
AcDbLine
 10
73.0941600233
 20
32.0204539547
 30
0.0
 11
73.0941600233
 21
32.0554540837
 31
0.0
  0
LINE
  5
F4
330
730
100
AcDbEntity
  8
0
  6
SLD-SOLID
 62
     7
100
AcDbLine
 10
77.8091596352
 20
32.1104546217
 30
0.0
 11
77.8091596352
 21
32.1154553106
 31
0.0
  0
LINE
  5
F5
330
730
100
AcDbEntity
  8
0
  6
SLD-SOLID
 62
     7
100
AcDbLine
 10
77.8441597642
 20
32.1104546217
 30
0.0
 11
77.8441597642
 21
32.1154553106
 31
0.0
  0
LINE
  5
F6
330
730
100
AcDbEntity
  8
0
  6
SLD-SOLID
 62
     7
100
AcDbLine
 10
38.0711594919
 20
14.5010290873
 30
0.0
 11
85.6171604232
 21
14.5010290873
 31
0.0
  0
LINE
  5
F7
330
730
100
AcDbEntity
  8
0
  6
SLD-SOLID
 62
     7
100
AcDbLine
 10
38.0711594919
 20
14.6419043132
 30
0.0
 11
85.6171604232
 21
14.6419043132
 31
0.0
  0
LINE
  5
F8
330
730
100
AcDbEntity
  8
0
  6
SLD-SOLID
 62
     7
100
AcDbLine
 10
38.0711594919
 20
14.6419043132
 30
0.0
 11
38.0711594919
 21
14.5010290873
 31
0.0
  0
LINE
  5
F9
330
730
100
AcDbEntity
  8
0
  6
SLD-SOLID
 62
     7
100
AcDbLine
 10
85.6171604232
 20
14.5010290873
 30
0.0
 11
85.6171604232
 21
14.6419043132
 31
0.0
  0
LINE
  5
FA
330
730
100
AcDbEntity
  8
0
  6
SLD-SOLID
 62
     7
100
AcDbLine
 10
85.734785731
 20
14.5399041049
 30
0.0
 11
85.6877848873
 21
14.5399041049
 31
0.0
  0
ARC
  5
FB
330
730
100
AcDbEntity
  8
0
  6
SLD-SOLID
 62
     7
100
AcDbCircle
 10
85.6327849576
 20
14.5399043538
 30
0.0
 40
0.055000000000021
100
AcDbArc
 50
0.0
 51
90.0
  0
LINE
  5
FC
330
730
100
AcDbEntity
  8
0
  6
SLD-SOLID
 62
     7
100
AcDbLine
 10
85.6327843493
 20
14.5949046428
 30
0.0
 11
85.6327843493
 21
14.6419043132
 31
0.0
  0
ARC
  5
FD
330
730
100
AcDbEntity
  8
0
  6
SLD-SOLID
 62
     7
100
AcDbCircle
 10
85.6327849576
 20
14.5399043538
 30
0.0
 40
0.1020000000000039
100
AcDbArc
 50
0.0
 51
90.0
  0
LINE
  5
FE
330
730
100
AcDbEntity
  8
0
  6
SLD-SOLID
 62
     7
100
AcDbLine
 10
85.6171604232
 20
14.5949046428
 30
0.0
 11
85.6327843493
 21
14.5949046428
 31
0.0
  0
LINE
  5
FF
330
730
100
AcDbEntity
  8
0
  6
SLD-SOLID
 62
     7
100
AcDbLine
 10
85.6171604232
 20
14.6419043132
 30
0.0
 11
85.6327843493
 21
14.6419043132
 31
0.0
  0
ARC
  5
100
330
730
100
AcDbEntity
  8
0
  6
SLD-SOLID
 62
     7
100
AcDbCircle
 10
38.0555349576
 20
14.5399043538
 30
0.0
 40
0.1020000000000039
100
AcDbArc
 50
90.0
 51
180.0
  0
LINE
  5
101
330
730
100
AcDbEntity
  8
0
  6
SLD-SOLID
 62
     7
100
AcDbLine
 10
38.0555355658
 20
14.5949046428
 30
0.0
 11
38.0555355658
 21
14.6419043132
 31
0.0
  0
LINE
  5
102
330
730
100
AcDbEntity
  8
0
  6
SLD-SOLID
 62
     7
100
AcDbLine
 10
38.0005350278
 20
14.5399041049
 30
0.0
 11
37.9535341841
 21
14.5399041049
 31
0.0
  0
ARC
  5
103
330
730
100
AcDbEntity
  8
0
  6
SLD-SOLID
 62
     7
100
AcDbCircle
 10
38.0555349576
 20
14.5399043538
 30
0.0
 40
0.0550000000000015
100
AcDbArc
 50
90.0
 51
180.0
  0
LINE
  5
104
330
730
100
AcDbEntity
  8
0
  6
SLD-SOLID
 62
     7
100
AcDbLine
 10
38.0555355658
 20
14.5949046428
 30
0.0
 11
38.0711594919
 21
14.5949046428
 31
0.0
  0
LINE
  5
105
330
730
100
AcDbEntity
  8
0
  6
SLD-SOLID
 62
     7
100
AcDbLine
 10
38.0555355658
 20
14.6419043132
 30
0.0
 11
38.0711594919
 21
14.6419043132
 31
0.0
  0
LINE
  5
106
330
730
100
AcDbEntity
  8
0
  6
SLD-SOLID
 62
     7
100
AcDbLine
 10
37.9535341841
 20
14.469829341
 30
0.0
 11
37.9535341841
 21
14.5399041049
 31
0.0
  0
LINE
  5
107
330
730
100
AcDbEntity
  8
0
  6
SLD-SOLID
 62
     7
100
AcDbLine
 10
38.0005350278
 20
14.469829341
 30
0.0
 11
38.0005350278
 21
14.5399041049
 31
0.0
  0
LINE
  5
108
330
730
100
AcDbEntity
  8
0
  6
SLD-SOLID
 62
     7
100
AcDbLine
 10
85.6877848873
 20
14.5399041049
 30
0.0
 11
85.6877848873
 21
14.469829341
 31
0.0
  0
LINE
  5
109
330
730
100
AcDbEntity
  8
0
  6
SLD-SOLID
 62
     7
100
AcDbLine
 10
85.734785731
 20
14.5399041049
 30
0.0
 11
85.734785731
 21
14.469829341
 31
0.0
  0
LINE
  5
10A
330
730
100
AcDbEntity
  8
0
  6
SLD-SOLID
 62
     7
100
AcDbLine
 10
38.0711594919
 20
14.5010290873
 30
0.0
 11
38.0711594919
 21
14.469829341
 31
0.0
  0
LINE
  5
10B
330
730
100
AcDbEntity
  8
0
  6
SLD-SOLID
 62
     7
100
AcDbLine
 10
85.6171604232
 20
14.469829341
 30
0.0
 11
85.6171604232
 21
14.5010290873
 31
0.0
  0
LINE
  5
10C
330
730
100
AcDbEntity
  8
0
  6
SLD-SOLID
 62
     7
100
AcDbLine
 10
87.4222847435
 20
30.5748301214
 30
0.0
 11
85.8441860672
 21
30.5748301214
 31
0.0
  0
LINE
  5
10D
330
730
100
AcDbEntity
  8
0
  6
SLD-SOLID
 62
     7
100
AcDbLine
 10
37.844185474
 20
30.5748301214
 30
0.0
 11
36.2660351716
 21
30.5748301214
 31
0.0
  0
LINE
  5
10E
330
730
100
AcDbEntity
  8
0
  6
SLD-SOLID
 62
     7
100
AcDbLine
 10
36.2660351716
 20
30.5748301214
 30
0.0
 11
36.2660351716
 21
31.9304532877
 31
0.0
  0
LINE
  5
10F
330
730
100
AcDbEntity
  8
0
  6
SLD-SOLID
 62
     7
100
AcDbLine
 10
87.4222847435
 20
31.9304532877
 30
0.0
 11
36.2660351716
 21
31.9304532877
 31
0.0
  0
LINE
  5
110
330
730
100
AcDbEntity
  8
0
  6
SLD-SOLID
 62
     7
100
AcDbLine
 10
87.4222847435
 20
31.9304532877
 30
0.0
 11
87.4222847435
 21
30.5748301214
 31
0.0
  0
CIRCLE
  5
111
330
730
100
AcDbEntity
  8
0
  6
SLD-SOLID
 62
     7
100
AcDbCircle
 10
87.1097849576
 20
30.8248293538
 30
0.0
 40
0.1093749999999858
  0
CIRCLE
  5
112
330
730
100
AcDbEntity
  8
0
  6
SLD-SOLID
 62
     7
100
AcDbCircle
 10
86.1097849576
 20
30.9498293538
 30
0.0
 40
0.109375
  0
CIRCLE
  5
113
330
730
100
AcDbEntity
  8
0
  6
SLD-SOLID
 62
     7
100
AcDbCircle
 10
83.8441599576
 20
31.0479043538
 30
0.0
 40
0.0699999999999932
  0
CIRCLE
  5
114
330
730
100
AcDbEntity
  8
0
  6
SLD-SOLID
 62
     7
100
AcDbCircle
 10
72.8441599576
 20
31.0479043538
 30
0.0
 40
0.0700000000000074
  0
CIRCLE
  5
115
330
730
100
AcDbEntity
  8
0
  6
SLD-SOLID
 62
     7
100
AcDbCircle
 10
61.8441599576
 20
31.0479043538
 30
0.0
 40
0.0700000000000074
  0
CIRCLE
  5
116
330
730
100
AcDbEntity
  8
0
  6
SLD-SOLID
 62
     7
100
AcDbCircle
 10
50.8441599576
 20
31.0479043538
 30
0.0
 40
0.0700000000000003
  0
CIRCLE
  5
117
330
730
100
AcDbEntity
  8
0
  6
SLD-SOLID
 62
     7
100
AcDbCircle
 10
39.8441599576
 20
31.0479043538
 30
0.0
 40
0.0699999999999932
  0
CIRCLE
  5
118
330
730
100
AcDbEntity
  8
0
  6
SLD-SOLID
 62
     7
100
AcDbCircle
 10
37.5785349576
 20
30.9498293538
 30
0.0
 40
0.1093749999999929
  0
CIRCLE
  5
119
330
730
100
AcDbEntity
  8
0
  6
SLD-SOLID
 62
     7
100
AcDbCircle
 10
36.5785349576
 20
30.8248293538
 30
0.0
 40
0.109375
  0
LINE
  5
11A
330
730
100
AcDbEntity
  8
0
  6
SLD-SOLID
 62
     7
100
AcDbLine
 10
36.2660351716
 20
32.0204539547
 30
0.0
 11
87.4222847435
 21
32.0204539547
 31
0.0
  0
LINE
  5
11B
330
730
100
AcDbEntity
  8
0
  6
SLD-SOLID
 62
     7
100
AcDbLine
 10
36.2660351716
 20
31.9304532877
 30
0.0
 11
36.2660351716
 21
32.0204539547
 31
0.0
  0
LINE
  5
11C
330
730
100
AcDbEntity
  8
0
  6
SLD-SOLID
 62
     7
100
AcDbLine
 10
87.4222847435
 20
32.0204539547
 30
0.0
 11
87.4222847435
 21
31.9304532877
 31
0.0
  0
LINE
  5
11D
330
730
100
AcDbEntity
  8
0
  6
SLD-SOLID
 62
     7
100
AcDbLine
 10
87.4371600917
 20
31.9854538257
 30
0.0
 11
87.4371600917
 21
32.0204539547
 31
0.0
  0
LINE
  5
11E
330
730
100
AcDbEntity
  8
0
  6
SLD-SOLID
 62
     7
100
AcDbLine
 10
87.4222847435
 20
32.0204539547
 30
0.0
 11
87.4371600917
 21
32.0204539547
 31
0.0
  0
LINE
  5
11F
330
730
100
AcDbEntity
  8
0
  6
SLD-SOLID
 62
     7
100
AcDbLine
 10
87.4222847435
 20
31.9854538257
 30
0.0
 11
87.4371600917
 21
31.9854538257
 31
0.0
  0
LINE
  5
120
330
730
100
AcDbEntity
  8
0
  6
SLD-SOLID
 62
     7
100
AcDbLine
 10
36.2511598234
 20
32.0204539547
 30
0.0
 11
36.2511598234
 21
31.9854538257
 31
0.0
  0
LINE
  5
121
330
730
100
AcDbEntity
  8
0
  6
SLD-SOLID
 62
     7
100
AcDbLine
 10
36.2511598234
 20
32.0204539547
 30
0.0
 11
36.2660351716
 21
32.0204539547
 31
0.0
  0
LINE
  5
122
330
730
100
AcDbEntity
  8
0
  6
SLD-SOLID
 62
     7
100
AcDbLine
 10
36.2511598234
 20
31.9854538257
 30
0.0
 11
36.2660351716
 21
31.9854538257
 31
0.0
  0
ARC
  5
123
330
730
100
AcDbEntity
  8
0
  6
SLD-SOLID
 62
     7
100
AcDbCircle
 10
36.2511594247
 20
31.9304536864
 30
0.0
 40
0.0550001393028647
100
AcDbArc
 50
89.9995846994
 51
180.0004153006
  0
LINE
  5
124
330
730
100
AcDbEntity
  8
0
  6
SLD-SOLID
 62
     7
100
AcDbLine
 10
36.1961592854
 20
31.9304532877
 30
0.0
 11
36.1611591564
 21
31.9304532877
 31
0.0
  0
ARC
  5
125
330
730
100
AcDbEntity
  8
0
  6
SLD-SOLID
 62
     7
100
AcDbCircle
 10
36.2511606243
 20
31.9304524869
 30
0.0
 40
0.0900014678376307
100
AcDbArc
 50
90.00050983679999
 51
179.9994901632
  0
ARC
  5
126
330
730
100
AcDbEntity
  8
0
  6
SLD-SOLID
 62
     7
100
AcDbCircle
 10
87.4371592908
 20
31.9304524869
 30
0.0
 40
0.0900014678376342
100
AcDbArc
 50
0.0005098368
 51
89.9994901632
  0
LINE
  5
127
330
730
100
AcDbEntity
  8
0
  6
SLD-SOLID
 62
     7
100
AcDbLine
 10
87.5271607587
 20
31.9304532877
 30
0.0
 11
87.4921606297
 21
31.9304532877
 31
0.0
  0
ARC
  5
128
330
730
100
AcDbEntity
  8
0
  6
SLD-SOLID
 62
     7
100
AcDbCircle
 10
87.4371604904
 20
31.9304536864
 30
0.0
 40
0.0550001393028896
100
AcDbArc
 50
359.9995846993999
 51
90.0004153006
  0
LINE
  5
129
330
730
100
AcDbEntity
  8
0
  6
SLD-SOLID
 62
     7
100
AcDbLine
 10
87.5271607587
 20
31.3604545391
 30
0.0
 11
87.4921606297
 21
31.3604545391
 31
0.0
  0
LINE
  5
12A
330
730
100
AcDbEntity
  8
0
  6
SLD-SOLID
 62
     7
100
AcDbLine
 10
87.4921606297
 20
31.9304532877
 30
0.0
 11
87.4921606297
 21
31.3604545391
 31
0.0
  0
LINE
  5
12B
330
730
100
AcDbEntity
  8
0
  6
SLD-SOLID
 62
     7
100
AcDbLine
 10
87.5271607587
 20
31.9304532877
 30
0.0
 11
87.5271607587
 21
31.3604545391
 31
0.0
  0
LINE
  5
12C
330
730
100
AcDbEntity
  8
0
  6
SLD-SOLID
 62
     7
100
AcDbLine
 10
36.1611591564
 20
31.3604545391
 30
0.0
 11
36.1611591564
 21
31.9304532877
 31
0.0
  0
LINE
  5
12D
330
730
100
AcDbEntity
  8
0
  6
SLD-SOLID
 62
     7
100
AcDbLine
 10
36.1961592854
 20
31.3604545391
 30
0.0
 11
36.1611591564
 21
31.3604545391
 31
0.0
  0
LINE
  5
12E
330
730
100
AcDbEntity
  8
0
  6
SLD-SOLID
 62
     7
100
AcDbLine
 10
36.1961592854
 20
31.3604545391
 30
0.0
 11
36.1961592854
 21
31.9304532877
 31
0.0
  0
LINE
  5
12F
330
730
100
AcDbEntity
  8
0
  6
SLD-SOLID
 62
     7
100
AcDbLine
 10
37.7422591848
 20
14.3642041612
 30
0.0
 11
37.7422591848
 21
14.4697043825
 31
0.0
  0
LINE
  5
130
330
730
100
AcDbEntity
  8
0
  6
SLD-SOLID
 62
     7
100
AcDbLine
 10
37.7422591848
 20
30.4697053624
 30
0.0
 11
37.7422591848
 21
30.5748301214
 31
0.0
  0
CIRCLE
  5
131
330
730
100
AcDbEntity
  8
0
  6
SLD-SOLID
 62
     7
100
AcDbCircle
 10
37.3014349576
 20
29.9697043538
 30
0.0
 40
0.0700000000000003
  0
CIRCLE
  5
132
330
730
100
AcDbEntity
  8
0
  6
SLD-SOLID
 62
     7
100
AcDbCircle
 10
37.3014349576
 20
22.4697043538
 30
0.0
 40
0.0700000000000003
  0
CIRCLE
  5
133
330
730
100
AcDbEntity
  8
0
  6
SLD-SOLID
 62
     7
100
AcDbCircle
 10
37.3014349576
 20
14.9697043538
 30
0.0
 40
0.0700000000000003
  0
CIRCLE
  5
134
330
730
100
AcDbEntity
  8
0
  6
SLD-SOLID
 62
     7
100
AcDbCircle
 10
37.5785349576
 20
30.9498293538
 30
0.0
 40
0.0700000000000003
  0
CIRCLE
  5
135
330
730
100
AcDbEntity
  8
0
  6
SLD-SOLID
 62
     7
100
AcDbCircle
 10
36.5785349576
 20
30.8248293538
 30
0.0
 40
0.0700000000000003
  0
LINE
  5
136
330
730
100
AcDbEntity
  8
0
  6
SLD-SOLID
 62
     7
100
AcDbLine
 10
36.2191610464
 20
7.7823293531
 30
0.0
 11
36.2660351716
 21
7.7823293531
 31
0.0
  0
LINE
  5
137
330
730
100
AcDbEntity
  8
0
  6
SLD-SOLID
 62
     7
100
AcDbLine
 10
36.2191610464
 20
31.9698298995
 30
0.0
 11
36.2191610464
 21
27.7823290472
 31
0.0
  0
LINE
  5
138
330
730
100
AcDbEntity
  8
0
  6
SLD-SOLID
 62
     7
100
AcDbLine
 10
36.2191610464
 20
24.4698290735
 30
0.0
 11
36.2191610464
 21
13.5948296358
 31
0.0
  0
LINE
  5
139
330
730
100
AcDbEntity
  8
0
  6
SLD-SOLID
 62
     7
100
AcDbLine
 10
36.2191610464
 20
10.2823293687
 30
0.0
 11
36.2191610464
 21
7.7823293531
 31
0.0
  0
LINE
  5
13A
330
730
100
AcDbEntity
  8
0
  6
SLD-SOLID
 62
     7
100
AcDbLine
 10
36.2660351716
 20
31.9698298995
 30
0.0
 11
36.2191610464
 21
31.9698298995
 31
0.0
  0
CIRCLE
  5
13B
330
730
100
AcDbEntity
  8
0
  6
SLD-SOLID
 62
     7
100
AcDbCircle
 10
86.3868849576
 20
29.9697043538
 30
0.0
 40
0.0699999999999932
  0
CIRCLE
  5
13C
330
730
100
AcDbEntity
  8
0
  6
SLD-SOLID
 62
     7
100
AcDbCircle
 10
86.3868849576
 20
22.4697043538
 30
0.0
 40
0.0699999999999932
  0
CIRCLE
  5
13D
330
730
100
AcDbEntity
  8
0
  6
SLD-SOLID
 62
     7
100
AcDbCircle
 10
86.3868849576
 20
14.9697043538
 30
0.0
 40
0.0699999999999932
  0
CIRCLE
  5
13E
330
730
100
AcDbEntity
  8
0
  6
SLD-SOLID
 62
     7
100
AcDbCircle
 10
86.1097849576
 20
30.9498293538
 30
0.0
 40
0.0700000000000074
  0
CIRCLE
  5
13F
330
730
100
AcDbEntity
  8
0
  6
SLD-SOLID
 62
     7
100
AcDbCircle
 10
87.1097849576
 20
30.8248293538
 30
0.0
 40
0.0700000000000074
  0
LINE
  5
140
330
730
100
AcDbEntity
  8
0
  6
SLD-SOLID
 62
     7
100
AcDbLine
 10
85.9460607303
 20
14.3642041612
 30
0.0
 11
85.9460607303
 21
14.4697043825
 31
0.0
  0
LINE
  5
141
330
730
100
AcDbEntity
  8
0
  6
SLD-SOLID
 62
     7
100
AcDbLine
 10
85.9460607303
 20
30.4697053624
 30
0.0
 11
85.9460607303
 21
30.5748301214
 31
0.0
  0
LINE
  5
142
330
730
100
AcDbEntity
  8
0
  6
SLD-SOLID
 62
     7
100
AcDbLine
 10
87.4691588687
 20
7.7823293531
 30
0.0
 11
87.4222847435
 21
7.7823293531
 31
0.0
  0
LINE
  5
143
330
730
100
AcDbEntity
  8
0
  6
SLD-SOLID
 62
     7
100
AcDbLine
 10
87.4222847435
 20
31.9698298995
 30
0.0
 11
87.4691588687
 21
31.9698298995
 31
0.0
  0
LINE
  5
144
330
730
100
AcDbEntity
  8
0
  6
SLD-SOLID
 62
     7
100
AcDbLine
 10
87.4691588687
 20
31.9698298995
 30
0.0
 11
87.4691588687
 21
27.4698294039
 31
0.0
  0
LINE
  5
145
330
730
100
AcDbEntity
  8
0
  6
SLD-SOLID
 62
     7
100
AcDbLine
 10
87.4691588687
 20
24.1573294302
 30
0.0
 11
87.4691588687
 21
13.2823294058
 31
0.0
  0
LINE
  5
146
330
730
100
AcDbEntity
  8
0
  6
SLD-SOLID
 62
     7
100
AcDbLine
 10
87.4691588687
 20
9.9698292854
 30
0.0
 11
87.4691588687
 21
7.7823293531
 31
0.0
  0
LINE
  5
147
330
730
100
AcDbEntity
  8
0
  6
SLD-SOLID
 62
     7
100
AcDbLine
 10
37.844185474
 20
30.4697053624
 30
0.0
 11
85.8441860672
 21
30.4697053624
 31
0.0
  0
LINE
  5
148
330
730
100
AcDbEntity
  8
0
  6
SLD-SOLID
 62
     7
100
AcDbLine
 10
37.844185474
 20
30.6443047321
 30
0.0
 11
37.844185474
 21
30.4697053624
 31
0.0
  0
LINE
  5
149
330
730
100
AcDbEntity
  8
0
  6
SLD-SOLID
 62
     7
100
AcDbLine
 10
85.8441860672
 20
30.6443047321
 30
0.0
 11
85.8441860672
 21
30.4697053624
 31
0.0
  0
LINE
  5
14A
330
730
100
AcDbEntity
  8
0
  6
SLD-SOLID
 62
     7
100
AcDbLine
 10
39.7741862184
 20
31.0478305239
 30
0.0
 11
39.778004201
 21
31.0250258807
 31
0.0
  0
ARC
  5
14B
330
730
100
AcDbEntity
  8
0
  6
SLD-SOLID
 62
     7
100
AcDbCircle
 10
39.8441852426
 20
31.0478293538
 30
0.0
 40
0.0700000000000021
100
AcDbArc
 50
18.2535583206
 51
180.0
  0
ARC
  5
14C
330
730
100
AcDbEntity
  8
0
  6
SLD-SOLID
 62
     7
100
AcDbCircle
 10
72.8441852426
 20
31.0478293538
 30
0.0
 40
0.0700000000000059
100
AcDbArc
 50
18.5422085393
 51
198.7162943921
  0
ARC
  5
14D
330
730
100
AcDbEntity
  8
0
  6
SLD-SOLID
 62
     7
100
AcDbCircle
 10
83.8441852426
 20
31.0478293538
 30
0.0
 40
0.0700000000000288
100
AcDbArc
 50
18.2486003285
 51
199.0078145574
  0
ARC
  5
14E
330
730
100
AcDbEntity
  8
0
  6
SLD-SOLID
 62
     7
100
AcDbCircle
 10
61.8441852426
 20
31.0478293538
 30
0.0
 40
0.0700000000000027
100
AcDbArc
 50
18.6630781286
 51
198.5983055636
  0
ARC
  5
14F
330
730
100
AcDbEntity
  8
0
  6
SLD-SOLID
 62
     7
100
AcDbCircle
 10
38.0094587458
 20
14.8221073444
 30
0.0
 40
0.1737988693728291
100
AcDbArc
 50
198.0205521883
 51
244.3354295555001
  0
ARC
  5
150
330
730
100
AcDbEntity
  8
0
  6
SLD-SOLID
 62
     7
100
AcDbCircle
 10
85.6789011589
 20
14.8221175235
 30
0.0
 40
0.173813084188755
100
AcDbArc
 50
295.6665746362
 51
341.9774436199
  0
LINE
  5
151
330
730
100
AcDbEntity
  8
0
  6
SLD-SOLID
 62
     7
100
AcDbLine
 10
85.7385591274
 20
14.6498295017
 30
0.0
 11
85.7385591274
 21
14.469829341
 31
0.0
  0
LINE
  5
152
330
730
100
AcDbEntity
  8
0
  6
SLD-SOLID
 62
     7
100
AcDbLine
 10
37.9498100671
 20
14.469829341
 30
0.0
 11
37.9498100671
 21
14.6498295017
 31
0.0
  0
LINE
  5
153
330
730
100
AcDbEntity
  8
0
  6
SLD-SOLID
 62
     7
100
AcDbLine
 10
37.9498100671
 20
14.6498295017
 30
0.0
 11
37.9341861409
 21
14.6654546012
 31
0.0
  0
LINE
  5
154
330
730
100
AcDbEntity
  8
0
  6
SLD-SOLID
 62
     7
100
AcDbLine
 10
85.7541854002
 20
14.6654546012
 30
0.0
 11
85.7385591274
 21
14.6498295017
 31
0.0
  0
LINE
  5
155
330
730
100
AcDbEntity
  8
0
  6
SLD-SOLID
 62
     7
100
AcDbLine
 10
86.0177059827
 20
14.4697043825
 30
0.0
 11
85.8441860672
 21
14.4697043825
 31
0.0
  0
LINE
  5
156
330
730
100
AcDbEntity
  8
0
  6
SLD-SOLID
 62
     7
100
AcDbLine
 10
85.8441860672
 20
30.4697053624
 30
0.0
 11
85.8441860672
 21
14.4697043825
 31
0.0
  0
LINE
  5
157
330
730
100
AcDbEntity
  8
0
  6
SLD-SOLID
 62
     7
100
AcDbLine
 10
85.8441860672
 20
30.4697053624
 30
0.0
 11
86.0177059827
 21
30.4697053624
 31
0.0
  0
LINE
  5
158
330
730
100
AcDbEntity
  8
0
  6
SLD-SOLID
 62
     7
100
AcDbLine
 10
85.8441860672
 20
14.3642041612
 30
0.0
 11
85.8441860672
 21
14.4697043825
 31
0.0
  0
LINE
  5
159
330
730
100
AcDbEntity
  8
0
  6
SLD-SOLID
 62
     7
100
AcDbLine
 10
85.8791861962
 20
14.4697043825
 30
0.0
 11
85.8791861962
 21
14.3642041612
 31
0.0
  0
LINE
  5
15A
330
730
100
AcDbEntity
  8
0
  6
SLD-SOLID
 62
     7
100
AcDbLine
 10
85.8791861962
 20
30.5748301214
 30
0.0
 11
85.8791861962
 21
30.4697053624
 31
0.0
  0
LINE
  5
15B
330
730
100
AcDbEntity
  8
0
  6
SLD-SOLID
 62
     7
100
AcDbLine
 10
37.8441596609
 20
14.4697043825
 30
0.0
 11
37.6706655585
 21
14.4697043825
 31
0.0
  0
LINE
  5
15C
330
730
100
AcDbEntity
  8
0
  6
SLD-SOLID
 62
     7
100
AcDbLine
 10
37.6706655585
 20
30.4697053624
 30
0.0
 11
37.844185474
 21
30.4697053624
 31
0.0
  0
LINE
  5
15D
330
730
100
AcDbEntity
  8
0
  6
SLD-SOLID
 62
     7
100
AcDbLine
 10
37.844185474
 20
30.4697053624
 30
0.0
 11
37.844185474
 21
14.469829341
 31
0.0
  0
ARC
  5
15E
330
730
100
AcDbEntity
  8
0
  6
SLD-SOLID
 62
     7
100
AcDbCircle
 10
37.3014855276
 20
14.9697043538
 30
0.0
 40
0.0700000000000006
100
AcDbArc
 50
180.0
 51
269.7678095149
  0
ARC
  5
15F
330
730
100
AcDbEntity
  8
0
  6
SLD-SOLID
 62
     7
100
AcDbCircle
 10
37.3014855276
 20
14.9697043538
 30
0.0
 40
0.0700000000000003
100
AcDbArc
 50
90.2405321781
 51
180.0
  0
LWPOLYLINE
  5
160
330
730
100
AcDbEntity
  8
0
  6
SLD-SOLID
 62
     7
100
AcDbPolyline
 90
        3
 70
   128
 43
0.0
 10
37.232606619
 20
22.4821831283
 10
37.2314849253
 20
22.4697048725
 10
37.2319143603
 20
22.4619621352
  0
ARC
  5
161
330
730
100
AcDbEntity
  8
0
  6
SLD-SOLID
 62
     7
100
AcDbCircle
 10
37.3014855276
 20
29.9697043538
 30
0.0
 40
0.0700000000000039
100
AcDbArc
 50
88.5121885028
 51
271.4689384027001
  0
LINE
  5
162
330
730
100
AcDbEntity
  8
0
  6
SLD-SOLID
 62
     7
100
AcDbLine
 10
37.809185345
 20
14.4697043825
 30
0.0
 11
37.809185345
 21
14.3642041612
 31
0.0
  0
LINE
  5
163
330
730
100
AcDbEntity
  8
0
  6
SLD-SOLID
 62
     7
100
AcDbLine
 10
37.809185345
 20
30.5748301214
 30
0.0
 11
37.809185345
 21
30.4697053624
 31
0.0
  0
LINE
  5
164
330
730
100
AcDbEntity
  8
0
  6
SLD-SOLID
 62
     7
100
AcDbLine
 10
85.8441602542
 20
14.3958925952
 30
0.0
 11
85.8441602542
 21
14.469829341
 31
0.0
  0
LINE
  5
165
330
730
100
AcDbEntity
  8
0
  6
SLD-SOLID
 62
     7
100
AcDbLine
 10
37.8441596609
 20
14.3958925952
 30
0.0
 11
85.8441602542
 21
14.3958925952
 31
0.0
  0
LINE
  5
166
330
730
100
AcDbEntity
  8
0
  6
SLD-SOLID
 62
     7
100
AcDbLine
 10
37.8441596609
 20
14.469829341
 30
0.0
 11
85.8441602542
 21
14.469829341
 31
0.0
  0
LINE
  5
167
330
730
100
AcDbEntity
  8
0
  6
SLD-SOLID
 62
     7
100
AcDbLine
 10
37.8441596609
 20
14.469829341
 30
0.0
 11
37.8441596609
 21
14.3958925952
 31
0.0
  0
LINE
  5
168
330
730
100
AcDbEntity
  8
0
  6
SLD-SOLID
 62
     7
100
AcDbLine
 10
37.8441596609
 20
14.3798292607
 30
0.0
 11
85.8441602542
 21
14.3798292607
 31
0.0
  0
LINE
  5
169
330
730
100
AcDbEntity
  8
0
  6
SLD-SOLID
 62
     7
100
AcDbLine
 10
37.8441596609
 20
14.3798292607
 30
0.0
 11
37.8441596609
 21
14.3958925952
 31
0.0
  0
LINE
  5
16A
330
730
100
AcDbEntity
  8
0
  6
SLD-SOLID
 62
     7
100
AcDbLine
 10
85.8441602542
 20
14.3958925952
 30
0.0
 11
85.8441602542
 21
14.3798292607
 31
0.0
  0
LINE
  5
16B
330
730
100
AcDbEntity
  8
0
  6
SLD-SOLID
 62
     7
100
AcDbLine
 10
36.2660351716
 20
14.3642041612
 30
0.0
 11
36.2660351716
 21
7.8217043516
 31
0.0
  0
LINE
  5
16C
330
730
100
AcDbEntity
  8
0
  6
SLD-SOLID
 62
     7
100
AcDbLine
 10
37.8441596609
 20
14.3642041612
 30
0.0
 11
36.2660351716
 21
14.3642041612
 31
0.0
  0
LINE
  5
16D
330
730
100
AcDbEntity
  8
0
  6
SLD-SOLID
 62
     7
100
AcDbLine
 10
37.8441596609
 20
14.3798292607
 30
0.0
 11
37.8441596609
 21
14.3642041612
 31
0.0
  0
LINE
  5
16E
330
730
100
AcDbEntity
  8
0
  6
SLD-SOLID
 62
     7
100
AcDbLine
 10
85.8441602542
 20
14.3798292607
 30
0.0
 11
85.8441602542
 21
14.3642041612
 31
0.0
  0
LINE
  5
16F
330
730
100
AcDbEntity
  8
0
  6
SLD-SOLID
 62
     7
100
AcDbLine
 10
87.4222847435
 20
14.3642041612
 30
0.0
 11
85.8441602542
 21
14.3642041612
 31
0.0
  0
LINE
  5
170
330
730
100
AcDbEntity
  8
0
  6
SLD-SOLID
 62
     7
100
AcDbLine
 10
87.4222847435
 20
7.8217043516
 30
0.0
 11
87.4222847435
 21
14.3642041612
 31
0.0
  0
LINE
  5
171
330
730
100
AcDbEntity
  8
0
  6
SLD-SOLID
 62
     7
100
AcDbLine
 10
87.4222847435
 20
7.8217043516
 30
0.0
 11
36.2660351716
 21
7.8217043516
 31
0.0
  0
CIRCLE
  5
172
330
730
100
AcDbEntity
  8
0
  6
SLD-SOLID
 62
     7
100
AcDbCircle
 10
86.1097849576
 20
13.8842043538
 30
0.0
 40
0.0699999999999932
  0
CIRCLE
  5
173
330
730
100
AcDbEntity
  8
0
  6
SLD-SOLID
 62
     7
100
AcDbCircle
 10
87.1097849576
 20
14.1342043538
 30
0.0
 40
0.0699999999999932
  0
CIRCLE
  5
174
330
730
100
AcDbEntity
  8
0
  6
SLD-SOLID
 62
     7
100
AcDbCircle
 10
36.5785349576
 20
8.1342043538
 30
0.0
 40
0.0700000000000003
  0
CIRCLE
  5
175
330
730
100
AcDbEntity
  8
0
  6
SLD-SOLID
 62
     7
100
AcDbCircle
 10
87.1097849576
 20
8.1342043538
 30
0.0
 40
0.0699999999999932
  0
CIRCLE
  5
176
330
730
100
AcDbEntity
  8
0
  6
SLD-SOLID
 62
     7
100
AcDbCircle
 10
36.5785349576
 20
14.1342043538
 30
0.0
 40
0.0700000000000003
  0
CIRCLE
  5
177
330
730
100
AcDbEntity
  8
0
  6
SLD-SOLID
 62
     7
100
AcDbCircle
 10
37.5785349576
 20
13.8842043538
 30
0.0
 40
0.0699999999999932
  0
LINE
  5
178
330
730
100
AcDbEntity
  8
0
  6
SLD-SOLID
 62
     7
100
AcDbLine
 10
87.4222847435
 20
7.7317043538
 30
0.0
 11
36.2660351716
 21
7.7317043538
 31
0.0
  0
LINE
  5
179
330
730
100
AcDbEntity
  8
0
  6
SLD-SOLID
 62
     7
100
AcDbLine
 10
36.2660351716
 20
7.7317043538
 30
0.0
 11
36.2660351716
 21
7.8217043516
 31
0.0
  0
LINE
  5
17A
330
730
100
AcDbEntity
  8
0
  6
SLD-SOLID
 62
     7
100
AcDbLine
 10
87.4222847435
 20
7.8217043516
 30
0.0
 11
87.4222847435
 21
7.7317043538
 31
0.0
  0
LINE
  5
17B
330
730
100
AcDbEntity
  8
0
  6
SLD-SOLID
 62
     7
100
AcDbLine
 10
36.2514109138
 20
7.7667043544
 30
0.0
 11
36.2514109138
 21
7.7317043538
 31
0.0
  0
LINE
  5
17C
330
730
100
AcDbEntity
  8
0
  6
SLD-SOLID
 62
     7
100
AcDbLine
 10
36.2660351716
 20
7.7317043538
 30
0.0
 11
36.2514109138
 21
7.7317043538
 31
0.0
  0
LINE
  5
17D
330
730
100
AcDbEntity
  8
0
  6
SLD-SOLID
 62
     7
100
AcDbLine
 10
36.2660351716
 20
7.7667043544
 30
0.0
 11
36.2514109138
 21
7.7667043544
 31
0.0
  0
LINE
  5
17E
330
730
100
AcDbEntity
  8
0
  6
SLD-SOLID
 62
     7
100
AcDbLine
 10
87.4369090013
 20
7.7667043544
 30
0.0
 11
87.4369090013
 21
7.7317043538
 31
0.0
  0
LINE
  5
17F
330
730
100
AcDbEntity
  8
0
  6
SLD-SOLID
 62
     7
100
AcDbLine
 10
87.4369090013
 20
7.7317043538
 30
0.0
 11
87.4222847435
 21
7.7317043538
 31
0.0
  0
LINE
  5
180
330
730
100
AcDbEntity
  8
0
  6
SLD-SOLID
 62
     7
100
AcDbLine
 10
87.4369090013
 20
7.7667043544
 30
0.0
 11
87.4222847435
 21
7.7667043544
 31
0.0
  0
ARC
  5
181
330
730
100
AcDbEntity
  8
0
  6
SLD-SOLID
 62
     7
100
AcDbCircle
 10
36.2514099552
 20
7.8217039338
 30
0.0
 40
0.0549995793602656
100
AcDbArc
 50
179.9995647744
 51
270.0009986249
  0
ARC
  5
182
330
730
100
AcDbEntity
  8
0
  6
SLD-SOLID
 62
     7
100
AcDbCircle
 10
36.2514091349
 20
7.8217032418
 30
0.0
 40
0.0899988880497345
100
AcDbArc
 50
179.9992934833
 51
270.001132515
  0
LINE
  5
183
330
730
100
AcDbEntity
  8
0
  6
SLD-SOLID
 62
     7
100
AcDbLine
 10
36.1614102469
 20
7.8217043516
 30
0.0
 11
36.1964103759
 21
7.8217043516
 31
0.0
  0
LINE
  5
184
330
730
100
AcDbEntity
  8
0
  6
SLD-SOLID
 62
     7
100
AcDbLine
 10
87.4919095392
 20
7.8217043516
 30
0.0
 11
87.5269096682
 21
7.8217043516
 31
0.0
  0
ARC
  5
185
330
730
100
AcDbEntity
  8
0
  6
SLD-SOLID
 62
     7
100
AcDbCircle
 10
87.4369107802
 20
7.8217032418
 30
0.0
 40
0.0899988880497309
100
AcDbArc
 50
269.998867485
 51
0.0007065167
  0
ARC
  5
186
330
730
100
AcDbEntity
  8
0
  6
SLD-SOLID
 62
     7
100
AcDbCircle
 10
87.4369099599
 20
7.8217039338
 30
0.0
 40
0.0549995793602798
100
AcDbArc
 50
269.9990013751001
 51
0.0004352257
  0
LINE
  5
187
330
730
100
AcDbEntity
  8
0
  6
SLD-SOLID
 62
     7
100
AcDbLine
 10
36.1964103759
 20
7.8217043516
 30
0.0
 11
36.1964103759
 21
8.3917043561
 31
0.0
  0
LINE
  5
188
330
730
100
AcDbEntity
  8
0
  6
SLD-SOLID
 62
     7
100
AcDbLine
 10
36.1614102469
 20
7.8217043516
 30
0.0
 11
36.1614102469
 21
8.3917043561
 31
0.0
  0
LINE
  5
189
330
730
100
AcDbEntity
  8
0
  6
SLD-SOLID
 62
     7
100
AcDbLine
 10
36.1614102469
 20
8.3917043561
 30
0.0
 11
36.1964103759
 21
8.3917043561
 31
0.0
  0
LINE
  5
18A
330
730
100
AcDbEntity
  8
0
  6
SLD-SOLID
 62
     7
100
AcDbLine
 10
87.4919095392
 20
8.3917043561
 30
0.0
 11
87.5269096682
 21
8.3917043561
 31
0.0
  0
LINE
  5
18B
330
730
100
AcDbEntity
  8
0
  6
SLD-SOLID
 62
     7
100
AcDbLine
 10
87.5269096682
 20
8.3917043561
 30
0.0
 11
87.5269096682
 21
7.8217043516
 31
0.0
  0
LINE
  5
18C
330
730
100
AcDbEntity
  8
0
  6
SLD-SOLID
 62
     7
100
AcDbLine
 10
87.4919095392
 20
8.3917043561
 30
0.0
 11
87.4919095392
 21
7.8217043516
 31
0.0
  0
LINE
  5
18D
330
730
100
AcDbEntity
  8
0
  6
SLD-SOLID
 62
     7
100
AcDbLine
 10
87.5591595357
 20
27.4698294039
 30
0.0
 11
87.5591595357
 21
24.1573294302
 31
0.0
  0
LINE
  5
18E
330
730
100
AcDbEntity
  8
0
  6
SLD-SOLID
 62
     7
100
AcDbLine
 10
89.0941598299
 20
27.4698294039
 30
0.0
 11
87.5591595357
 21
27.4698294039
 31
0.0
  0
LINE
  5
18F
330
730
100
AcDbEntity
  8
0
  6
SLD-SOLID
 62
     7
100
AcDbLine
 10
89.0941598299
 20
27.4698294039
 30
0.0
 11
89.0941598299
 21
24.1573294302
 31
0.0
  0
CIRCLE
  5
190
330
730
100
AcDbEntity
  8
0
  6
SLD-SOLID
 62
     7
100
AcDbCircle
 10
88.8441599576
 20
25.8135793538
 30
0.0
 40
0.1093749999999858
  0
LINE
  5
191
330
730
100
AcDbEntity
  8
0
  6
SLD-SOLID
 62
     7
100
AcDbLine
 10
89.0941598299
 20
24.1573294302
 30
0.0
 11
87.5591595357
 21
24.1573294302
 31
0.0
  0
LINE
  5
192
330
730
100
AcDbEntity
  8
0
  6
SLD-SOLID
 62
     7
100
AcDbLine
 10
87.5528869681
 20
25.9073288407
 30
0.0
 11
87.4693794528
 21
25.9073288407
 31
0.0
  0
LINE
  5
193
330
730
100
AcDbEntity
  8
0
  6
SLD-SOLID
 62
     7
100
AcDbLine
 10
87.5528869681
 20
27.2823293833
 30
0.0
 11
87.5528869681
 21
25.9073288407
 31
0.0
  0
LINE
  5
194
330
730
100
AcDbEntity
  8
0
  6
SLD-SOLID
 62
     7
100
AcDbLine
 10
87.4693794528
 20
27.2823293833
 30
0.0
 11
87.5528869681
 21
27.2823293833
 31
0.0
  0
LINE
  5
195
330
730
100
AcDbEntity
  8
0
  6
SLD-SOLID
 62
     7
100
AcDbLine
 10
87.4693794528
 20
25.9073288407
 30
0.0
 11
87.4693794528
 21
27.2823293833
 31
0.0
  0
LINE
  5
196
330
730
100
AcDbEntity
  8
0
  6
SLD-SOLID
 62
     7
100
AcDbLine
 10
87.4691588687
 20
27.4698294039
 30
0.0
 11
87.4691588687
 21
24.1573294302
 31
0.0
  0
LINE
  5
197
330
730
100
AcDbEntity
  8
0
  6
SLD-SOLID
 62
     7
100
AcDbLine
 10
87.4691588687
 20
24.1573294302
 30
0.0
 11
87.5591595357
 21
24.1573294302
 31
0.0
  0
LINE
  5
198
330
730
100
AcDbEntity
  8
0
  6
SLD-SOLID
 62
     7
100
AcDbLine
 10
87.5528869681
 20
24.3448294509
 30
0.0
 11
87.4693794528
 21
24.3448294509
 31
0.0
  0
LINE
  5
199
330
730
100
AcDbEntity
  8
0
  6
SLD-SOLID
 62
     7
100
AcDbLine
 10
87.5528869681
 20
25.7198288201
 30
0.0
 11
87.5528869681
 21
24.3448294509
 31
0.0
  0
LINE
  5
19A
330
730
100
AcDbEntity
  8
0
  6
SLD-SOLID
 62
     7
100
AcDbLine
 10
87.4693794528
 20
25.7198288201
 30
0.0
 11
87.5528869681
 21
25.7198288201
 31
0.0
  0
LINE
  5
19B
330
730
100
AcDbEntity
  8
0
  6
SLD-SOLID
 62
     7
100
AcDbLine
 10
87.4693794528
 20
24.3448294509
 30
0.0
 11
87.4693794528
 21
25.7198288201
 31
0.0
  0
LINE
  5
19C
330
730
100
AcDbEntity
  8
0
  6
SLD-SOLID
 62
     7
100
AcDbLine
 10
87.5591595357
 20
27.4698294039
 30
0.0
 11
87.4691588687
 21
27.4698294039
 31
0.0
  0
LINE
  5
19D
330
730
100
AcDbEntity
  8
0
  6
SLD-SOLID
 62
     7
100
AcDbLine
 10
87.5042927562
 20
25.9073288407
 30
0.0
 11
87.5042927562
 21
27.2823293833
 31
0.0
  0
LINE
  5
19E
330
730
100
AcDbEntity
  8
0
  6
SLD-SOLID
 62
     7
100
AcDbLine
 10
87.5042927562
 20
24.3448294509
 30
0.0
 11
87.5042927562
 21
25.7198288201
 31
0.0
  0
LINE
  5
19F
330
730
100
AcDbEntity
  8
0
  6
SLD-SOLID
 62
     7
100
AcDbLine
 10
36.135432947
 20
26.0323296367
 30
0.0
 11
36.2189404623
 21
26.0323296367
 31
0.0
  0
LINE
  5
1A0
330
730
100
AcDbEntity
  8
0
  6
SLD-SOLID
 62
     7
100
AcDbLine
 10
36.135432947
 20
24.6573290942
 30
0.0
 11
36.135432947
 21
26.0323296367
 31
0.0
  0
LINE
  5
1A1
330
730
100
AcDbEntity
  8
0
  6
SLD-SOLID
 62
     7
100
AcDbLine
 10
36.2189404623
 20
24.6573290942
 30
0.0
 11
36.135432947
 21
24.6573290942
 31
0.0
  0
LINE
  5
1A2
330
730
100
AcDbEntity
  8
0
  6
SLD-SOLID
 62
     7
100
AcDbLine
 10
36.2189404623
 20
26.0323296367
 30
0.0
 11
36.2189404623
 21
24.6573290942
 31
0.0
  0
LINE
  5
1A3
330
730
100
AcDbEntity
  8
0
  6
SLD-SOLID
 62
     7
100
AcDbLine
 10
36.2191610464
 20
24.4698290735
 30
0.0
 11
36.2191610464
 21
27.7823290472
 31
0.0
  0
LINE
  5
1A4
330
730
100
AcDbEntity
  8
0
  6
SLD-SOLID
 62
     7
100
AcDbLine
 10
36.1291603794
 20
24.4698290735
 30
0.0
 11
36.2191610464
 21
24.4698290735
 31
0.0
  0
LINE
  5
1A5
330
730
100
AcDbEntity
  8
0
  6
SLD-SOLID
 62
     7
100
AcDbLine
 10
36.1291603794
 20
24.4698290735
 30
0.0
 11
36.1291603794
 21
27.7823290472
 31
0.0
  0
LINE
  5
1A6
330
730
100
AcDbEntity
  8
0
  6
SLD-SOLID
 62
     7
100
AcDbLine
 10
36.135432947
 20
27.5948301999
 30
0.0
 11
36.2189404623
 21
27.5948301999
 31
0.0
  0
LINE
  5
1A7
330
730
100
AcDbEntity
  8
0
  6
SLD-SOLID
 62
     7
100
AcDbLine
 10
36.135432947
 20
26.2198296574
 30
0.0
 11
36.135432947
 21
27.5948301999
 31
0.0
  0
LINE
  5
1A8
330
730
100
AcDbEntity
  8
0
  6
SLD-SOLID
 62
     7
100
AcDbLine
 10
36.2189404623
 20
26.2198296574
 30
0.0
 11
36.135432947
 21
26.2198296574
 31
0.0
  0
LINE
  5
1A9
330
730
100
AcDbEntity
  8
0
  6
SLD-SOLID
 62
     7
100
AcDbLine
 10
36.2189404623
 20
27.5948301999
 30
0.0
 11
36.2189404623
 21
26.2198296574
 31
0.0
  0
LINE
  5
1AA
330
730
100
AcDbEntity
  8
0
  6
SLD-SOLID
 62
     7
100
AcDbLine
 10
36.2191610464
 20
27.7823290472
 30
0.0
 11
36.1291603794
 21
27.7823290472
 31
0.0
  0
CIRCLE
  5
1AB
330
730
100
AcDbEntity
  8
0
  6
SLD-SOLID
 62
     7
100
AcDbCircle
 10
34.8441599576
 20
26.1260793538
 30
0.0
 40
0.109375
  0
LINE
  5
1AC
330
730
100
AcDbEntity
  8
0
  6
SLD-SOLID
 62
     7
100
AcDbLine
 10
34.5941600852
 20
24.4698290735
 30
0.0
 11
34.5941600852
 21
27.7823290472
 31
0.0
  0
LINE
  5
1AD
330
730
100
AcDbEntity
  8
0
  6
SLD-SOLID
 62
     7
100
AcDbLine
 10
34.5941600852
 20
24.4698290735
 30
0.0
 11
36.1291603794
 21
24.4698290735
 31
0.0
  0
LINE
  5
1AE
330
730
100
AcDbEntity
  8
0
  6
SLD-SOLID
 62
     7
100
AcDbLine
 10
34.5941600852
 20
27.7823290472
 30
0.0
 11
36.1291603794
 21
27.7823290472
 31
0.0
  0
LINE
  5
1AF
330
730
100
AcDbEntity
  8
0
  6
SLD-SOLID
 62
     7
100
AcDbLine
 10
36.1840271589
 20
26.0323296367
 30
0.0
 11
36.1840271589
 21
24.6573290942
 31
0.0
  0
LINE
  5
1B0
330
730
100
AcDbEntity
  8
0
  6
SLD-SOLID
 62
     7
100
AcDbLine
 10
36.1840271589
 20
27.5948301999
 30
0.0
 11
36.1840271589
 21
26.2198296574
 31
0.0
  0
LINE
  5
1B1
330
730
100
AcDbEntity
  8
0
  6
SLD-SOLID
 62
     7
100
AcDbLine
 10
87.5591595357
 20
13.2823294058
 30
0.0
 11
87.5591595357
 21
9.9698292854
 31
0.0
  0
LINE
  5
1B2
330
730
100
AcDbEntity
  8
0
  6
SLD-SOLID
 62
     7
100
AcDbLine
 10
89.0941598299
 20
13.2823294058
 30
0.0
 11
87.5591595357
 21
13.2823294058
 31
0.0
  0
CIRCLE
  5
1B3
330
730
100
AcDbEntity
  8
0
  6
SLD-SOLID
 62
     7
100
AcDbCircle
 10
88.8441599576
 20
11.6260793538
 30
0.0
 40
0.1093749999999858
  0
LINE
  5
1B4
330
730
100
AcDbEntity
  8
0
  6
SLD-SOLID
 62
     7
100
AcDbLine
 10
89.0941598299
 20
9.9698292854
 30
0.0
 11
87.5591595357
 21
9.9698292854
 31
0.0
  0
LINE
  5
1B5
330
730
100
AcDbEntity
  8
0
  6
SLD-SOLID
 62
     7
100
AcDbLine
 10
89.0941598299
 20
13.2823294058
 30
0.0
 11
89.0941598299
 21
9.9698292854
 31
0.0
  0
LINE
  5
1B6
330
730
100
AcDbEntity
  8
0
  6
SLD-SOLID
 62
     7
100
AcDbLine
 10
87.5528869681
 20
11.7198294293
 30
0.0
 11
87.4693794528
 21
11.7198294293
 31
0.0
  0
LINE
  5
1B7
330
730
100
AcDbEntity
  8
0
  6
SLD-SOLID
 62
     7
100
AcDbLine
 10
87.5528869681
 20
13.0948293851
 30
0.0
 11
87.5528869681
 21
11.7198294293
 31
0.0
  0
LINE
  5
1B8
330
730
100
AcDbEntity
  8
0
  6
SLD-SOLID
 62
     7
100
AcDbLine
 10
87.4693794528
 20
13.0948293851
 30
0.0
 11
87.5528869681
 21
13.0948293851
 31
0.0
  0
LINE
  5
1B9
330
730
100
AcDbEntity
  8
0
  6
SLD-SOLID
 62
     7
100
AcDbLine
 10
87.4693794528
 20
11.7198294293
 30
0.0
 11
87.4693794528
 21
13.0948293851
 31
0.0
  0
LINE
  5
1BA
330
730
100
AcDbEntity
  8
0
  6
SLD-SOLID
 62
     7
100
AcDbLine
 10
87.4691588687
 20
13.2823294058
 30
0.0
 11
87.4691588687
 21
9.9698292854
 31
0.0
  0
LINE
  5
1BB
330
730
100
AcDbEntity
  8
0
  6
SLD-SOLID
 62
     7
100
AcDbLine
 10
87.5591595357
 20
13.2823294058
 30
0.0
 11
87.4691588687
 21
13.2823294058
 31
0.0
  0
LINE
  5
1BC
330
730
100
AcDbEntity
  8
0
  6
SLD-SOLID
 62
     7
100
AcDbLine
 10
87.4691588687
 20
9.9698292854
 30
0.0
 11
87.5591595357
 21
9.9698292854
 31
0.0
  0
LINE
  5
1BD
330
730
100
AcDbEntity
  8
0
  6
SLD-SOLID
 62
     7
100
AcDbLine
 10
87.5528869681
 20
10.1573293061
 30
0.0
 11
87.4693794528
 21
10.1573293061
 31
0.0
  0
LINE
  5
1BE
330
730
100
AcDbEntity
  8
0
  6
SLD-SOLID
 62
     7
100
AcDbLine
 10
87.5528869681
 20
11.5323294086
 30
0.0
 11
87.5528869681
 21
10.1573293061
 31
0.0
  0
LINE
  5
1BF
330
730
100
AcDbEntity
  8
0
  6
SLD-SOLID
 62
     7
100
AcDbLine
 10
87.4693794528
 20
11.5323294086
 30
0.0
 11
87.5528869681
 21
11.5323294086
 31
0.0
  0
LINE
  5
1C0
330
730
100
AcDbEntity
  8
0
  6
SLD-SOLID
 62
     7
100
AcDbLine
 10
87.4693794528
 20
10.1573293061
 30
0.0
 11
87.4693794528
 21
11.5323294086
 31
0.0
  0
LINE
  5
1C1
330
730
100
AcDbEntity
  8
0
  6
SLD-SOLID
 62
     7
100
AcDbLine
 10
87.5042927562
 20
11.7198294293
 30
0.0
 11
87.5042927562
 21
13.0948293851
 31
0.0
  0
LINE
  5
1C2
330
730
100
AcDbEntity
  8
0
  6
SLD-SOLID
 62
     7
100
AcDbLine
 10
87.5042927562
 20
10.1573293061
 30
0.0
 11
87.5042927562
 21
11.5323294086
 31
0.0
  0
LINE
  5
1C3
330
730
100
AcDbEntity
  8
0
  6
SLD-SOLID
 62
     7
100
AcDbLine
 10
36.1291603794
 20
10.2823293687
 30
0.0
 11
36.1291603794
 21
13.5948296358
 31
0.0
  0
LINE
  5
1C4
330
730
100
AcDbEntity
  8
0
  6
SLD-SOLID
 62
     7
100
AcDbLine
 10
34.5941600852
 20
10.2823293687
 30
0.0
 11
36.1291603794
 21
10.2823293687
 31
0.0
  0
LINE
  5
1C5
330
730
100
AcDbEntity
  8
0
  6
SLD-SOLID
 62
     7
100
AcDbLine
 10
34.5941600852
 20
13.5948296358
 30
0.0
 11
36.1291603794
 21
13.5948296358
 31
0.0
  0
CIRCLE
  5
1C6
330
730
100
AcDbEntity
  8
0
  6
SLD-SOLID
 62
     7
100
AcDbCircle
 10
34.8441599576
 20
11.9385793538
 30
0.0
 40
0.109375
  0
LINE
  5
1C7
330
730
100
AcDbEntity
  8
0
  6
SLD-SOLID
 62
     7
100
AcDbLine
 10
34.5941600852
 20
10.2823293687
 30
0.0
 11
34.5941600852
 21
13.5948296358
 31
0.0
  0
LINE
  5
1C8
330
730
100
AcDbEntity
  8
0
  6
SLD-SOLID
 62
     7
100
AcDbLine
 10
36.135432947
 20
11.8448293453
 30
0.0
 11
36.2189404623
 21
11.8448293453
 31
0.0
  0
LINE
  5
1C9
330
730
100
AcDbEntity
  8
0
  6
SLD-SOLID
 62
     7
100
AcDbLine
 10
36.135432947
 20
10.4698293894
 30
0.0
 11
36.135432947
 21
11.8448293453
 31
0.0
  0
LINE
  5
1CA
330
730
100
AcDbEntity
  8
0
  6
SLD-SOLID
 62
     7
100
AcDbLine
 10
36.2189404623
 20
10.4698293894
 30
0.0
 11
36.135432947
 21
10.4698293894
 31
0.0
  0
LINE
  5
1CB
330
730
100
AcDbEntity
  8
0
  6
SLD-SOLID
 62
     7
100
AcDbLine
 10
36.2189404623
 20
11.8448293453
 30
0.0
 11
36.2189404623
 21
10.4698293894
 31
0.0
  0
LINE
  5
1CC
330
730
100
AcDbEntity
  8
0
  6
SLD-SOLID
 62
     7
100
AcDbLine
 10
36.2191610464
 20
10.2823293687
 30
0.0
 11
36.2191610464
 21
13.5948296358
 31
0.0
  0
LINE
  5
1CD
330
730
100
AcDbEntity
  8
0
  6
SLD-SOLID
 62
     7
100
AcDbLine
 10
36.135432947
 20
13.4073296151
 30
0.0
 11
36.2189404623
 21
13.4073296151
 31
0.0
  0
LINE
  5
1CE
330
730
100
AcDbEntity
  8
0
  6
SLD-SOLID
 62
     7
100
AcDbLine
 10
36.135432947
 20
12.0323293659
 30
0.0
 11
36.135432947
 21
13.4073296151
 31
0.0
  0
LINE
  5
1CF
330
730
100
AcDbEntity
  8
0
  6
SLD-SOLID
 62
     7
100
AcDbLine
 10
36.2189404623
 20
12.0323293659
 30
0.0
 11
36.135432947
 21
12.0323293659
 31
0.0
  0
LINE
  5
1D0
330
730
100
AcDbEntity
  8
0
  6
SLD-SOLID
 62
     7
100
AcDbLine
 10
36.2189404623
 20
13.4073296151
 30
0.0
 11
36.2189404623
 21
12.0323293659
 31
0.0
  0
LINE
  5
1D1
330
730
100
AcDbEntity
  8
0
  6
SLD-SOLID
 62
     7
100
AcDbLine
 10
36.1291603794
 20
10.2823293687
 30
0.0
 11
36.2191610464
 21
10.2823293687
 31
0.0
  0
LINE
  5
1D2
330
730
100
AcDbEntity
  8
0
  6
SLD-SOLID
 62
     7
100
AcDbLine
 10
36.2191610464
 20
13.5948296358
 30
0.0
 11
36.1291603794
 21
13.5948296358
 31
0.0
  0
LINE
  5
1D3
330
730
100
AcDbEntity
  8
0
  6
SLD-SOLID
 62
     7
100
AcDbLine
 10
36.1840271589
 20
11.8448293453
 30
0.0
 11
36.1840271589
 21
10.4698293894
 31
0.0
  0
LINE
  5
1D4
330
730
100
AcDbEntity
  8
0
  6
SLD-SOLID
 62
     7
100
AcDbLine
 10
36.1840271589
 20
13.4073296151
 30
0.0
 11
36.1840271589
 21
12.0323293659
 31
0.0
  0
LINE
  5
1D5
330
730
100
AcDbEntity
  8
0
  6
SLD-SOLID
 62
     7
100
AcDbLine
 10
87.5591595357
 20
9.0073294043
 30
0.0
 11
87.5591595357
 21
8.632329363
 31
0.0
  0
LINE
  5
1D6
330
730
100
AcDbEntity
  8
0
  6
SLD-SOLID
 62
     7
100
AcDbLine
 10
87.5591595357
 20
8.632329363
 30
0.0
 11
87.4691588687
 21
8.632329363
 31
0.0
  0
LINE
  5
1D7
330
730
100
AcDbEntity
  8
0
  6
SLD-SOLID
 62
     7
100
AcDbLine
 10
87.5591595357
 20
9.0073294043
 30
0.0
 11
87.4691588687
 21
9.0073294043
 31
0.0
  0
LINE
  5
1D8
330
730
100
AcDbEntity
  8
0
  6
SLD-SOLID
 62
     7
100
AcDbLine
 10
87.5528869681
 20
11.4323294172
 30
0.0
 11
87.5042927562
 21
11.4323294172
 31
0.0
  0
LINE
  5
1D9
330
730
100
AcDbEntity
  8
0
  6
SLD-SOLID
 62
     7
100
AcDbLine
 10
87.5528869681
 20
11.0573293759
 30
0.0
 11
87.5042927562
 21
11.0573293759
 31
0.0
  0
LWPOLYLINE
  5
1DA
330
730
100
AcDbEntity
  8
0
  6
SLD-SOLID
 62
     7
100
AcDbPolyline
 90
       17
 70
   128
 43
0.0
 10
76.1711125314
 20
14.9629545244
 10
76.1675573724
 20
14.9847671258
 10
76.157436316
 20
15.0032592321
 10
76.1422887577
 20
15.0156154627
 10
76.1244202708
 20
15.0199543993
 10
76.1065517839
 20
15.0156154627
 10
76.0914042255
 20
15.0032592321
 10
76.0812831691
 20
14.9847671258
 10
76.0777291835
 20
14.9629545244
 10
76.0812831691
 20
14.9411413364
 10
76.0914042255
 20
14.92264923
 10
76.1065517839
 20
14.9102929994
 10
76.1244202708
 20
14.9059540629
 10
76.1422887577
 20
14.9102929994
 10
76.157436316
 20
14.92264923
 10
76.1675573724
 20
14.9411413364
 10
76.1711125314
 20
14.9629545244
  0
LINE
  5
1DB
330
730
100
AcDbEntity
  8
0
  6
SLD-SOLID
 62
     7
100
AcDbLine
 10
77.025823191
 20
14.6504542944
 30
0.0
 11
76.9661422805
 21
14.6504542944
 31
0.0
  0
LINE
  5
1DC
330
730
100
AcDbEntity
  8
0
  6
SLD-SOLID
 62
     7
100
AcDbLine
 10
76.9661422805
 20
14.6504542944
 30
0.0
 11
76.9661422805
 21
14.6419043132
 31
0.0
  0
LWPOLYLINE
  5
1DD
330
730
100
AcDbEntity
  8
0
  6
SLD-SOLID
 62
     7
100
AcDbPolyline
 90
        6
 70
   128
 43
0.0
 10
76.9587996453
 20
14.6455691775
 10
76.9596491288
 20
14.6458126414
 10
76.9605349852
 20
14.6457187758
 10
76.961301163
 20
14.6453392069
 10
76.9623348578
 20
14.6443266319
 10
76.9636607091
 20
14.6419043132
  0
ARC
  5
1DE
330
730
100
AcDbEntity
  8
0
  6
SLD-SOLID
 62
     7
100
AcDbCircle
 10
76.9523997725
 20
14.6572705113
 30
0.0
 40
0.0133371504968956
100
AcDbArc
 50
241.3241931686
 51
298.6758068314
  0
LWPOLYLINE
  5
1DF
330
730
100
AcDbEntity
  8
0
  6
SLD-SOLID
 62
     7
100
AcDbPolyline
 90
        7
 70
   128
 43
0.0
 10
76.9423508753
 20
14.6419043132
 10
76.9426852714
 20
14.6431662186
 10
76.9432637181
 20
14.6443835379
 10
76.9440439757
 20
14.6453673665
 10
76.9446963415
 20
14.6457516288
 10
76.9454179332
 20
14.6457956283
 10
76.9459998998
 20
14.6455691775
  0
LINE
  5
1E0
330
730
100
AcDbEntity
  8
0
  6
SLD-SOLID
 62
     7
100
AcDbLine
 10
76.9405439628
 20
14.6419043132
 30
0.0
 11
76.9405439628
 21
14.6504542944
 31
0.0
  0
LINE
  5
1E1
330
730
100
AcDbEntity
  8
0
  6
SLD-SOLID
 62
     7
100
AcDbLine
 10
76.9405439628
 20
14.6504542944
 30
0.0
 11
76.9277852836
 21
14.6504542944
 31
0.0
  0
LINE
  5
1E2
330
730
100
AcDbEntity
  8
0
  6
SLD-SOLID
 62
     7
100
AcDbLine
 10
76.9340695843
 20
14.6419043132
 30
0.0
 11
76.93357679
 21
14.6504542944
 31
0.0
  0
LINE
  5
1E3
330
730
100
AcDbEntity
  8
0
  6
SLD-SOLID
 62
     7
100
AcDbLine
 10
77.0359935269
 20
14.6504542944
 30
0.0
 11
77.0417850333
 21
14.6504542944
 31
0.0
  0
LINE
  5
1E4
330
730
100
AcDbEntity
  8
0
  6
SLD-SOLID
 62
     7
100
AcDbLine
 10
77.0355007326
 20
14.6419043132
 30
0.0
 11
77.0359935269
 21
14.6504542944
 31
0.0
  0
LINE
  5
1E5
330
730
100
AcDbEntity
  8
0
  6
SLD-SOLID
 62
     7
100
AcDbLine
 10
76.9581472795
 20
14.6419043132
 30
0.0
 11
76.9587996453
 21
14.6455691775
 31
0.0
  0
LINE
  5
1E6
330
730
100
AcDbEntity
  8
0
  6
SLD-SOLID
 62
     7
100
AcDbLine
 10
76.9459998998
 20
14.6455691775
 30
0.0
 11
76.945347534
 21
14.6419043132
 31
0.0
  0
LINE
  5
1E7
330
730
100
AcDbEntity
  8
0
  6
SLD-SOLID
 62
     7
100
AcDbLine
 10
76.9850127825
 20
14.6419043132
 30
0.0
 11
76.9840436203
 21
14.6504542944
 31
0.0
  0
LINE
  5
1E8
330
730
100
AcDbEntity
  8
0
  6
SLD-SOLID
 62
     7
100
AcDbLine
 10
76.9950212002
 20
14.6504542944
 30
0.0
 11
76.9959657226
 21
14.6419043132
 31
0.0
  0
LINE
  5
1E9
330
730
100
AcDbEntity
  8
0
  6
SLD-SOLID
 62
     7
100
AcDbLine
 10
76.9360642279
 20
14.6504542944
 30
0.0
 11
76.9364971829
 21
14.6419043132
 31
0.0
  0
LINE
  5
1EA
330
730
100
AcDbEntity
  8
0
  6
SLD-SOLID
 62
     7
100
AcDbLine
 10
75.8102028873
 20
14.7863094717
 30
0.0
 11
75.709810127
 21
14.7863094717
 31
0.0
  0
LINE
  5
1EB
330
730
100
AcDbEntity
  8
0
  6
SLD-SOLID
 62
     7
100
AcDbLine
 10
75.8102028873
 20
14.6419043132
 30
0.0
 11
75.8102028873
 21
14.7863094717
 31
0.0
  0
LINE
  5
1EC
330
730
100
AcDbEntity
  8
0
  6
SLD-SOLID
 62
     7
100
AcDbLine
 10
76.0031166054
 20
14.7863094717
 30
0.0
 11
76.0031166054
 21
14.6419043132
 31
0.0
  0
LINE
  5
1ED
330
730
100
AcDbEntity
  8
0
  6
SLD-SOLID
 62
     7
100
AcDbLine
 10
76.103510539
 20
14.7863094717
 30
0.0
 11
76.0031166054
 21
14.7863094717
 31
0.0
  0
LINE
  5
1EE
330
730
100
AcDbEntity
  8
0
  6
SLD-SOLID
 62
     7
100
AcDbLine
 10
75.709810127
 20
14.7863094717
 30
0.0
 11
75.709810127
 21
14.6419043132
 31
0.0
  0
LINE
  5
1EF
330
730
100
AcDbEntity
  8
0
  6
SLD-SOLID
 62
     7
100
AcDbLine
 10
76.103510539
 20
14.7863094717
 30
0.0
 11
76.103510539
 21
14.6419043132
 31
0.0
  0
LINE
  5
1F0
330
730
100
AcDbEntity
  8
0
  6
SLD-SOLID
 62
     7
100
AcDbLine
 10
76.0031166054
 20
14.7863094717
 30
0.0
 11
76.0031166054
 21
14.8008997031
 31
0.0
  0
LINE
  5
1F1
330
730
100
AcDbEntity
  8
0
  6
SLD-SOLID
 62
     7
100
AcDbLine
 10
76.103510539
 20
14.7863094717
 30
0.0
 11
76.103510539
 21
14.8008997031
 31
0.0
  0
LINE
  5
1F2
330
730
100
AcDbEntity
  8
0
  6
SLD-SOLID
 62
     7
100
AcDbLine
 10
75.8102028873
 20
14.8008997031
 30
0.0
 11
75.8102028873
 21
14.7863094717
 31
0.0
  0
LINE
  5
1F3
330
730
100
AcDbEntity
  8
0
  6
SLD-SOLID
 62
     7
100
AcDbLine
 10
75.709810127
 20
14.7863094717
 30
0.0
 11
75.709810127
 21
14.8008997031
 31
0.0
  0
LWPOLYLINE
  5
1F4
330
730
100
AcDbEntity
  8
0
  6
SLD-SOLID
 62
     7
100
AcDbPolyline
 90
       17
 70
   128
 43
0.0
 10
75.812909736
 20
14.9714751726
 10
75.8200458669
 20
14.936821173
 10
75.8403689388
 20
14.907442419
 10
75.8707837341
 20
14.8878127791
 10
75.906660333
 20
14.8809195254
 10
75.9425369319
 20
14.8878127791
 10
75.9729517272
 20
14.907442419
 10
75.9932736258
 20
14.936821173
 10
76.0004097567
 20
14.9714751726
 10
75.9932736258
 20
15.0061291723
 10
75.9729517272
 20
15.0355073396
 10
75.9425369319
 20
15.0551375662
 10
75.906660333
 20
15.0620308199
 10
75.8707837341
 20
15.0551375662
 10
75.8403689388
 20
15.0355073396
 10
75.8200458669
 20
15.0061291723
 10
75.812909736
 20
14.9714751726
  0
ARC
  5
1F5
330
730
100
AcDbEntity
  8
0
  6
SLD-SOLID
 62
     7
100
AcDbCircle
 10
75.9066597464
 20
14.7666014685
 30
0.0
 40
0.0937753867648982
100
AcDbArc
 50
181.3329637461
 51
358.6670362539
  0
ARC
  5
1F6
330
730
100
AcDbEntity
  8
0
  6
SLD-SOLID
 62
     7
100
AcDbCircle
 10
75.9066597464
 20
14.7520429167
 30
0.0
 40
0.0937753867648982
100
AcDbArc
 50
181.3329637461
 51
358.6670362539
  0
ARC
  5
1F7
330
730
100
AcDbEntity
  8
0
  6
SLD-SOLID
 62
     7
100
AcDbCircle
 10
75.9066597464
 20
14.7597457881
 30
0.0
 40
0.0937012181988947
100
AcDbArc
 50
179.1201775467
 51
0.8798224533
  0
ARC
  5
1F8
330
730
100
AcDbEntity
  8
0
  6
SLD-SOLID
 62
     7
100
AcDbCircle
 10
75.9066597464
 20
14.7374843649
 30
0.0
 40
0.0937753867648982
100
AcDbArc
 50
181.3329637461
 51
358.6670362539
  0
ARC
  5
1F9
330
730
100
AcDbEntity
  8
0
  6
SLD-SOLID
 62
     7
100
AcDbCircle
 10
75.9066597464
 20
14.7451872363
 30
0.0
 40
0.0937012181988947
100
AcDbArc
 50
179.1201775467
 51
0.8798224533
  0
ARC
  5
1FA
330
730
100
AcDbEntity
  8
0
  6
SLD-SOLID
 62
     7
100
AcDbCircle
 10
75.9092965794
 20
14.7298647241
 30
0.0
 40
0.0910799786470408
100
AcDbArc
 50
285.0390643575
 51
1.3858282382
  0
ARC
  5
1FB
330
730
100
AcDbEntity
  8
0
  6
SLD-SOLID
 62
     7
100
AcDbCircle
 10
75.903713132
 20
14.7296333865
 30
0.0
 40
0.0907761968038535
100
AcDbArc
 50
178.4634707046
 51
255.1125931269
  0
ARC
  5
1FC
330
730
100
AcDbEntity
  8
0
  6
SLD-SOLID
 62
     7
100
AcDbCircle
 10
75.9101705444
 20
14.7214533625
 30
0.0
 40
0.090241997488879
100
AcDbArc
 50
298.1751800906
 51
359.549842287
  0
ARC
  5
1FD
330
730
100
AcDbEntity
  8
0
  6
SLD-SOLID
 62
     7
100
AcDbCircle
 10
75.9031522542
 20
14.7214553598
 30
0.0
 40
0.0902453190310693
100
AcDbArc
 50
180.4514091948
 51
241.8235684276
  0
ARC
  5
1FE
330
730
100
AcDbEntity
  8
0
  6
SLD-SOLID
 62
     7
100
AcDbCircle
 10
75.9109731829
 20
14.7146250207
 30
0.0
 40
0.0894232498789394
100
AcDbArc
 50
305.5883368137
 51
1.8481174665
  0
ARC
  5
1FF
330
730
100
AcDbEntity
  8
0
  6
SLD-SOLID
 62
     7
100
AcDbCircle
 10
75.9023505322
 20
14.7146271058
 30
0.0
 40
0.0894274028598985
100
AcDbArc
 50
178.1533050423
 51
234.4102406774
  0
ARC
  5
200
330
730
100
AcDbEntity
  8
0
  6
SLD-SOLID
 62
     7
100
AcDbCircle
 10
75.9110722597
 20
14.7065905372
 30
0.0
 40
0.0893384137483903
100
AcDbArc
 50
313.6094304688
 51
359.7404340964999
  0
ARC
  5
201
330
730
100
AcDbEntity
  8
0
  6
SLD-SOLID
 62
     7
100
AcDbCircle
 10
75.9024890537
 20
14.7066948071
 30
0.0
 40
0.0895807637150433
100
AcDbArc
 50
180.3255554699
 51
226.3245799647
  0
LWPOLYLINE
  5
202
330
730
100
AcDbEntity
  8
0
  6
SLD-SOLID
 62
     7
100
AcDbPolyline
 90
        3
 70
   128
 43
0.0
 10
76.0004097567
 20
14.6916266721
 10
75.9932736258
 20
14.6569726725
 10
75.9850134545
 20
14.6419043132
  0
LWPOLYLINE
  5
203
330
730
100
AcDbEntity
  8
0
  6
SLD-SOLID
 62
     7
100
AcDbPolyline
 90
        3
 70
   128
 43
0.0
 10
75.8283072115
 20
14.6419043132
 10
75.8200458669
 20
14.6569726725
 10
75.812909736
 20
14.6916266721
  0
ARC
  5
204
330
730
100
AcDbEntity
  8
0
  6
SLD-SOLID
 62
     7
100
AcDbCircle
 10
75.9119608155
 20
14.69980462
 30
0.0
 40
0.0884450628646026
100
AcDbArc
 50
319.1071009008
 51
2.0382920698
  0
ARC
  5
205
330
730
100
AcDbEntity
  8
0
  6
SLD-SOLID
 62
     7
100
AcDbCircle
 10
75.9013586772
 20
14.69980462
 30
0.0
 40
0.0884450628640865
100
AcDbArc
 50
177.9617079301
 51
220.8928990993
  0
LWPOLYLINE
  5
206
330
730
100
AcDbEntity
  8
0
  6
SLD-SOLID
 62
     7
100
AcDbPolyline
 90
        3
 70
   128
 43
0.0
 10
76.0004097567
 20
14.6770681203
 10
75.9932736258
 20
14.6424141207
 10
75.9930530417
 20
14.6419043132
  0
LWPOLYLINE
  5
207
330
730
100
AcDbEntity
  8
0
  6
SLD-SOLID
 62
     7
100
AcDbPolyline
 90
        3
 70
   128
 43
0.0
 10
75.820266451
 20
14.6419043132
 10
75.8200458669
 20
14.6424141207
 10
75.812909736
 20
14.6770681203
  0
ARC
  5
208
330
730
100
AcDbEntity
  8
0
  6
SLD-SOLID
 62
     7
100
AcDbCircle
 10
75.91233396
 20
14.6852103153
 30
0.0
 40
0.0880734397426045
100
AcDbArc
 50
330.5474029754001
 51
2.0701701066
  0
ARC
  5
209
330
730
100
AcDbEntity
  8
0
  6
SLD-SOLID
 62
     7
100
AcDbCircle
 10
75.9009855327
 20
14.6852103153
 30
0.0
 40
0.0880734397418595
100
AcDbArc
 50
177.9298298933
 51
209.4525970247
  0
LWPOLYLINE
  5
20A
330
730
100
AcDbEntity
  8
0
  6
SLD-SOLID
 62
     7
100
AcDbPolyline
 90
        3
 70
   128
 43
0.0
 10
76.0003499174
 20
14.6738332777
 10
76.0004097567
 20
14.6705978484
 10
75.9955791992
 20
14.6419043132
  0
LWPOLYLINE
  5
20B
330
730
100
AcDbEntity
  8
0
  6
SLD-SOLID
 62
     7
100
AcDbPolyline
 90
        3
 70
   128
 43
0.0
 10
75.8177402936
 20
14.6419043132
 10
75.812909736
 20
14.6705978484
 10
75.8129695753
 20
14.6738332777
  0
LINE
  5
20C
330
730
100
AcDbEntity
  8
0
  6
SLD-SOLID
 62
     7
100
AcDbLine
 10
76.0004097567
 20
14.6625095685
 30
0.0
 11
75.9979504784
 21
14.6419043132
 31
0.0
  0
LINE
  5
20D
330
730
100
AcDbEntity
  8
0
  6
SLD-SOLID
 62
     7
100
AcDbLine
 10
75.8153690143
 20
14.6419043132
 30
0.0
 11
75.812909736
 21
14.6625095685
 31
0.0
  0
LWPOLYLINE
  5
20E
330
730
100
AcDbEntity
  8
0
  6
SLD-SOLID
 62
     7
100
AcDbPolyline
 90
        3
 70
   128
 43
0.0
 10
76.0002853848
 20
14.6607161492
 10
76.0004097567
 20
14.6560392966
 10
75.9992610766
 20
14.6419043132
  0
LWPOLYLINE
  5
20F
330
730
100
AcDbEntity
  8
0
  6
SLD-SOLID
 62
     7
100
AcDbPolyline
 90
        3
 70
   128
 43
0.0
 10
75.8140595894
 20
14.6419043132
 10
75.812909736
 20
14.6560392966
 10
75.8130352812
 20
14.6607161492
  0
LINE
  5
210
330
730
100
AcDbEntity
  8
0
  6
SLD-SOLID
 62
     7
100
AcDbLine
 10
75.6566599144
 20
14.773532606
 30
0.0
 11
75.6566599144
 21
14.6419043132
 31
0.0
  0
LINE
  5
211
330
730
100
AcDbEntity
  8
0
  6
SLD-SOLID
 62
     7
100
AcDbLine
 10
76.1566595783
 20
14.773532606
 30
0.0
 11
76.103510539
 21
14.773532606
 31
0.0
  0
LINE
  5
212
330
730
100
AcDbEntity
  8
0
  6
SLD-SOLID
 62
     7
100
AcDbLine
 10
76.0031166054
 20
14.773532606
 30
0.0
 11
76.0004097567
 21
14.773532606
 31
0.0
  0
LINE
  5
213
330
730
100
AcDbEntity
  8
0
  6
SLD-SOLID
 62
     7
100
AcDbLine
 10
75.812909736
 20
14.773532606
 30
0.0
 11
75.8102028873
 21
14.773532606
 31
0.0
  0
LINE
  5
214
330
730
100
AcDbEntity
  8
0
  6
SLD-SOLID
 62
     7
100
AcDbLine
 10
75.709810127
 20
14.773532606
 30
0.0
 11
75.6566599144
 21
14.773532606
 31
0.0
  0
LINE
  5
215
330
730
100
AcDbEntity
  8
0
  6
SLD-SOLID
 62
     7
100
AcDbLine
 10
76.1566595783
 20
14.6419043132
 30
0.0
 11
76.1566595783
 21
14.773532606
 31
0.0
  0
LINE
  5
216
330
730
100
AcDbEntity
  8
0
  6
SLD-SOLID
 62
     7
100
AcDbLine
 10
76.0031166054
 20
14.6662594985
 30
0.0
 11
76.0004097567
 21
14.6708688853
 31
0.0
  0
LINE
  5
217
330
730
100
AcDbEntity
  8
0
  6
SLD-SOLID
 62
     7
100
AcDbLine
 10
75.8131080271
 20
14.6711856816
 30
0.0
 11
75.8102028873
 21
14.6662594985
 31
0.0
  0
LINE
  5
218
330
730
100
AcDbEntity
  8
0
  6
SLD-SOLID
 62
     7
100
AcDbLine
 10
76.0031166054
 20
14.6559067115
 30
0.0
 11
76.0002853848
 21
14.6607161492
 31
0.0
  0
LINE
  5
219
330
730
100
AcDbEntity
  8
0
  6
SLD-SOLID
 62
     7
100
AcDbLine
 10
75.8130352812
 20
14.6607161492
 30
0.0
 11
75.8102028873
 21
14.6559067115
 31
0.0
  0
LINE
  5
21A
330
730
100
AcDbEntity
  8
0
  6
SLD-SOLID
 62
     8
100
AcDbLine
 10
36.3091593667
 20
14.3642041612
 30
0.0
 11
36.3091593667
 21
30.5748301214
 31
0.0
  0
LINE
  5
21B
330
730
100
AcDbEntity
  8
0
  6
SLD-SOLID
 62
     8
100
AcDbLine
 10
87.3791605484
 20
14.3642041612
 30
0.0
 11
87.3791605484
 21
30.5748301214
 31
0.0
  0
LINE
  5
21C
330
730
100
AcDbEntity
  8
0
  6
SLD-SOLID
 62
     8
100
AcDbLine
 10
37.9341861409
 20
30.4697053624
 30
0.0
 11
37.9341861409
 21
14.6654546012
 31
0.0
  0
LINE
  5
21D
330
730
100
AcDbEntity
  8
0
  6
SLD-SOLID
 62
     8
100
AcDbLine
 10
85.7541854002
 20
14.6654546012
 30
0.0
 11
85.7541854002
 21
30.4697053624
 31
0.0
  0
LINE
  5
21E
330
730
100
AcDbEntity
  8
0
  6
SLD-SOLID
 62
     8
100
AcDbLine
 10
85.9341843875
 20
30.5748301214
 30
0.0
 11
85.9341843875
 21
30.4697053624
 31
0.0
  0
LINE
  5
21F
330
730
100
AcDbEntity
  8
0
  6
SLD-SOLID
 62
     8
100
AcDbLine
 10
85.9341843875
 20
14.4697043825
 30
0.0
 11
85.9341843875
 21
14.3642041612
 31
0.0
  0
LINE
  5
220
330
730
100
AcDbEntity
  8
0
  6
SLD-SOLID
 62
     8
100
AcDbLine
 10
37.754184807
 20
30.5748301214
 30
0.0
 11
37.754184807
 21
30.4697053624
 31
0.0
  0
LINE
  5
221
330
730
100
AcDbEntity
  8
0
  6
SLD-SOLID
 62
     8
100
AcDbLine
 10
37.754184807
 20
14.4697043825
 30
0.0
 11
37.754184807
 21
14.3642041612
 31
0.0
  0
ARC
  5
222
330
730
100
AcDbEntity
  8
0
  6
SLD-SOLID
 62
     8
100
AcDbCircle
 10
76.9073646929
 20
14.9676426671
 30
0.0
 40
0.0526239182869053
100
AcDbArc
 50
354.8888759702
 51
83.7559302916
  0
ARC
  5
223
330
730
100
AcDbEntity
  8
0
  6
SLD-SOLID
 62
     8
100
AcDbCircle
 10
76.9073646533
 20
14.9582658757
 30
0.0
 40
0.0526240027560889
100
AcDbArc
 50
276.244102958
 51
5.1116689389
  0
LINE
  5
224
330
730
100
AcDbEntity
  8
0
  6
SLD-SOLID
 62
     8
100
AcDbLine
 10
77.0314762457
 20
14.8379543151
 30
0.0
 11
77.0417850333
 21
14.8379543151
 31
0.0
  0
LINE
  5
225
330
730
100
AcDbEntity
  8
0
  6
SLD-SOLID
 62
     8
100
AcDbLine
 10
76.9277852836
 20
14.8379543151
 30
0.0
 11
77.0314762457
 21
14.8379543151
 31
0.0
  0
LINE
  5
226
330
730
100
AcDbEntity
  8
0
  6
SLD-SOLID
 62
     8
100
AcDbLine
 10
77.025823191
 20
14.6504542944
 30
0.0
 11
77.0264649969
 21
14.6419043132
 31
0.0
  0
LINE
  5
227
330
730
100
AcDbEntity
  8
0
  6
SLD-SOLID
 62
     8
100
AcDbLine
 10
77.0161538627
 20
14.6419043132
 30
0.0
 11
77.0155812827
 21
14.6504542944
 31
0.0
  0
ARC
  5
228
330
730
100
AcDbEntity
  8
0
  6
SLD-SOLID
 62
     8
100
AcDbCircle
 10
79.8552756249
 20
12.8375160264
 30
0.0
 40
1.64799864508333
100
AcDbArc
 50
82.08864075829999
 51
97.9113592417
  0
LWPOLYLINE
  5
229
330
730
100
AcDbEntity
  8
0
  6
SLD-SOLID
 62
     8
100
AcDbPolyline
 90
        4
 70
   128
 43
0.0
 10
78.9746838776
 20
14.469829341
 10
78.9708471219
 20
14.4737857753
 10
78.9626972427
 20
14.4924925992
 10
78.9643879966
 20
14.5010290873
  0
LWPOLYLINE
  5
22A
330
730
100
AcDbEntity
  8
0
  6
SLD-SOLID
 62
     8
100
AcDbPolyline
 90
        4
 70
   128
 43
0.0
 10
80.7239311902
 20
14.5010290873
 10
80.725621944
 20
14.4924925992
 10
80.7174732381
 20
14.4737857753
 10
80.7136353091
 20
14.469829341
  0
LWPOLYLINE
  5
22B
330
730
100
AcDbEntity
  8
0
  6
SLD-SOLID
 62
     8
100
AcDbPolyline
 90
        3
 70
   128
 43
0.0
 10
79.3823409283
 20
14.469829341
 10
79.4700723948
 20
14.4881137698
 10
79.6096775021
 20
14.5010290873
  0
LINE
  5
22C
330
730
100
AcDbEntity
  8
0
  6
SLD-SOLID
 62
     8
100
AcDbLine
 10
80.0936003385
 20
14.5010290873
 30
0.0
 11
80.3250259317
 21
14.469829341
 31
0.0
  0
ARC
  5
22D
330
730
100
AcDbEntity
  8
0
  6
SLD-SOLID
 62
     8
100
AcDbCircle
 10
79.0535266999
 20
14.5435028051
 30
0.0
 40
0.0797843422453125
100
AcDbArc
 50
212.1648166451
 51
247.4294392159
  0
ARC
  5
22E
330
730
100
AcDbEntity
  8
0
  6
SLD-SOLID
 62
     8
100
AcDbCircle
 10
80.6347895017
 20
14.5435051853
 30
0.0
 40
0.0797881363042017
100
AcDbArc
 50
292.5726621615
 51
327.8348775920001
  0
DIMENSION
  5
22F
330
730
100
AcDbEntity
  8
DIM
 62
     7
100
AcDbDimension
  2
_D
 10
99.3057707629
 20
49.5202543538
 30
0.0
 11
99.3057707629
 21
28.6259793538
 31
0.0
 70
   160
  1
<>
  3
SLDDIMSTYLE0
100
AcDbAlignedDimension
 13
87.4222849576
 23
7.7317043538
 33
0.0
 14
77.7385349576
 24
49.5202543538
 34
0.0
 50
90.0
100
AcDbRotatedDimension
1001
ACAD
1000
DSTYLE
1002
{
1070
   270
1070
     5
1070
    41
1040
0.75
1070
   176
1070
   256
1070
   177
1070
   256
1070
   178
1070
   256
1070
    44
1040
1.0
1070
    42
1040
0.5
1070
   276
1070
     0
1070
   147
1040
0.25
1070
   277
1070
     5
1070
     3
1000
"
1070
    45
1040
0.0
1070
   272
1070
     3
1070
   340
1005
7C1
1070
   140
1040
1.0
1070
   284
1070
    12
1002
}
  0
DIMENSION
  5
23F
330
730
100
AcDbEntity
  8
DIM
 62
     7
100
AcDbDimension
  2
_D_1
 10
30.36222840973333
 20
32.0204543538
 30
0.0
 11
32.4038950764
 21
35.3557133835
 31
0.0
 70
   160
  1
<>
  3
SLDDIMSTYLE1
100
AcDbAlignedDimension
 13
37.8441852426
 23
30.5047043538
 33
0.0
 14
36.2660349576
 24
32.0204543538
 34
0.0
 50
90.0
100
AcDbRotatedDimension
1001
ACAD
1000
DSTYLE
1002
{
1070
   270
1070
     5
1070
    41
1040
0.75
1070
   176
1070
   256
1070
   177
1070
   256
1070
   178
1070
   256
1070
    44
1040
1.0
1070
    42
1040
0.5
1070
   276
1070
     0
1070
   147
1040
0.25
1070
   277
1070
     5
1070
     3
1000
"
1070
    45
1040
0.0
1070
   272
1070
     3
1070
   172
1070
     0
1070
   340
1005
7C1
1070
   140
1040
1.0
1070
   284
1070
    12
1002
}
  0
DIMENSION
  5
250
330
730
100
AcDbEntity
  8
DIM
 62
     7
100
AcDbDimension
  2
_D_2
 10
31.6020339733
 20
7.7317043538
 30
0.0
 11
31.6020339733
 21
11.1007668538
 31
0.0
 70
   160
  1
<>
  3
SLDDIMSTYLE1
100
AcDbAlignedDimension
 13
37.8441599576
 23
14.4698293538
 33
0.0
 14
36.2660349576
 24
7.7317043538
 34
0.0
 50
90.0
100
AcDbRotatedDimension
1001
ACAD
1000
DSTYLE
1002
{
1070
   270
1070
     5
1070
    41
1040
0.75
1070
   176
1070
   256
1070
   177
1070
   256
1070
   178
1070
   256
1070
    44
1040
1.0
1070
    42
1040
0.5
1070
   276
1070
     0
1070
   147
1040
0.25
1070
   277
1070
     5
1070
     3
1000
"
1070
    45
1040
0.0
1070
   272
1070
     3
1070
   172
1070
     0
1070
   340
1005
7C1
1070
   140
1040
1.0
1070
   284
1070
    12
1002
}
  0
DIMENSION
  5
25F
330
730
100
AcDbEntity
  8
DIM
 62
     7
100
AcDbDimension
  2
_D_3
 10
85.8441852426
 20
26.2208742796
 30
0.0
 11
61.8441852426
 21
26.2208742796
 31
0.0
 70
   160
  1
<>
  3
SLDDIMSTYLE2
100
AcDbAlignedDimension
 13
37.8441852426
 23
30.4697043538
 33
0.0
 14
85.8441852426
 24
30.4697043538
 34
0.0
100
AcDbRotatedDimension
1001
ACAD
1000
DSTYLE
1002
{
1070
   270
1070
     5
1070
    41
1040
0.75
1070
   176
1070
   256
1070
   177
1070
   256
1070
   178
1070
   256
1070
    44
1040
1.0
1070
    42
1040
0.5
1070
   276
1070
     0
1070
   147
1040
0.25
1070
   277
1070
     5
1070
     3
1000
"
1070
    45
1040
0.0
1070
   272
1070
     3
1070
   340
1005
7C1
1070
   140
1040
1.0
1070
   284
1070
    12
1002
}
  0
DIMENSION
  5
269
330
730
100
AcDbEntity
  8
DIM
 62
     7
100
AcDbDimension
  2
_D_4
 10
34.5941599576
 20
53.9605759894
 30
0.0
 11
61.8441599576
 21
53.9605759894
 31
0.0
 70
   160
  1
<>
  3
SLDDIMSTYLE0
100
AcDbAlignedDimension
 13
89.0941599576
 23
27.4698293538
 33
0.0
 14
34.5941599576
 24
27.7823293538
 34
0.0
100
AcDbRotatedDimension
1001
ACAD
1000
DSTYLE
1002
{
1070
   270
1070
     5
1070
    41
1040
0.75
1070
   176
1070
   256
1070
   177
1070
   256
1070
   178
1070
   256
1070
    44
1040
1.0
1070
    42
1040
0.5
1070
   276
1070
     0
1070
   147
1040
0.25
1070
   277
1070
     5
1070
     3
1000
"
1070
    45
1040
0.0
1070
   272
1070
     3
1070
   340
1005
7C1
1070
   140
1040
1.0
1070
   284
1070
    12
1002
}
  0
DIMENSION
  5
278
330
730
100
AcDbEntity
  8
DIM
 62
     7
100
AcDbDimension
  2
_D_5
 10
73.5012527289
 20
14.5949043538
 30
0.0
 11
73.5012527289
 21
22.5498043538
 31
0.0
 70
   160
  1
<>
  3
SLDDIMSTYLE0
100
AcDbAlignedDimension
 13
85.8441852426
 23
30.5047043538
 33
0.0
 14
85.6327849576
 24
14.5949043538
 34
0.0
 50
90.0
100
AcDbRotatedDimension
1001
ACAD
1000
DSTYLE
1002
{
1070
   270
1070
     5
1070
    41
1040
0.75
1070
   176
1070
   256
1070
   177
1070
   256
1070
   178
1070
   256
1070
    44
1040
1.0
1070
    42
1040
0.5
1070
   276
1070
     0
1070
   147
1040
0.25
1070
   277
1070
     5
1070
     3
1000
"
1070
    45
1040
0.0
1070
   272
1070
     3
1070
   340
1005
7C1
1070
   140
1040
1.0
1070
   284
1070
    12
1002
}
  0
DIMENSION
  5
285
330
730
100
AcDbEntity
  8
DIM
 62
     7
100
AcDbDimension
  2
_D_6
 10
36.1614099576
 20
3.0034742801
 30
0.0
 11
61.8441599576
 21
3.0034742801
 31
0.0
 70
   160
  1
<>
  3
SLDDIMSTYLE0
100
AcDbAlignedDimension
 13
87.5269099576
 23
7.8217043538
 33
0.0
 14
36.1614099576
 24
7.8217043538
 34
0.0
100
AcDbRotatedDimension
1001
ACAD
1000
DSTYLE
1002
{
1070
   270
1070
     5
1070
    41
1040
0.75
1070
   176
1070
   256
1070
   177
1070
   256
1070
   178
1070
   256
1070
    44
1040
1.0
1070
    42
1040
0.5
1070
   276
1070
     0
1070
   147
1040
0.25
1070
   277
1070
     5
1070
     3
1000
"
1070
    45
1040
0.0
1070
   272
1070
     3
1070
   340
1005
7C1
1070
   140
1040
1.0
1070
   284
1070
    12
1002
}
  0
LINE
  5
294
330
730
100
AcDbEntity
  8
0
  6
SLD-SOLID
 62
     7
100
AcDbLine
 10
114.1983827736
 20
30.4697053624
 30
0.0
 11
114.1983827736
 21
14.4697043825
 31
0.0
  0
LINE
  5
295
330
730
100
AcDbEntity
  8
0
  6
SLD-SOLID
 62
     7
100
AcDbLine
 10
120.9964063223
 20
10.3368397523
 30
0.0
 11
119.5202310019
 21
10.9164955094
 31
0.0
  0
LINE
  5
296
330
730
100
AcDbEntity
  8
0
  6
SLD-SOLID
 62
     7
100
AcDbLine
 10
119.306809414
 20
10.5974252754
 30
0.0
 11
120.9356990503
 21
9.9578027577
 31
0.0
  0
LINE
  5
297
330
730
100
AcDbEntity
  8
0
  6
SLD-SOLID
 62
     7
100
AcDbLine
 10
116.1517460749
 20
10.6143885461
 30
0.0
 11
116.1783634207
 21
10.4463339541
 31
0.0
  0
LINE
  5
298
330
730
100
AcDbEntity
  8
0
  6
SLD-SOLID
 62
     7
100
AcDbLine
 10
115.0774808849
 20
32.0204539547
 30
0.0
 11
115.0774808849
 21
32.0554540837
 31
0.0
  0
LINE
  5
299
330
730
100
AcDbEntity
  8
0
  6
SLD-SOLID
 62
     7
100
AcDbLine
 10
115.7324807849
 20
32.0204539547
 30
0.0
 11
115.7324807849
 21
32.0554540837
 31
0.0
  0
LINE
  5
29A
330
730
100
AcDbEntity
  8
0
  6
SLD-SOLID
 62
     7
100
AcDbLine
 10
115.7324807849
 20
32.0554540837
 30
0.0
 11
115.0774808849
 21
32.0554540837
 31
0.0
  0
LINE
  5
29B
330
730
100
AcDbEntity
  8
0
  6
SLD-SOLID
 62
     7
100
AcDbLine
 10
115.2174808143
 20
32.1041820542
 30
0.0
 11
115.5924808556
 21
32.1041820542
 31
0.0
  0
LINE
  5
29C
330
730
100
AcDbEntity
  8
0
  6
SLD-SOLID
 62
     7
100
AcDbLine
 10
115.5924808556
 20
32.0555878422
 30
0.0
 11
115.2174808143
 21
32.0555878422
 31
0.0
  0
LINE
  5
29D
330
730
100
AcDbEntity
  8
0
  6
SLD-SOLID
 62
     7
100
AcDbLine
 10
115.5924808556
 20
32.1066202127
 30
0.0
 11
115.5924808556
 21
32.0555878422
 31
0.0
  0
LINE
  5
29E
330
730
100
AcDbEntity
  8
0
  6
SLD-SOLID
 62
     7
100
AcDbLine
 10
115.2174808143
 20
32.1066202127
 30
0.0
 11
115.5924808556
 21
32.1066202127
 31
0.0
  0
LINE
  5
29F
330
730
100
AcDbEntity
  8
0
  6
SLD-SOLID
 62
     7
100
AcDbLine
 10
115.2174808143
 20
32.0555878422
 30
0.0
 11
115.2174808143
 21
32.1066202127
 31
0.0
  0
LINE
  5
2A0
330
730
100
AcDbEntity
  8
0
  6
SLD-SOLID
 62
     7
100
AcDbLine
 10
115.7324807849
 20
32.1104546217
 30
0.0
 11
115.0774808849
 21
32.1104546217
 31
0.0
  0
LINE
  5
2A1
330
730
100
AcDbEntity
  8
0
  6
SLD-SOLID
 62
     7
100
AcDbLine
 10
115.0774808849
 20
32.1104546217
 30
0.0
 11
115.0774808849
 21
32.0554540837
 31
0.0
  0
LINE
  5
2A2
330
730
100
AcDbEntity
  8
0
  6
SLD-SOLID
 62
     7
100
AcDbLine
 10
115.7324807849
 20
32.0554540837
 30
0.0
 11
115.7324807849
 21
32.1104546217
 31
0.0
  0
LINE
  5
2A3
330
730
100
AcDbEntity
  8
0
  6
SLD-SOLID
 62
     7
100
AcDbLine
 10
115.0774808849
 20
32.1154553106
 30
0.0
 11
115.0724807827
 21
32.1154553106
 31
0.0
  0
LINE
  5
2A4
330
730
100
AcDbEntity
  8
0
  6
SLD-SOLID
 62
     7
100
AcDbLine
 10
115.0724807827
 20
48.5202563076
 30
0.0
 11
115.0724807827
 21
32.1154553106
 31
0.0
  0
LINE
  5
2A5
330
730
100
AcDbEntity
  8
0
  6
SLD-SOLID
 62
     7
100
AcDbLine
 10
115.0724807827
 20
48.5202563076
 30
0.0
 11
115.7324807849
 21
48.5202563076
 31
0.0
  0
LINE
  5
2A6
330
730
100
AcDbEntity
  8
0
  6
SLD-SOLID
 62
     7
100
AcDbLine
 10
115.0774808849
 20
32.1104546217
 30
0.0
 11
115.0774808849
 21
32.1154553106
 31
0.0
  0
LINE
  5
2A7
330
730
100
AcDbEntity
  8
0
  6
SLD-SOLID
 62
     7
100
AcDbLine
 10
115.7324807849
 20
48.5202563076
 30
0.0
 11
115.7324807849
 21
32.1104546217
 31
0.0
  0
LINE
  5
2A8
330
730
100
AcDbEntity
  8
0
  6
SLD-SOLID
 62
     7
100
AcDbLine
 10
114.9824807023
 20
32.1154553106
 30
0.0
 11
115.0724807827
 21
32.1154553106
 31
0.0
  0
LINE
  5
2A9
330
730
100
AcDbEntity
  8
0
  6
SLD-SOLID
 62
     7
100
AcDbLine
 10
114.9824807023
 20
48.5202563076
 30
0.0
 11
114.9824807023
 21
32.1154553106
 31
0.0
  0
LINE
  5
2AA
330
730
100
AcDbEntity
  8
0
  6
SLD-SOLID
 62
     7
100
AcDbLine
 10
115.0724807827
 20
48.5202563076
 30
0.0
 11
114.9824807023
 21
48.5202563076
 31
0.0
  0
LINE
  5
2AB
330
730
100
AcDbEntity
  8
0
  6
SLD-SOLID
 62
     7
100
AcDbLine
 10
115.0174808314
 20
49.5202532889
 30
0.0
 11
114.9824807023
 21
49.5202532889
 31
0.0
  0
LINE
  5
2AC
330
730
100
AcDbEntity
  8
0
  6
SLD-SOLID
 62
     7
100
AcDbLine
 10
114.9824807023
 20
49.5202532889
 30
0.0
 11
114.9824807023
 21
48.5202563076
 31
0.0
  0
LINE
  5
2AD
330
730
100
AcDbEntity
  8
0
  6
SLD-SOLID
 62
     7
100
AcDbLine
 10
115.0174808314
 20
49.5202532889
 30
0.0
 11
115.0174808314
 21
48.5202563076
 31
0.0
  0
ARC
  5
2AE
330
730
100
AcDbEntity
  8
0
  6
SLD-SOLID
 62
     7
100
AcDbCircle
 10
133.2751204038
 20
31.8551815061
 30
0.0
 40
0.1737975874982552
100
AcDbArc
 50
108.020130374
 51
154.3355275735
  0
LINE
  5
2AF
330
730
100
AcDbEntity
  8
0
  6
SLD-SOLID
 62
     7
100
AcDbLine
 10
133.1184686872
 20
31.9304532877
 30
0.0
 11
115.6902430329
 21
31.9304532877
 31
0.0
  0
ARC
  5
2B0
330
730
100
AcDbEntity
  8
0
  6
SLD-SOLID
 62
     7
100
AcDbCircle
 10
115.5335913163
 20
31.8551815061
 30
0.0
 40
0.1737975874982803
100
AcDbArc
 50
25.66447242650001
 51
71.979869626
  0
LINE
  5
2B1
330
730
100
AcDbEntity
  8
0
  6
SLD-SOLID
 62
     7
100
AcDbLine
 10
115.5873557948
 20
32.0204539547
 30
0.0
 11
133.2213559253
 21
32.0204539547
 31
0.0
  0
LINE
  5
2B2
330
730
100
AcDbEntity
  8
0
  6
SLD-SOLID
 62
     7
100
AcDbLine
 10
132.5484687652
 20
31.3604545391
 30
0.0
 11
133.1184686872
 21
31.9304532877
 31
0.0
  0
LINE
  5
2B3
330
730
100
AcDbEntity
  8
0
  6
SLD-SOLID
 62
     7
100
AcDbLine
 10
132.5484687652
 20
31.3604545391
 30
0.0
 11
116.2602429549
 21
31.3604545391
 31
0.0
  0
LINE
  5
2B4
330
730
100
AcDbEntity
  8
0
  6
SLD-SOLID
 62
     7
100
AcDbLine
 10
115.6902430329
 20
31.9304532877
 30
0.0
 11
116.2602429549
 21
31.3604545391
 31
0.0
  0
CIRCLE
  5
2B5
330
730
100
AcDbEntity
  8
0
  6
SLD-SOLID
 62
     7
100
AcDbCircle
 10
124.40435586
 20
31.6729543538
 30
0.0
 40
0.1093750000000142
  0
CIRCLE
  5
2B6
330
730
100
AcDbEntity
  8
0
  6
SLD-SOLID
 62
     7
100
AcDbCircle
 10
117.02935586
 20
31.6729543538
 30
0.0
 40
0.1093750000000142
  0
CIRCLE
  5
2B7
330
730
100
AcDbEntity
  8
0
  6
SLD-SOLID
 62
     7
100
AcDbCircle
 10
131.77935586
 20
31.6729543538
 30
0.0
 40
0.109375
  0
LINE
  5
2B8
330
730
100
AcDbEntity
  8
0
  6
SLD-SOLID
 62
     7
100
AcDbLine
 10
133.2213559253
 20
32.0204539547
 30
0.0
 11
133.2213559253
 21
31.9854538257
 31
0.0
  0
ARC
  5
2B9
330
730
100
AcDbEntity
  8
0
  6
SLD-SOLID
 62
     7
100
AcDbCircle
 10
133.2489343846
 20
31.8101302137
 30
0.0
 40
0.1774794082105429
100
AcDbArc
 50
98.93939411149998
 51
137.3159449348
  0
ARC
  5
2BA
330
730
100
AcDbEntity
  8
0
  6
SLD-SOLID
 62
     7
100
AcDbCircle
 10
115.5597773355
 20
31.8101302137
 30
0.0
 40
0.1774794082105801
100
AcDbArc
 50
42.68405506519999
 51
81.0606058885
  0
LINE
  5
2BB
330
730
100
AcDbEntity
  8
0
  6
SLD-SOLID
 62
     7
100
AcDbLine
 10
115.5873557948
 20
31.9854538257
 30
0.0
 11
115.5873557948
 21
32.0204539547
 31
0.0
  0
LINE
  5
2BC
330
730
100
AcDbEntity
  8
0
  6
SLD-SOLID
 62
     7
100
AcDbLine
 10
133.2213559253
 20
31.9854538257
 30
0.0
 11
133.2362306868
 21
31.9854538257
 31
0.0
  0
LINE
  5
2BD
330
730
100
AcDbEntity
  8
0
  6
SLD-SOLID
 62
     7
100
AcDbLine
 10
133.2362306868
 20
32.0204539547
 30
0.0
 11
133.2362306868
 21
31.9854538257
 31
0.0
  0
LINE
  5
2BE
330
730
100
AcDbEntity
  8
0
  6
SLD-SOLID
 62
     7
100
AcDbLine
 10
133.2213559253
 20
32.0204539547
 30
0.0
 11
133.2362306868
 21
32.0204539547
 31
0.0
  0
LINE
  5
2BF
330
730
100
AcDbEntity
  8
0
  6
SLD-SOLID
 62
     7
100
AcDbLine
 10
115.5724810333
 20
31.9854538257
 30
0.0
 11
115.5724810333
 21
32.0204539547
 31
0.0
  0
LINE
  5
2C0
330
730
100
AcDbEntity
  8
0
  6
SLD-SOLID
 62
     7
100
AcDbLine
 10
115.5724810333
 20
31.9854538257
 30
0.0
 11
115.5873557948
 21
31.9854538257
 31
0.0
  0
LINE
  5
2C1
330
730
100
AcDbEntity
  8
0
  6
SLD-SOLID
 62
     7
100
AcDbLine
 10
115.5724810333
 20
32.0204539547
 30
0.0
 11
115.5873557948
 21
32.0204539547
 31
0.0
  0
ARC
  5
2C2
330
730
100
AcDbEntity
  8
0
  6
SLD-SOLID
 62
     7
100
AcDbCircle
 10
133.73623086
 20
31.9304543538
 30
0.0
 40
0.0550000000000068
100
AcDbArc
 50
0.0
 51
90.0
  0
LINE
  5
2C3
330
730
100
AcDbEntity
  8
0
  6
SLD-SOLID
 62
     7
100
AcDbLine
 10
133.7362309374
 20
31.9854538257
 30
0.0
 11
133.7362309374
 21
32.0204539547
 31
0.0
  0
ARC
  5
2C4
330
730
100
AcDbEntity
  8
0
  6
SLD-SOLID
 62
     7
100
AcDbCircle
 10
133.73623086
 20
31.9304543538
 30
0.0
 40
0.0900000000000034
100
AcDbArc
 50
0.0
 51
90.0
  0
LINE
  5
2C5
330
730
100
AcDbEntity
  8
0
  6
SLD-SOLID
 62
     7
100
AcDbLine
 10
133.7912308887
 20
31.9304532877
 30
0.0
 11
133.8262310177
 21
31.9304532877
 31
0.0
  0
LINE
  5
2C6
330
730
100
AcDbEntity
  8
0
  6
SLD-SOLID
 62
     7
100
AcDbLine
 10
133.2362306868
 20
31.9854538257
 30
0.0
 11
133.7362309374
 21
31.9854538257
 31
0.0
  0
LINE
  5
2C7
330
730
100
AcDbEntity
  8
0
  6
SLD-SOLID
 62
     7
100
AcDbLine
 10
133.2362306868
 20
32.0204539547
 30
0.0
 11
133.7362309374
 21
32.0204539547
 31
0.0
  0
LINE
  5
2C8
330
730
100
AcDbEntity
  8
0
  6
SLD-SOLID
 62
     7
100
AcDbLine
 10
133.8262310177
 20
31.3604545391
 30
0.0
 11
133.7912308887
 21
31.3604545391
 31
0.0
  0
LINE
  5
2C9
330
730
100
AcDbEntity
  8
0
  6
SLD-SOLID
 62
     7
100
AcDbLine
 10
133.7912308887
 20
31.3604545391
 30
0.0
 11
133.7912308887
 21
31.9304532877
 31
0.0
  0
LINE
  5
2CA
330
730
100
AcDbEntity
  8
0
  6
SLD-SOLID
 62
     7
100
AcDbLine
 10
133.8262310177
 20
31.3604545391
 30
0.0
 11
133.8262310177
 21
31.9304532877
 31
0.0
  0
LINE
  5
2CB
330
730
100
AcDbEntity
  8
0
  6
SLD-SOLID
 62
     7
100
AcDbLine
 10
115.0724807827
 20
31.9854538257
 30
0.0
 11
115.0724807827
 21
32.0204539547
 31
0.0
  0
LINE
  5
2CC
330
730
100
AcDbEntity
  8
0
  6
SLD-SOLID
 62
     7
100
AcDbLine
 10
115.0174808314
 20
31.9304532877
 30
0.0
 11
114.9824807023
 21
31.9304532877
 31
0.0
  0
ARC
  5
2CD
330
730
100
AcDbEntity
  8
0
  6
SLD-SOLID
 62
     7
100
AcDbCircle
 10
115.07248086
 20
31.9304543538
 30
0.0
 40
0.0900000000000034
100
AcDbArc
 50
90.0
 51
180.0
  0
ARC
  5
2CE
330
730
100
AcDbEntity
  8
0
  6
SLD-SOLID
 62
     7
100
AcDbCircle
 10
115.07248086
 20
31.9304543538
 30
0.0
 40
0.0550000000000033
100
AcDbArc
 50
90.0
 51
180.0
  0
LINE
  5
2CF
330
730
100
AcDbEntity
  8
0
  6
SLD-SOLID
 62
     7
100
AcDbLine
 10
115.0724807827
 20
31.9854538257
 30
0.0
 11
115.5724810333
 21
31.9854538257
 31
0.0
  0
LINE
  5
2D0
330
730
100
AcDbEntity
  8
0
  6
SLD-SOLID
 62
     7
100
AcDbLine
 10
115.0724807827
 20
32.0204539547
 30
0.0
 11
115.5724810333
 21
32.0204539547
 31
0.0
  0
LINE
  5
2D1
330
730
100
AcDbEntity
  8
0
  6
SLD-SOLID
 62
     7
100
AcDbLine
 10
114.9824807023
 20
31.9304532877
 30
0.0
 11
114.9824807023
 21
30.5748301214
 31
0.0
  0
LINE
  5
2D2
330
730
100
AcDbEntity
  8
0
  6
SLD-SOLID
 62
     7
100
AcDbLine
 10
115.0174808314
 20
31.9304532877
 30
0.0
 11
115.0174808314
 21
30.5748301214
 31
0.0
  0
LINE
  5
2D3
330
730
100
AcDbEntity
  8
0
  6
SLD-SOLID
 62
     7
100
AcDbLine
 10
114.9824807023
 20
30.5748301214
 30
0.0
 11
115.0174808314
 21
30.5748301214
 31
0.0
  0
LINE
  5
2D4
330
730
100
AcDbEntity
  8
0
  6
SLD-SOLID
 62
     7
100
AcDbLine
 10
133.6856057089
 20
31.9698298995
 30
0.0
 11
133.7746313471
 21
31.9698298995
 31
0.0
  0
LINE
  5
2D5
330
730
100
AcDbEntity
  8
0
  6
SLD-SOLID
 62
     7
100
AcDbLine
 10
133.7756057892
 20
31.9688560441
 30
0.0
 11
133.7756057892
 21
7.7833037127
 31
0.0
  0
LINE
  5
2D6
330
730
100
AcDbEntity
  8
0
  6
SLD-SOLID
 62
     7
100
AcDbLine
 10
133.7746313471
 20
7.7823293531
 30
0.0
 11
133.6856057089
 21
7.7823293531
 31
0.0
  0
LINE
  5
2D7
330
730
100
AcDbEntity
  8
0
  6
SLD-SOLID
 62
     7
100
AcDbLine
 10
133.6856057089
 20
7.7823293531
 30
0.0
 11
133.6856057089
 21
31.9698298995
 31
0.0
  0
CIRCLE
  5
2D8
330
730
100
AcDbEntity
  8
0
  6
SLD-SOLID
 62
     7
100
AcDbCircle
 10
117.02935586
 20
31.6729543538
 30
0.0
 40
0.0859999999999985
  0
CIRCLE
  5
2D9
330
730
100
AcDbEntity
  8
0
  6
SLD-SOLID
 62
     7
100
AcDbCircle
 10
124.40435586
 20
31.6729543538
 30
0.0
 40
0.0859999999999985
  0
CIRCLE
  5
2DA
330
730
100
AcDbEntity
  8
0
  6
SLD-SOLID
 62
     7
100
AcDbCircle
 10
131.77935586
 20
31.6729543538
 30
0.0
 40
0.0860000000000127
  0
CIRCLE
  5
2DB
330
730
100
AcDbEntity
  8
0
  6
SLD-SOLID
 62
     7
100
AcDbCircle
 10
131.77935586
 20
8.0792043538
 30
0.0
 40
0.0860000000000127
  0
CIRCLE
  5
2DC
330
730
100
AcDbEntity
  8
0
  6
SLD-SOLID
 62
     7
100
AcDbCircle
 10
124.40435586
 20
8.0792043538
 30
0.0
 40
0.0859999999999985
  0
CIRCLE
  5
2DD
330
730
100
AcDbEntity
  8
0
  6
SLD-SOLID
 62
     7
100
AcDbCircle
 10
117.02935586
 20
8.0792043538
 30
0.0
 40
0.0859999999999985
  0
CIRCLE
  5
2DE
330
730
100
AcDbEntity
  8
0
  6
SLD-SOLID
 62
     7
100
AcDbCircle
 10
124.37685586
 20
10.0323293538
 30
0.0
 40
0.625
  0
CIRCLE
  5
2DF
330
730
100
AcDbEntity
  8
0
  6
SLD-SOLID
 62
     7
100
AcDbCircle
 10
120.12310586
 20
10.2823293538
 30
0.0
 40
0.8749999999999858
  0
CIRCLE
  5
2E0
330
730
100
AcDbEntity
  8
0
  6
SLD-SOLID
 62
     7
100
AcDbCircle
 10
128.63060586
 20
10.2823293538
 30
0.0
 40
0.875
  0
CIRCLE
  5
2E1
330
730
100
AcDbEntity
  8
0
  6
SLD-SOLID
 62
     7
100
AcDbCircle
 10
116.17748086
 20
13.0323293538
 30
0.0
 40
0.0859999999999985
  0
CIRCLE
  5
2E2
330
730
100
AcDbEntity
  8
0
  6
SLD-SOLID
 62
     7
100
AcDbCircle
 10
116.17748086
 20
10.5323293538
 30
0.0
 40
0.0859999999999985
  0
CIRCLE
  5
2E3
330
730
100
AcDbEntity
  8
0
  6
SLD-SOLID
 62
     7
100
AcDbCircle
 10
116.17748086
 20
24.7198293538
 30
0.0
 40
0.0859999999999985
  0
CIRCLE
  5
2E4
330
730
100
AcDbEntity
  8
0
  6
SLD-SOLID
 62
     7
100
AcDbCircle
 10
116.17748086
 20
27.2198293538
 30
0.0
 40
0.0859999999999985
  0
CIRCLE
  5
2E5
330
730
100
AcDbEntity
  8
0
  6
SLD-SOLID
 62
     7
100
AcDbCircle
 10
122.40810586
 20
11.1729543538
 30
0.0
 40
0.1015000000000015
  0
CIRCLE
  5
2E6
330
730
100
AcDbEntity
  8
0
  6
SLD-SOLID
 62
     7
100
AcDbCircle
 10
126.34560586
 20
11.1729543538
 30
0.0
 40
0.1015000000000015
  0
CIRCLE
  5
2E7
330
730
100
AcDbEntity
  8
0
  6
SLD-SOLID
 62
     7
100
AcDbCircle
 10
126.34560586
 20
8.8917043538
 30
0.0
 40
0.1015000000000015
  0
CIRCLE
  5
2E8
330
730
100
AcDbEntity
  8
0
  6
SLD-SOLID
 62
     7
100
AcDbCircle
 10
122.40810586
 20
8.8917043538
 30
0.0
 40
0.1015000000000015
  0
LINE
  5
2E9
330
730
100
AcDbEntity
  8
0
  6
SLD-SOLID
 62
     7
100
AcDbLine
 10
122.7831058555
 20
11.5167043091
 30
0.0
 11
122.6581057929
 21
11.5167043091
 31
0.0
  0
LINE
  5
2EA
330
730
100
AcDbEntity
  8
0
  6
SLD-SOLID
 62
     7
100
AcDbLine
 10
122.6581057929
 20
11.5167043091
 30
0.0
 11
122.6581057929
 21
10.8917044358
 31
0.0
  0
LINE
  5
2EB
330
730
100
AcDbEntity
  8
0
  6
SLD-SOLID
 62
     7
100
AcDbLine
 10
122.6581057929
 20
10.8917044358
 30
0.0
 11
122.7831058555
 21
10.8917044358
 31
0.0
  0
LINE
  5
2EC
330
730
100
AcDbEntity
  8
0
  6
SLD-SOLID
 62
     7
100
AcDbLine
 10
122.7831058555
 20
10.8917044358
 30
0.0
 11
122.7831058555
 21
11.5167043091
 31
0.0
  0
LINE
  5
2ED
330
730
100
AcDbEntity
  8
0
  6
SLD-SOLID
 62
     7
100
AcDbLine
 10
122.6581057929
 20
8.5479543244
 30
0.0
 11
122.7831058555
 21
8.5479543244
 31
0.0
  0
LINE
  5
2EE
330
730
100
AcDbEntity
  8
0
  6
SLD-SOLID
 62
     7
100
AcDbLine
 10
122.7831058555
 20
8.5479543244
 30
0.0
 11
122.7831058555
 21
9.1729543443
 31
0.0
  0
LINE
  5
2EF
330
730
100
AcDbEntity
  8
0
  6
SLD-SOLID
 62
     7
100
AcDbLine
 10
122.7831058555
 20
9.1729543443
 30
0.0
 11
122.6581057929
 21
9.1729543443
 31
0.0
  0
LINE
  5
2F0
330
730
100
AcDbEntity
  8
0
  6
SLD-SOLID
 62
     7
100
AcDbLine
 10
122.6581057929
 20
9.1729543443
 30
0.0
 11
122.6581057929
 21
8.5479543244
 31
0.0
  0
LINE
  5
2F1
330
730
100
AcDbEntity
  8
0
  6
SLD-SOLID
 62
     7
100
AcDbLine
 10
126.0956058292
 20
9.1729543443
 30
0.0
 11
125.9706059132
 21
9.1729543443
 31
0.0
  0
LINE
  5
2F2
330
730
100
AcDbEntity
  8
0
  6
SLD-SOLID
 62
     7
100
AcDbLine
 10
125.9706059132
 20
9.1729543443
 30
0.0
 11
125.9706059132
 21
8.5479543244
 31
0.0
  0
LINE
  5
2F3
330
730
100
AcDbEntity
  8
0
  6
SLD-SOLID
 62
     7
100
AcDbLine
 10
125.9706059132
 20
8.5479543244
 30
0.0
 11
126.0956058292
 21
8.5479543244
 31
0.0
  0
LINE
  5
2F4
330
730
100
AcDbEntity
  8
0
  6
SLD-SOLID
 62
     7
100
AcDbLine
 10
126.0956058292
 20
8.5479543244
 30
0.0
 11
126.0956058292
 21
9.1729543443
 31
0.0
  0
LINE
  5
2F5
330
730
100
AcDbEntity
  8
0
  6
SLD-SOLID
 62
     7
100
AcDbLine
 10
126.0956058292
 20
11.5167043091
 30
0.0
 11
125.9706059132
 21
11.5167043091
 31
0.0
  0
LINE
  5
2F6
330
730
100
AcDbEntity
  8
0
  6
SLD-SOLID
 62
     7
100
AcDbLine
 10
125.9706059132
 20
11.5167043091
 30
0.0
 11
125.9706059132
 21
10.8917044358
 31
0.0
  0
LINE
  5
2F7
330
730
100
AcDbEntity
  8
0
  6
SLD-SOLID
 62
     7
100
AcDbLine
 10
125.9706059132
 20
10.8917044358
 30
0.0
 11
126.0956058292
 21
10.8917044358
 31
0.0
  0
LINE
  5
2F8
330
730
100
AcDbEntity
  8
0
  6
SLD-SOLID
 62
     7
100
AcDbLine
 10
126.0956058292
 20
10.8917044358
 30
0.0
 11
126.0956058292
 21
11.5167043091
 31
0.0
  0
LINE
  5
2F9
330
730
100
AcDbEntity
  8
0
  6
SLD-SOLID
 62
     7
100
AcDbLine
 10
133.6856057089
 20
31.9698298995
 30
0.0
 11
133.1709565609
 21
31.9698298995
 31
0.0
  0
LINE
  5
2FA
330
730
100
AcDbEntity
  8
0
  6
SLD-SOLID
 62
     7
100
AcDbLine
 10
115.6377551592
 20
31.9698298995
 30
0.0
 11
115.1231060112
 21
31.9698298995
 31
0.0
  0
LINE
  5
2FB
330
730
100
AcDbEntity
  8
0
  6
SLD-SOLID
 62
     7
100
AcDbLine
 10
115.1231060112
 20
7.7823293531
 30
0.0
 11
115.6375052421
 21
7.7823293531
 31
0.0
  0
LINE
  5
2FC
330
730
100
AcDbEntity
  8
0
  6
SLD-SOLID
 62
     7
100
AcDbLine
 10
133.171206478
 20
7.7823293531
 30
0.0
 11
133.6856057089
 21
7.7823293531
 31
0.0
  0
LINE
  5
2FD
330
730
100
AcDbEntity
  8
0
  6
SLD-SOLID
 62
     7
100
AcDbLine
 10
115.0331059308
 20
7.7833037127
 30
0.0
 11
115.0331059308
 21
9.9698292854
 31
0.0
  0
LINE
  5
2FE
330
730
100
AcDbEntity
  8
0
  6
SLD-SOLID
 62
     7
100
AcDbLine
 10
115.0331059308
 20
13.2823294058
 30
0.0
 11
115.0331059308
 21
24.1573294302
 31
0.0
  0
LINE
  5
2FF
330
730
100
AcDbEntity
  8
0
  6
SLD-SOLID
 62
     7
100
AcDbLine
 10
115.0331059308
 20
27.4698294039
 30
0.0
 11
115.0331059308
 21
31.9688560441
 31
0.0
  0
LINE
  5
300
330
730
100
AcDbEntity
  8
0
  6
SLD-SOLID
 62
     7
100
AcDbLine
 10
115.0340803729
 20
31.9698298995
 30
0.0
 11
115.1231060112
 21
31.9698298995
 31
0.0
  0
LINE
  5
301
330
730
100
AcDbEntity
  8
0
  6
SLD-SOLID
 62
     7
100
AcDbLine
 10
115.1231060112
 20
7.7823293531
 30
0.0
 11
115.0340803729
 21
7.7823293531
 31
0.0
  0
ARC
  5
302
330
730
100
AcDbEntity
  8
0
  6
SLD-SOLID
 62
     7
100
AcDbCircle
 10
114.28680586
 20
30.5570043538
 30
0.0
 40
0.0873000000000097
100
AcDbArc
 50
81.99999999999999
 51
270.0
  0
LINE
  5
303
330
730
100
AcDbEntity
  8
0
  6
SLD-SOLID
 62
     7
100
AcDbLine
 10
114.9691500297
 20
30.54926583
 30
0.0
 11
114.2989562251
 21
30.6434552486
 31
0.0
  0
LINE
  5
304
330
730
100
AcDbEntity
  8
0
  6
SLD-SOLID
 62
     7
100
AcDbLine
 10
115.0318041326
 20
31.2978297692
 30
0.0
 11
115.0318041326
 21
30.6037289875
 31
0.0
  0
LINE
  5
305
330
730
100
AcDbEntity
  8
0
  6
SLD-SOLID
 62
     7
100
AcDbLine
 10
115.0331059308
 20
31.2978297692
 30
0.0
 11
115.0318041326
 21
31.2978297692
 31
0.0
  0
ARC
  5
306
330
730
100
AcDbEntity
  8
0
  6
SLD-SOLID
 62
     7
100
AcDbCircle
 10
114.9768043774
 20
30.6037298498
 30
0.0
 40
0.090000000000009
100
AcDbArc
 50
262.0
 51
308.7241851858
  0
LINE
  5
307
330
730
100
AcDbEntity
  8
0
  6
SLD-SOLID
 62
     7
100
AcDbLine
 10
114.2940846014
 20
30.6087953823
 30
0.0
 11
114.9642789926
 21
30.5146059637
 31
0.0
  0
ARC
  5
308
330
730
100
AcDbEntity
  8
0
  6
SLD-SOLID
 62
     7
100
AcDbCircle
 10
114.28680586
 20
30.5570043538
 30
0.0
 40
0.0522999999999916
100
AcDbArc
 50
81.99999999999999
 51
270.0
  0
ARC
  5
309
330
730
100
AcDbEntity
  8
0
  6
SLD-SOLID
 62
     7
100
AcDbCircle
 10
114.9768043774
 20
30.6037298498
 30
0.0
 40
0.055000000000021
100
AcDbArc
 50
262.0
 51
0.0
  0
LINE
  5
30A
330
730
100
AcDbEntity
  8
0
  6
SLD-SOLID
 62
     7
100
AcDbLine
 10
115.0331059308
 20
30.5047054914
 30
0.0
 11
114.2868053255
 21
30.5047054914
 31
0.0
  0
LINE
  5
30B
330
730
100
AcDbEntity
  8
0
  6
SLD-SOLID
 62
     7
100
AcDbLine
 10
115.2246433449
 20
31.9698298995
 30
0.0
 11
115.2246433449
 21
31.9854045463
 31
0.0
  0
LINE
  5
30C
330
730
100
AcDbEntity
  8
0
  6
SLD-SOLID
 62
     7
100
AcDbLine
 10
133.6152681215
 20
31.9698298995
 30
0.0
 11
133.6152681215
 21
31.9854045463
 31
0.0
  0
LINE
  5
30D
330
730
100
AcDbEntity
  8
0
  6
SLD-SOLID
 62
     7
100
AcDbLine
 10
115.2246433449
 20
31.9854045463
 30
0.0
 11
115.5876632046
 21
31.9854045463
 31
0.0
  0
LINE
  5
30E
330
730
100
AcDbEntity
  8
0
  6
SLD-SOLID
 62
     7
100
AcDbLine
 10
133.2210485155
 20
31.9854045463
 30
0.0
 11
133.6152681215
 21
31.9854045463
 31
0.0
  0
LINE
  5
30F
330
730
100
AcDbEntity
  8
0
  6
SLD-SOLID
 62
     7
100
AcDbLine
 10
114.2972185385
 20
14.4697043825
 30
0.0
 11
114.1983827736
 21
14.4697043825
 31
0.0
  0
LINE
  5
310
330
730
100
AcDbEntity
  8
0
  6
SLD-SOLID
 62
     7
100
AcDbLine
 10
114.1983827736
 20
30.4697053624
 30
0.0
 11
114.2972185385
 21
30.4697053624
 31
0.0
  0
LINE
  5
311
330
730
100
AcDbEntity
  8
0
  6
SLD-SOLID
 62
     7
100
AcDbLine
 10
114.2972185385
 20
30.4697053624
 30
0.0
 11
114.2972185385
 21
14.4697043825
 31
0.0
  0
LINE
  5
312
330
730
100
AcDbEntity
  8
0
  6
SLD-SOLID
 62
     7
100
AcDbLine
 10
114.2972185385
 20
14.4697043825
 30
0.0
 11
115.0224193343
 21
14.4697043825
 31
0.0
  0
LINE
  5
313
330
730
100
AcDbEntity
  8
0
  6
SLD-SOLID
 62
     7
100
AcDbLine
 10
115.0224193343
 20
30.4697053624
 30
0.0
 11
114.2972185385
 21
30.4697053624
 31
0.0
  0
LINE
  5
314
330
730
100
AcDbEntity
  8
0
  6
SLD-SOLID
 62
     7
100
AcDbLine
 10
115.0331059308
 20
30.4697053624
 30
0.0
 11
115.0224193343
 21
30.4697053624
 31
0.0
  0
LINE
  5
315
330
730
100
AcDbEntity
  8
0
  6
SLD-SOLID
 62
     7
100
AcDbLine
 10
115.0224193343
 20
14.4697043825
 30
0.0
 11
115.0331059308
 21
14.4697043825
 31
0.0
  0
ARC
  5
316
330
730
100
AcDbEntity
  8
0
  6
SLD-SOLID
 62
     7
100
AcDbCircle
 10
133.2753761157
 20
7.8969839866
 30
0.0
 40
0.1738062119340518
100
AcDbArc
 50
205.6659785671
 51
251.9787856976
  0
LINE
  5
317
330
730
100
AcDbEntity
  8
0
  6
SLD-SOLID
 62
     7
100
AcDbLine
 10
115.5871058777
 20
7.7317043538
 30
0.0
 11
133.2216058424
 21
7.7317043538
 31
0.0
  0
ARC
  5
318
330
730
100
AcDbEntity
  8
0
  6
SLD-SOLID
 62
     7
100
AcDbCircle
 10
115.5333356044
 20
7.8969839866
 30
0.0
 40
0.173806211934045
100
AcDbArc
 50
288.0212143024
 51
334.3340214329
  0
LINE
  5
319
330
730
100
AcDbEntity
  8
0
  6
SLD-SOLID
 62
     7
100
AcDbLine
 10
133.1187186043
 20
7.8217043516
 30
0.0
 11
115.6899931158
 21
7.8217043516
 31
0.0
  0
LINE
  5
31A
330
730
100
AcDbEntity
  8
0
  6
SLD-SOLID
 62
     7
100
AcDbLine
 10
116.2599930377
 20
8.3917043561
 30
0.0
 11
132.5487186823
 21
8.3917043561
 31
0.0
  0
LINE
  5
31B
330
730
100
AcDbEntity
  8
0
  6
SLD-SOLID
 62
     7
100
AcDbLine
 10
133.1187186043
 20
7.8217043516
 30
0.0
 11
132.5487186823
 21
8.3917043561
 31
0.0
  0
LINE
  5
31C
330
730
100
AcDbEntity
  8
0
  6
SLD-SOLID
 62
     7
100
AcDbLine
 10
116.2599930377
 20
8.3917043561
 30
0.0
 11
115.6899931158
 21
7.8217043516
 31
0.0
  0
CIRCLE
  5
31D
330
730
100
AcDbEntity
  8
0
  6
SLD-SOLID
 62
     7
100
AcDbCircle
 10
124.40435586
 20
8.0792043538
 30
0.0
 40
0.109375
  0
CIRCLE
  5
31E
330
730
100
AcDbEntity
  8
0
  6
SLD-SOLID
 62
     7
100
AcDbCircle
 10
117.02935586
 20
8.0792043538
 30
0.0
 40
0.109375
  0
CIRCLE
  5
31F
330
730
100
AcDbEntity
  8
0
  6
SLD-SOLID
 62
     7
100
AcDbCircle
 10
131.77935586
 20
8.0792043538
 30
0.0
 40
0.1093749999999716
  0
ARC
  5
320
330
730
100
AcDbEntity
  8
0
  6
SLD-SOLID
 62
     7
100
AcDbCircle
 10
133.2491926884
 20
7.9420448383
 30
0.0
 40
0.177497378462454
100
AcDbArc
 50
222.68635157
 51
261.0587778609
  0
LINE
  5
321
330
730
100
AcDbEntity
  8
0
  6
SLD-SOLID
 62
     7
100
AcDbLine
 10
133.2216058424
 20
7.7667043544
 30
0.0
 11
133.2216058424
 21
7.7317043538
 31
0.0
  0
ARC
  5
322
330
730
100
AcDbEntity
  8
0
  6
SLD-SOLID
 62
     7
100
AcDbCircle
 10
115.5595190317
 20
7.9420448383
 30
0.0
 40
0.1774973784624194
100
AcDbArc
 50
278.9412221391
 51
317.31364843
  0
LINE
  5
323
330
730
100
AcDbEntity
  8
0
  6
SLD-SOLID
 62
     7
100
AcDbLine
 10
115.5871058777
 20
7.7667043544
 30
0.0
 11
115.5871058777
 21
7.7317043538
 31
0.0
  0
LINE
  5
324
330
730
100
AcDbEntity
  8
0
  6
SLD-SOLID
 62
     7
100
AcDbLine
 10
133.2362306868
 20
7.7667043544
 30
0.0
 11
133.2362306868
 21
7.7317043538
 31
0.0
  0
LINE
  5
325
330
730
100
AcDbEntity
  8
0
  6
SLD-SOLID
 62
     7
100
AcDbLine
 10
133.2362306868
 20
7.7317043538
 30
0.0
 11
133.2216058424
 21
7.7317043538
 31
0.0
  0
LINE
  5
326
330
730
100
AcDbEntity
  8
0
  6
SLD-SOLID
 62
     7
100
AcDbLine
 10
133.2362306868
 20
7.7667043544
 30
0.0
 11
133.2216058424
 21
7.7667043544
 31
0.0
  0
LINE
  5
327
330
730
100
AcDbEntity
  8
0
  6
SLD-SOLID
 62
     7
100
AcDbLine
 10
115.5724810333
 20
7.7667043544
 30
0.0
 11
115.5724810333
 21
7.7317043538
 31
0.0
  0
LINE
  5
328
330
730
100
AcDbEntity
  8
0
  6
SLD-SOLID
 62
     7
100
AcDbLine
 10
115.5871058777
 20
7.7667043544
 30
0.0
 11
115.5724810333
 21
7.7667043544
 31
0.0
  0
LINE
  5
329
330
730
100
AcDbEntity
  8
0
  6
SLD-SOLID
 62
     7
100
AcDbLine
 10
115.5871058777
 20
7.7317043538
 30
0.0
 11
115.5724810333
 21
7.7317043538
 31
0.0
  0
LINE
  5
32A
330
730
100
AcDbEntity
  8
0
  6
SLD-SOLID
 62
     7
100
AcDbLine
 10
115.0724807827
 20
7.7667043544
 30
0.0
 11
115.0724807827
 21
7.7317043538
 31
0.0
  0
LINE
  5
32B
330
730
100
AcDbEntity
  8
0
  6
SLD-SOLID
 62
     7
100
AcDbLine
 10
115.5724810333
 20
7.7667043544
 30
0.0
 11
115.0724807827
 21
7.7667043544
 31
0.0
  0
LINE
  5
32C
330
730
100
AcDbEntity
  8
0
  6
SLD-SOLID
 62
     7
100
AcDbLine
 10
115.5724810333
 20
7.7317043538
 30
0.0
 11
115.0724807827
 21
7.7317043538
 31
0.0
  0
ARC
  5
32D
330
730
100
AcDbEntity
  8
0
  6
SLD-SOLID
 62
     7
100
AcDbCircle
 10
115.07248086
 20
7.8217043538
 30
0.0
 40
0.0900000000000176
100
AcDbArc
 50
180.0
 51
270.0
  0
LINE
  5
32E
330
730
100
AcDbEntity
  8
0
  6
SLD-SOLID
 62
     7
100
AcDbLine
 10
115.0174808314
 20
7.8217043516
 30
0.0
 11
114.9824807023
 21
7.8217043516
 31
0.0
  0
ARC
  5
32F
330
730
100
AcDbEntity
  8
0
  6
SLD-SOLID
 62
     7
100
AcDbCircle
 10
115.07248086
 20
7.8217043538
 30
0.0
 40
0.0549999999999988
100
AcDbArc
 50
180.0
 51
270.0
  0
LINE
  5
330
330
730
100
AcDbEntity
  8
0
  6
SLD-SOLID
 62
     7
100
AcDbLine
 10
133.7362309374
 20
7.7667043544
 30
0.0
 11
133.7362309374
 21
7.7317043538
 31
0.0
  0
LINE
  5
331
330
730
100
AcDbEntity
  8
0
  6
SLD-SOLID
 62
     7
100
AcDbLine
 10
133.7912308887
 20
7.8217043516
 30
0.0
 11
133.8262310177
 21
7.8217043516
 31
0.0
  0
ARC
  5
332
330
730
100
AcDbEntity
  8
0
  6
SLD-SOLID
 62
     7
100
AcDbCircle
 10
133.73623086
 20
7.8217043538
 30
0.0
 40
0.0900000000000318
100
AcDbArc
 50
270.0
 51
0.0
  0
ARC
  5
333
330
730
100
AcDbEntity
  8
0
  6
SLD-SOLID
 62
     7
100
AcDbCircle
 10
133.73623086
 20
7.8217043538
 30
0.0
 40
0.0550000000000352
100
AcDbArc
 50
270.0
 51
0.0
  0
LINE
  5
334
330
730
100
AcDbEntity
  8
0
  6
SLD-SOLID
 62
     7
100
AcDbLine
 10
133.7362309374
 20
7.7667043544
 30
0.0
 11
133.2362306868
 21
7.7667043544
 31
0.0
  0
LINE
  5
335
330
730
100
AcDbEntity
  8
0
  6
SLD-SOLID
 62
     7
100
AcDbLine
 10
133.7362309374
 20
7.7317043538
 30
0.0
 11
133.2362306868
 21
7.7317043538
 31
0.0
  0
LINE
  5
336
330
730
100
AcDbEntity
  8
0
  6
SLD-SOLID
 62
     7
100
AcDbLine
 10
133.7912308887
 20
8.3917043561
 30
0.0
 11
133.7912308887
 21
7.8217043516
 31
0.0
  0
LINE
  5
337
330
730
100
AcDbEntity
  8
0
  6
SLD-SOLID
 62
     7
100
AcDbLine
 10
133.8262310177
 20
8.3917043561
 30
0.0
 11
133.8262310177
 21
7.8217043516
 31
0.0
  0
LINE
  5
338
330
730
100
AcDbEntity
  8
0
  6
SLD-SOLID
 62
     7
100
AcDbLine
 10
133.8262310177
 20
8.3917043561
 30
0.0
 11
133.7912308887
 21
8.3917043561
 31
0.0
  0
LINE
  5
339
330
730
100
AcDbEntity
  8
0
  6
SLD-SOLID
 62
     7
100
AcDbLine
 10
114.9824807023
 20
7.8217043516
 30
0.0
 11
114.9824807023
 21
14.3642041612
 31
0.0
  0
LINE
  5
33A
330
730
100
AcDbEntity
  8
0
  6
SLD-SOLID
 62
     7
100
AcDbLine
 10
114.9824807023
 20
14.3642041612
 30
0.0
 11
115.0174808314
 21
14.3642041612
 31
0.0
  0
LINE
  5
33B
330
730
100
AcDbEntity
  8
0
  6
SLD-SOLID
 62
     7
100
AcDbLine
 10
115.0174808314
 20
7.8217043516
 30
0.0
 11
115.0174808314
 21
9.9698292854
 31
0.0
  0
LINE
  5
33C
330
730
100
AcDbEntity
  8
0
  6
SLD-SOLID
 62
     7
100
AcDbLine
 10
115.0174808314
 20
13.2823294058
 30
0.0
 11
115.0174808314
 21
14.3642041612
 31
0.0
  0
LINE
  5
33D
330
730
100
AcDbEntity
  8
0
  6
SLD-SOLID
 62
     7
100
AcDbLine
 10
114.9824807023
 20
14.3798292607
 30
0.0
 11
115.0174808314
 21
14.3798292607
 31
0.0
  0
LINE
  5
33E
330
730
100
AcDbEntity
  8
0
  6
SLD-SOLID
 62
     7
100
AcDbLine
 10
114.9824807023
 20
14.3798292607
 30
0.0
 11
114.9824807023
 21
14.3642041612
 31
0.0
  0
LINE
  5
33F
330
730
100
AcDbEntity
  8
0
  6
SLD-SOLID
 62
     7
100
AcDbLine
 10
115.0174808314
 20
14.3798292607
 30
0.0
 11
115.0174808314
 21
14.3642041612
 31
0.0
  0
ARC
  5
340
330
730
100
AcDbEntity
  8
0
  6
SLD-SOLID
 62
     7
100
AcDbCircle
 10
114.92748086
 20
14.3798293538
 30
0.0
 40
0.0900000000000016
100
AcDbArc
 50
0.0
 51
86.97989765360002
  0
ARC
  5
341
330
730
100
AcDbEntity
  8
0
  6
SLD-SOLID
 62
     7
100
AcDbCircle
 10
114.92748086
 20
14.3798293538
 30
0.0
 40
0.0550000000000033
100
AcDbArc
 50
0.0
 51
90.0
  0
LINE
  5
342
330
730
100
AcDbEntity
  8
0
  6
SLD-SOLID
 62
     7
100
AcDbLine
 10
114.2049803508
 20
14.434829212
 30
0.0
 11
114.927480751
 21
14.434829212
 31
0.0
  0
LINE
  5
343
330
730
100
AcDbEntity
  8
0
  6
SLD-SOLID
 62
     7
100
AcDbLine
 10
114.2049803508
 20
14.3958925952
 30
0.0
 11
114.5430126058
 21
14.3958925952
 31
0.0
  0
LINE
  5
344
330
730
100
AcDbEntity
  8
0
  6
SLD-SOLID
 62
     7
100
AcDbLine
 10
114.2049803508
 20
14.4308921375
 30
0.0
 11
114.2049803508
 21
14.3958925952
 31
0.0
  0
LINE
  5
345
330
730
100
AcDbEntity
  8
0
  6
SLD-SOLID
 62
     7
100
AcDbLine
 10
114.5430126058
 20
14.4308921375
 30
0.0
 11
114.5430126058
 21
14.3958925952
 31
0.0
  0
LINE
  5
346
330
730
100
AcDbEntity
  8
0
  6
SLD-SOLID
 62
     7
100
AcDbLine
 10
114.2049803508
 20
14.4308921375
 30
0.0
 11
114.5430126058
 21
14.4308921375
 31
0.0
  0
ARC
  5
347
330
730
100
AcDbEntity
  8
0
  6
SLD-SOLID
 62
     7
100
AcDbCircle
 10
114.20498086
 20
14.4328608498
 30
0.0
 40
0.0369685039370086
100
AcDbArc
 50
94.71301852700002
 51
270.0
  0
ARC
  5
348
330
730
100
AcDbEntity
  8
0
  6
SLD-SOLID
 62
     7
100
AcDbCircle
 10
114.20498086
 20
14.4328608498
 30
0.0
 40
0.0019685039370074
100
AcDbArc
 50
90.0
 51
270.0
  0
LINE
  5
349
330
730
100
AcDbEntity
  8
0
  6
SLD-SOLID
 62
     7
100
AcDbLine
 10
115.0174808314
 20
27.4698294039
 30
0.0
 11
115.0174808314
 21
24.1573294302
 31
0.0
  0
LINE
  5
34A
330
730
100
AcDbEntity
  8
0
  6
SLD-SOLID
 62
     7
100
AcDbLine
 10
115.0524809604
 20
27.4698294039
 30
0.0
 11
115.0524809604
 21
24.1573294302
 31
0.0
  0
LINE
  5
34B
330
730
100
AcDbEntity
  8
0
  6
SLD-SOLID
 62
     7
100
AcDbLine
 10
115.0524809604
 20
24.1573294302
 30
0.0
 11
115.0174808314
 21
24.1573294302
 31
0.0
  0
LINE
  5
34C
330
730
100
AcDbEntity
  8
0
  6
SLD-SOLID
 62
     7
100
AcDbLine
 10
115.0524809604
 20
27.4698294039
 30
0.0
 11
115.0174808314
 21
27.4698294039
 31
0.0
  0
LINE
  5
34D
330
730
100
AcDbEntity
  8
0
  6
SLD-SOLID
 62
     7
100
AcDbLine
 10
115.1012083441
 20
25.9073288407
 30
0.0
 11
115.1012083441
 21
27.2823293833
 31
0.0
  0
LINE
  5
34E
330
730
100
AcDbEntity
  8
0
  6
SLD-SOLID
 62
     7
100
AcDbLine
 10
115.1012083441
 20
24.3448294509
 30
0.0
 11
115.1012083441
 21
25.7198288201
 31
0.0
  0
LINE
  5
34F
330
730
100
AcDbEntity
  8
0
  6
SLD-SOLID
 62
     7
100
AcDbLine
 10
115.1036476759
 20
27.2823293833
 30
0.0
 11
115.0526147188
 21
27.2823293833
 31
0.0
  0
LINE
  5
350
330
730
100
AcDbEntity
  8
0
  6
SLD-SOLID
 62
     7
100
AcDbLine
 10
115.0526147188
 20
27.2823293833
 30
0.0
 11
115.0526147188
 21
25.9073288407
 31
0.0
  0
LINE
  5
351
330
730
100
AcDbEntity
  8
0
  6
SLD-SOLID
 62
     7
100
AcDbLine
 10
115.0526147188
 20
25.9073288407
 30
0.0
 11
115.1036476759
 21
25.9073288407
 31
0.0
  0
LINE
  5
352
330
730
100
AcDbEntity
  8
0
  6
SLD-SOLID
 62
     7
100
AcDbLine
 10
115.1036476759
 20
25.9073288407
 30
0.0
 11
115.1036476759
 21
27.2823293833
 31
0.0
  0
LINE
  5
353
330
730
100
AcDbEntity
  8
0
  6
SLD-SOLID
 62
     7
100
AcDbLine
 10
115.0524809604
 20
27.4698294039
 30
0.0
 11
115.1074809117
 21
27.4698294039
 31
0.0
  0
LINE
  5
354
330
730
100
AcDbEntity
  8
0
  6
SLD-SOLID
 62
     7
100
AcDbLine
 10
115.1074809117
 20
27.4698294039
 30
0.0
 11
115.1074809117
 21
24.1573294302
 31
0.0
  0
LINE
  5
355
330
730
100
AcDbEntity
  8
0
  6
SLD-SOLID
 62
     7
100
AcDbLine
 10
115.1074809117
 20
24.1573294302
 30
0.0
 11
115.0524809604
 21
24.1573294302
 31
0.0
  0
LINE
  5
356
330
730
100
AcDbEntity
  8
0
  6
SLD-SOLID
 62
     7
100
AcDbLine
 10
115.1036476759
 20
25.7198288201
 30
0.0
 11
115.0526147188
 21
25.7198288201
 31
0.0
  0
LINE
  5
357
330
730
100
AcDbEntity
  8
0
  6
SLD-SOLID
 62
     7
100
AcDbLine
 10
115.0526147188
 20
25.7198288201
 30
0.0
 11
115.0526147188
 21
24.3448294509
 31
0.0
  0
LINE
  5
358
330
730
100
AcDbEntity
  8
0
  6
SLD-SOLID
 62
     7
100
AcDbLine
 10
115.0526147188
 20
24.3448294509
 30
0.0
 11
115.1036476759
 21
24.3448294509
 31
0.0
  0
LINE
  5
359
330
730
100
AcDbEntity
  8
0
  6
SLD-SOLID
 62
     7
100
AcDbLine
 10
115.1036476759
 20
24.3448294509
 30
0.0
 11
115.1036476759
 21
25.7198288201
 31
0.0
  0
LINE
  5
35A
330
730
100
AcDbEntity
  8
0
  6
SLD-SOLID
 62
     7
100
AcDbLine
 10
115.1074809117
 20
24.1573294302
 30
0.0
 11
116.4549805986
 21
24.1573294302
 31
0.0
  0
CIRCLE
  5
35B
330
730
100
AcDbEntity
  8
0
  6
SLD-SOLID
 62
     7
100
AcDbCircle
 10
115.55248086
 20
27.2198293538
 30
0.0
 40
0.109375
  0
CIRCLE
  5
35C
330
730
100
AcDbEntity
  8
0
  6
SLD-SOLID
 62
     7
100
AcDbCircle
 10
115.55248086
 20
24.7198293538
 30
0.0
 40
0.109375
  0
CIRCLE
  5
35D
330
730
100
AcDbEntity
  8
0
  6
SLD-SOLID
 62
     7
100
AcDbCircle
 10
115.67748086
 20
26.9073293538
 30
0.0
 40
0.1093750000000142
  0
CIRCLE
  5
35E
330
730
100
AcDbEntity
  8
0
  6
SLD-SOLID
 62
     7
100
AcDbCircle
 10
115.67748086
 20
24.4073293538
 30
0.0
 40
0.1093750000000142
  0
CIRCLE
  5
35F
330
730
100
AcDbEntity
  8
0
  6
SLD-SOLID
 62
     7
100
AcDbCircle
 10
116.17748086
 20
27.2198293538
 30
0.0
 40
0.1093749999999858
  0
LINE
  5
360
330
730
100
AcDbEntity
  8
0
  6
SLD-SOLID
 62
     7
100
AcDbLine
 10
116.4549805986
 20
27.4698294039
 30
0.0
 11
116.4549805986
 21
24.1573294302
 31
0.0
  0
LINE
  5
361
330
730
100
AcDbEntity
  8
0
  6
SLD-SOLID
 62
     7
100
AcDbLine
 10
115.1074809117
 20
27.4698294039
 30
0.0
 11
116.4549805986
 21
27.4698294039
 31
0.0
  0
CIRCLE
  5
362
330
730
100
AcDbEntity
  8
0
  6
SLD-SOLID
 62
     7
100
AcDbCircle
 10
116.17748086
 20
24.7198293538
 30
0.0
 40
0.1093749999999858
  0
LINE
  5
363
330
730
100
AcDbEntity
  8
0
  6
SLD-SOLID
 62
     7
100
AcDbLine
 10
115.0524809604
 20
13.2823294058
 30
0.0
 11
115.0174808314
 21
13.2823294058
 31
0.0
  0
LINE
  5
364
330
730
100
AcDbEntity
  8
0
  6
SLD-SOLID
 62
     7
100
AcDbLine
 10
115.0524809604
 20
13.2823294058
 30
0.0
 11
115.0524809604
 21
9.9698292854
 31
0.0
  0
LINE
  5
365
330
730
100
AcDbEntity
  8
0
  6
SLD-SOLID
 62
     7
100
AcDbLine
 10
115.0524809604
 20
9.9698292854
 30
0.0
 11
115.0174808314
 21
9.9698292854
 31
0.0
  0
LINE
  5
366
330
730
100
AcDbEntity
  8
0
  6
SLD-SOLID
 62
     7
100
AcDbLine
 10
115.0174808314
 20
13.2823294058
 30
0.0
 11
115.0174808314
 21
9.9698292854
 31
0.0
  0
LINE
  5
367
330
730
100
AcDbEntity
  8
0
  6
SLD-SOLID
 62
     7
100
AcDbLine
 10
115.1012083441
 20
11.7198294293
 30
0.0
 11
115.1012083441
 21
13.0948293851
 31
0.0
  0
LINE
  5
368
330
730
100
AcDbEntity
  8
0
  6
SLD-SOLID
 62
     7
100
AcDbLine
 10
115.1012083441
 20
10.1573293061
 30
0.0
 11
115.1012083441
 21
11.5323294086
 31
0.0
  0
LINE
  5
369
330
730
100
AcDbEntity
  8
0
  6
SLD-SOLID
 62
     7
100
AcDbLine
 10
115.1036476759
 20
13.0948293851
 30
0.0
 11
115.0526147188
 21
13.0948293851
 31
0.0
  0
LINE
  5
36A
330
730
100
AcDbEntity
  8
0
  6
SLD-SOLID
 62
     7
100
AcDbLine
 10
115.0526147188
 20
13.0948293851
 30
0.0
 11
115.0526147188
 21
11.7198294293
 31
0.0
  0
LINE
  5
36B
330
730
100
AcDbEntity
  8
0
  6
SLD-SOLID
 62
     7
100
AcDbLine
 10
115.0526147188
 20
11.7198294293
 30
0.0
 11
115.1036476759
 21
11.7198294293
 31
0.0
  0
LINE
  5
36C
330
730
100
AcDbEntity
  8
0
  6
SLD-SOLID
 62
     7
100
AcDbLine
 10
115.1036476759
 20
11.7198294293
 30
0.0
 11
115.1036476759
 21
13.0948293851
 31
0.0
  0
LINE
  5
36D
330
730
100
AcDbEntity
  8
0
  6
SLD-SOLID
 62
     7
100
AcDbLine
 10
115.0524809604
 20
13.2823294058
 30
0.0
 11
115.1074809117
 21
13.2823294058
 31
0.0
  0
LINE
  5
36E
330
730
100
AcDbEntity
  8
0
  6
SLD-SOLID
 62
     7
100
AcDbLine
 10
115.1074809117
 20
13.2823294058
 30
0.0
 11
115.1074809117
 21
9.9698292854
 31
0.0
  0
LINE
  5
36F
330
730
100
AcDbEntity
  8
0
  6
SLD-SOLID
 62
     7
100
AcDbLine
 10
115.1074809117
 20
9.9698292854
 30
0.0
 11
115.0524809604
 21
9.9698292854
 31
0.0
  0
LINE
  5
370
330
730
100
AcDbEntity
  8
0
  6
SLD-SOLID
 62
     7
100
AcDbLine
 10
115.1036476759
 20
11.5323294086
 30
0.0
 11
115.0526147188
 21
11.5323294086
 31
0.0
  0
LINE
  5
371
330
730
100
AcDbEntity
  8
0
  6
SLD-SOLID
 62
     7
100
AcDbLine
 10
115.0526147188
 20
11.5323294086
 30
0.0
 11
115.0526147188
 21
10.1573293061
 31
0.0
  0
LINE
  5
372
330
730
100
AcDbEntity
  8
0
  6
SLD-SOLID
 62
     7
100
AcDbLine
 10
115.0526147188
 20
10.1573293061
 30
0.0
 11
115.1036476759
 21
10.1573293061
 31
0.0
  0
LINE
  5
373
330
730
100
AcDbEntity
  8
0
  6
SLD-SOLID
 62
     7
100
AcDbLine
 10
115.1036476759
 20
10.1573293061
 30
0.0
 11
115.1036476759
 21
11.5323294086
 31
0.0
  0
LINE
  5
374
330
730
100
AcDbEntity
  8
0
  6
SLD-SOLID
 62
     7
100
AcDbLine
 10
116.4549805986
 20
13.2823294058
 30
0.0
 11
116.4549805986
 21
9.9698292854
 31
0.0
  0
CIRCLE
  5
375
330
730
100
AcDbEntity
  8
0
  6
SLD-SOLID
 62
     7
100
AcDbCircle
 10
115.55248086
 20
13.0323293538
 30
0.0
 40
0.109375
  0
CIRCLE
  5
376
330
730
100
AcDbEntity
  8
0
  6
SLD-SOLID
 62
     7
100
AcDbCircle
 10
115.55248086
 20
10.5323293538
 30
0.0
 40
0.109375
  0
CIRCLE
  5
377
330
730
100
AcDbEntity
  8
0
  6
SLD-SOLID
 62
     7
100
AcDbCircle
 10
115.67748086
 20
12.7198293538
 30
0.0
 40
0.1093750000000142
  0
CIRCLE
  5
378
330
730
100
AcDbEntity
  8
0
  6
SLD-SOLID
 62
     7
100
AcDbCircle
 10
115.67748086
 20
10.2198293538
 30
0.0
 40
0.1093750000000142
  0
CIRCLE
  5
379
330
730
100
AcDbEntity
  8
0
  6
SLD-SOLID
 62
     7
100
AcDbCircle
 10
116.17748086
 20
13.0323293538
 30
0.0
 40
0.1093749999999858
  0
LINE
  5
37A
330
730
100
AcDbEntity
  8
0
  6
SLD-SOLID
 62
     7
100
AcDbLine
 10
115.1074809117
 20
13.2823294058
 30
0.0
 11
116.4549805986
 21
13.2823294058
 31
0.0
  0
CIRCLE
  5
37B
330
730
100
AcDbEntity
  8
0
  6
SLD-SOLID
 62
     7
100
AcDbCircle
 10
116.17748086
 20
10.5323293538
 30
0.0
 40
0.1093749999999858
  0
LINE
  5
37C
330
730
100
AcDbEntity
  8
0
  6
SLD-SOLID
 62
     7
100
AcDbLine
 10
115.1074809117
 20
9.9698292854
 30
0.0
 11
116.4549805986
 21
9.9698292854
 31
0.0
  0
LINE
  5
37D
330
730
100
AcDbEntity
  8
0
  6
SLD-SOLID
 62
     7
100
AcDbLine
 10
115.0176996555
 20
13.4073296151
 30
0.0
 11
115.0331059308
 21
13.4073296151
 31
0.0
  0
LINE
  5
37E
330
730
100
AcDbEntity
  8
0
  6
SLD-SOLID
 62
     7
100
AcDbLine
 10
115.0176996555
 20
13.2823294058
 30
0.0
 11
115.0176996555
 21
13.4073296151
 31
0.0
  0
LINE
  5
37F
330
730
100
AcDbEntity
  8
0
  6
SLD-SOLID
 62
     7
100
AcDbLine
 10
115.0331059308
 20
13.5948296358
 30
0.0
 11
115.0174808314
 21
13.5948296358
 31
0.0
  0
LINE
  5
380
330
730
100
AcDbEntity
  8
0
  6
SLD-SOLID
 62
     7
100
AcDbLine
 10
116.9433555968
 20
8.0792043461
 30
0.0
 11
117.1153560632
 21
8.0792043461
 31
0.0
  0
LINE
  5
381
330
730
100
AcDbEntity
  8
0
  6
SLD-SOLID
 62
     7
100
AcDbLine
 10
126.0018558189
 20
11.0573293759
 30
0.0
 11
126.0643559236
 21
11.0573293759
 31
0.0
  0
LINE
  5
382
330
730
100
AcDbEntity
  8
0
  6
SLD-SOLID
 62
     7
100
AcDbLine
 10
126.0643559236
 20
11.0573293759
 30
0.0
 11
126.0643559236
 21
11.4323294172
 31
0.0
  0
LINE
  5
383
330
730
100
AcDbEntity
  8
0
  6
SLD-SOLID
 62
     7
100
AcDbLine
 10
126.0643559236
 20
11.4323294172
 30
0.0
 11
126.0018558189
 21
11.4323294172
 31
0.0
  0
LINE
  5
384
330
730
100
AcDbEntity
  8
0
  6
SLD-SOLID
 62
     7
100
AcDbLine
 10
126.0018558189
 20
11.4323294172
 30
0.0
 11
126.0018558189
 21
11.0573293759
 31
0.0
  0
LINE
  5
385
330
730
100
AcDbEntity
  8
0
  6
SLD-SOLID
 62
     7
100
AcDbLine
 10
126.0643559236
 20
9.0073294043
 30
0.0
 11
126.0018558189
 21
9.0073294043
 31
0.0
  0
LINE
  5
386
330
730
100
AcDbEntity
  8
0
  6
SLD-SOLID
 62
     7
100
AcDbLine
 10
126.0018558189
 20
9.0073294043
 30
0.0
 11
126.0018558189
 21
8.632329363
 31
0.0
  0
LINE
  5
387
330
730
100
AcDbEntity
  8
0
  6
SLD-SOLID
 62
     7
100
AcDbLine
 10
126.0643559236
 20
8.632329363
 30
0.0
 11
126.0643559236
 21
9.0073294043
 31
0.0
  0
LINE
  5
388
330
730
100
AcDbEntity
  8
0
  6
SLD-SOLID
 62
     7
100
AcDbLine
 10
126.0018558189
 20
8.632329363
 30
0.0
 11
126.0643559236
 21
8.632329363
 31
0.0
  0
LINE
  5
389
330
730
100
AcDbEntity
  8
0
  6
SLD-SOLID
 62
     7
100
AcDbLine
 10
122.6893558452
 20
9.0073294043
 30
0.0
 11
122.6893558452
 21
8.632329363
 31
0.0
  0
LINE
  5
38A
330
730
100
AcDbEntity
  8
0
  6
SLD-SOLID
 62
     7
100
AcDbLine
 10
122.7518558032
 20
9.0073294043
 30
0.0
 11
122.6893558452
 21
9.0073294043
 31
0.0
  0
LINE
  5
38B
330
730
100
AcDbEntity
  8
0
  6
SLD-SOLID
 62
     7
100
AcDbLine
 10
122.7518558032
 20
8.632329363
 30
0.0
 11
122.7518558032
 21
9.0073294043
 31
0.0
  0
LINE
  5
38C
330
730
100
AcDbEntity
  8
0
  6
SLD-SOLID
 62
     7
100
AcDbLine
 10
122.6893558452
 20
8.632329363
 30
0.0
 11
122.7518558032
 21
8.632329363
 31
0.0
  0
LINE
  5
38D
330
730
100
AcDbEntity
  8
0
  6
SLD-SOLID
 62
     7
100
AcDbLine
 10
122.7518558032
 20
11.0573293759
 30
0.0
 11
122.7518558032
 21
11.4323294172
 31
0.0
  0
LINE
  5
38E
330
730
100
AcDbEntity
  8
0
  6
SLD-SOLID
 62
     7
100
AcDbLine
 10
122.6893558452
 20
11.0573293759
 30
0.0
 11
122.7518558032
 21
11.0573293759
 31
0.0
  0
LINE
  5
38F
330
730
100
AcDbEntity
  8
0
  6
SLD-SOLID
 62
     7
100
AcDbLine
 10
122.6893558452
 20
11.4323294172
 30
0.0
 11
122.6893558452
 21
11.0573293759
 31
0.0
  0
LINE
  5
390
330
730
100
AcDbEntity
  8
0
  6
SLD-SOLID
 62
     7
100
AcDbLine
 10
122.7518558032
 20
11.4323294172
 30
0.0
 11
122.6893558452
 21
11.4323294172
 31
0.0
  0
LINE
  5
391
330
730
100
AcDbEntity
  8
0
  6
SLD-SOLID
 62
     7
100
AcDbLine
 10
122.6581057929
 20
11.4672394939
 30
0.0
 11
122.7831058555
 21
11.4672394939
 31
0.0
  0
LINE
  5
392
330
730
100
AcDbEntity
  8
0
  6
SLD-SOLID
 62
     7
100
AcDbLine
 10
125.9706059132
 20
11.4672394939
 30
0.0
 11
126.0956058292
 21
11.4672394939
 31
0.0
  0
LINE
  5
393
330
730
100
AcDbEntity
  8
0
  6
SLD-SOLID
 62
     7
100
AcDbLine
 10
126.0643559236
 20
11.4323294172
 30
0.0
 11
126.0956058292
 21
11.4323294172
 31
0.0
  0
LINE
  5
394
330
730
100
AcDbEntity
  8
0
  6
SLD-SOLID
 62
     7
100
AcDbLine
 10
122.7518558032
 20
11.4323294172
 30
0.0
 11
122.7831058555
 21
11.4323294172
 31
0.0
  0
LINE
  5
395
330
730
100
AcDbEntity
  8
0
  6
SLD-SOLID
 62
     7
100
AcDbLine
 10
125.9706059132
 20
11.4323294172
 30
0.0
 11
126.0018558189
 21
11.4323294172
 31
0.0
  0
LINE
  5
396
330
730
100
AcDbEntity
  8
0
  6
SLD-SOLID
 62
     7
100
AcDbLine
 10
122.6581057929
 20
11.4323294172
 30
0.0
 11
122.6893558452
 21
11.4323294172
 31
0.0
  0
LINE
  5
397
330
730
100
AcDbEntity
  8
0
  6
SLD-SOLID
 62
     7
100
AcDbLine
 10
126.0956058292
 20
8.632329363
 30
0.0
 11
126.0643559236
 21
8.632329363
 31
0.0
  0
LINE
  5
398
330
730
100
AcDbEntity
  8
0
  6
SLD-SOLID
 62
     7
100
AcDbLine
 10
126.0018558189
 20
8.632329363
 30
0.0
 11
125.9706059132
 21
8.632329363
 31
0.0
  0
LINE
  5
399
330
730
100
AcDbEntity
  8
0
  6
SLD-SOLID
 62
     7
100
AcDbLine
 10
122.7831058555
 20
8.632329363
 30
0.0
 11
122.7518558032
 21
8.632329363
 31
0.0
  0
LINE
  5
39A
330
730
100
AcDbEntity
  8
0
  6
SLD-SOLID
 62
     7
100
AcDbLine
 10
122.6893558452
 20
8.632329363
 30
0.0
 11
122.6581057929
 21
8.632329363
 31
0.0
  0
CIRCLE
  5
39B
330
730
100
AcDbEntity
  8
0
  6
SLD-SOLID
 62
     7
100
AcDbCircle
 10
124.37685586
 20
10.0323293538
 30
0.0
 40
0.375
  0
CIRCLE
  5
39C
330
730
100
AcDbEntity
  8
0
  6
SLD-SOLID
 62
     7
100
AcDbCircle
 10
122.40810586
 20
11.1729543538
 30
0.0
 40
0.0625
  0
CIRCLE
  5
39D
330
730
100
AcDbEntity
  8
0
  6
SLD-SOLID
 62
     7
100
AcDbCircle
 10
122.40810586
 20
8.8917043538
 30
0.0
 40
0.0625000000000142
  0
CIRCLE
  5
39E
330
730
100
AcDbEntity
  8
0
  6
SLD-SOLID
 62
     7
100
AcDbCircle
 10
126.34560586
 20
8.8917043538
 30
0.0
 40
0.0625
  0
CIRCLE
  5
39F
330
730
100
AcDbEntity
  8
0
  6
SLD-SOLID
 62
     7
100
AcDbCircle
 10
126.34560586
 20
11.1729543538
 30
0.0
 40
0.0625
  0
LINE
  5
3A0
330
730
100
AcDbEntity
  8
0
  6
SLD-SOLID
 62
     7
100
AcDbLine
 10
126.0956058292
 20
8.5974192129
 30
0.0
 11
125.9706059132
 21
8.5974192129
 31
0.0
  0
LINE
  5
3A1
330
730
100
AcDbEntity
  8
0
  6
SLD-SOLID
 62
     7
100
AcDbLine
 10
122.7831058555
 20
8.5974192129
 30
0.0
 11
122.6581057929
 21
8.5974192129
 31
0.0
  0
LINE
  5
3A2
330
730
100
AcDbEntity
  8
0
  6
SLD-SOLID
 62
     7
100
AcDbLine
 10
115.1037309816
 20
7.7823293531
 30
0.0
 11
115.1037309816
 21
7.7667043544
 31
0.0
  0
LINE
  5
3A3
330
730
100
AcDbEntity
  8
0
  6
SLD-SOLID
 62
     7
100
AcDbLine
 10
115.0174808314
 20
7.8529543581
 30
0.0
 11
115.0331059308
 21
7.8529543581
 31
0.0
  0
LINE
  5
3A4
330
730
100
AcDbEntity
  8
0
  6
SLD-SOLID
 62
     8
100
AcDbLine
 10
115.1231060112
 20
31.9698298995
 30
0.0
 11
115.1231060112
 21
27.4698294039
 31
0.0
  0
LINE
  5
3A5
330
730
100
AcDbEntity
  8
0
  6
SLD-SOLID
 62
     8
100
AcDbLine
 10
115.1231060112
 20
24.1573294302
 30
0.0
 11
115.1231060112
 21
13.2823294058
 31
0.0
  0
LINE
  5
3A6
330
730
100
AcDbEntity
  8
0
  6
SLD-SOLID
 62
     8
100
AcDbLine
 10
115.1231060112
 20
9.9698292854
 30
0.0
 11
115.1231060112
 21
7.7823293531
 31
0.0
  0
LINE
  5
3A7
330
730
100
AcDbEntity
  8
0
  6
SLD-SOLID
 62
     8
100
AcDbLine
 10
115.0224193343
 20
14.4697043825
 30
0.0
 11
115.0224193343
 21
24.1573294302
 31
0.0
  0
LINE
  5
3A8
330
730
100
AcDbEntity
  8
0
  6
SLD-SOLID
 62
     8
100
AcDbLine
 10
115.0224193343
 20
27.4698294039
 30
0.0
 11
115.0224193343
 21
30.4697053624
 31
0.0
  0
LINE
  5
3A9
330
730
100
AcDbEntity
  8
0
  6
SLD-SOLID
 62
     8
100
AcDbLine
 10
114.927480751
 20
14.434829212
 30
0.0
 11
114.927480751
 21
14.4697043825
 31
0.0
  0
LINE
  5
3AA
330
730
100
AcDbEntity
  8
0
  6
SLD-SOLID
 62
     8
100
AcDbLine
 10
114.2049803508
 20
14.4697043825
 30
0.0
 11
114.2049803508
 21
14.434829212
 31
0.0
  0
DIMENSION
  5
3AB
330
730
100
AcDbEntity
  8
DIM
 62
     7
100
AcDbDimension
  2
_D_7
 10
108.3979992327333
 20
7.7317043538
 30
0.0
 11
110.9396658994
 21
13.7672213258
 31
0.0
 70
   160
  1
<>
  3
SLDDIMSTYLE1
100
AcDbAlignedDimension
 13
119.14810586
 23
10.2823293538
 33
0.0
 14
115.58710586
 24
7.7317043538
 34
0.0
 50
90.0
100
AcDbRotatedDimension
1001
ACAD
1000
DSTYLE
1002
{
1070
   270
1070
     5
1070
    41
1040
0.75
1070
   176
1070
   256
1070
   177
1070
   256
1070
   178
1070
   256
1070
    44
1040
1.0
1070
    42
1040
0.5
1070
   276
1070
     0
1070
   147
1040
0.25
1070
   277
1070
     5
1070
     3
1000
"
1070
    45
1040
0.0
1070
   272
1070
     3
1070
   172
1070
     0
1070
   340
1005
7C1
1070
   140
1040
1.0
1070
   284
1070
    12
1002
}
  0
DIMENSION
  5
3BB
330
730
100
AcDbEntity
  8
DIM
 62
     7
100
AcDbDimension
  2
_D_8
 10
133.82623086
 20
-4.7962550923
 30
0.0
 11
110.703445427
 21
-4.7962550923
 31
0.0
 70
   160
  1
<> TYP
  3
SLDDIMSTYLE0
100
AcDbAlignedDimension
 13
120.12310586
 23
9.3073293538
 33
0.0
 14
133.82623086
 24
7.8217043538
 34
0.0
100
AcDbRotatedDimension
1001
ACAD
1000
DSTYLE
1002
{
1070
   270
1070
     5
1070
    41
1040
0.75
1070
   176
1070
   256
1070
   177
1070
   256
1070
   178
1070
   256
1070
    44
1040
1.0
1070
    42
1040
0.5
1070
   276
1070
     0
1070
   147
1040
0.25
1070
   277
1070
     5
1070
     3
1000
"
1070
    45
1040
0.0
1070
   272
1070
     3
1070
   340
1005
7C1
1070
   140
1040
1.0
1070
   284
1070
    12
1002
}
  0
DIMENSION
  5
3CB
330
730
100
AcDbEntity
  8
DIM
 62
     7
100
AcDbDimension
  2
_D_9
 10
133.82623086
 20
-0.7416579583
 30
0.0
 11
139.8136980112
 21
-0.7416579583
 31
0.0
 70
   160
  1
<> TYP
  3
SLDDIMSTYLE0
100
AcDbAlignedDimension
 13
124.37685586
 23
9.3073293538
 33
0.0
 14
133.82623086
 24
7.8217043538
 34
0.0
100
AcDbRotatedDimension
1001
ACAD
1000
DSTYLE
1002
{
1070
   270
1070
     5
1070
    41
1040
0.75
1070
   176
1070
   256
1070
   177
1070
   256
1070
   178
1070
   256
1070
    44
1040
1.0
1070
    42
1040
0.5
1070
   276
1070
     0
1070
   147
1040
0.25
1070
   277
1070
     5
1070
     3
1000
"
1070
    45
1040
0.0
1070
   272
1070
     3
1070
   340
1005
7C1
1070
   140
1040
1.0
1070
   284
1070
    12
1002
}
  0
DIMENSION
  5
3DB
330
730
100
AcDbEntity
  8
DIM
 62
     7
100
AcDbDimension
  2
_D_10
 10
133.82623086
 20
3.7121356974
 30
0.0
 11
139.8136980112
 21
3.7121356974
 31
0.0
 70
   160
  1
<>\PTYP
  3
SLDDIMSTYLE0
100
AcDbAlignedDimension
 13
128.63060586
 23
9.3073293538
 33
0.0
 14
133.82623086
 24
7.8217043538
 34
0.0
100
AcDbRotatedDimension
1001
ACAD
1000
DSTYLE
1002
{
1070
   270
1070
     5
1070
    41
1040
0.75
1070
   176
1070
   256
1070
   177
1070
   256
1070
   178
1070
   256
1070
    44
1040
1.0
1070
    42
1040
0.5
1070
   276
1070
     0
1070
   147
1040
0.25
1070
   277
1070
     5
1070
     3
1000
"
1070
    45
1040
0.0
1070
   272
1070
     3
1070
   340
1005
7C1
1070
   140
1040
1.0
1070
   284
1070
    12
1002
}
  0
DIMENSION
  5
3EB
330
730
100
AcDbEntity
  8
DIM
 62
     7
100
AcDbDimension
  2
_D_11
 10
122.9098066277333
 20
10.0323293538
 30
0.0
 11
125.4514732944
 21
18.4721632732
 31
0.0
 70
   160
  1
<>
  3
SLDDIMSTYLE1
100
AcDbAlignedDimension
 13
133.22160586
 23
7.7317043538
 33
0.0
 14
125.10185586
 24
10.0323293538
 34
0.0
 50
90.0
100
AcDbRotatedDimension
1001
ACAD
1000
DSTYLE
1002
{
1070
   270
1070
     5
1070
    41
1040
0.75
1070
   176
1070
   256
1070
   177
1070
   256
1070
   178
1070
   256
1070
    44
1040
1.0
1070
    42
1040
0.5
1070
   276
1070
     0
1070
   147
1040
0.25
1070
   277
1070
     5
1070
     3
1000
"
1070
    45
1040
0.0
1070
   272
1070
     3
1070
   172
1070
     0
1070
   340
1005
7C1
1070
   140
1040
1.0
1070
   284
1070
    12
1002
}
  0
DIMENSION
  5
3FA
330
730
100
AcDbEntity
  8
DIM
 62
     7
100
AcDbDimension
  2
_D_12
 10
111.6483273167
 20
49.5202543538
 30
0.0
 11
111.6483273167
 21
40.7703543538
 31
0.0
 70
   160
  1
<>
  3
SLDDIMSTYLE0
100
AcDbAlignedDimension
 13
115.07248086
 23
32.0204543538
 33
0.0
 14
114.98248086
 24
49.5202543538
 34
0.0
 50
90.0
100
AcDbRotatedDimension
1001
ACAD
1000
DSTYLE
1002
{
1070
   270
1070
     5
1070
    41
1040
0.75
1070
   176
1070
   256
1070
   177
1070
   256
1070
   178
1070
   256
1070
    44
1040
1.0
1070
    42
1040
0.5
1070
   276
1070
     0
1070
   147
1040
0.25
1070
   277
1070
     5
1070
     3
1000
"
1070
    45
1040
0.0
1070
   272
1070
     3
1070
   340
1005
7C1
1070
   140
1040
1.0
1070
   284
1070
    12
1002
}
  0
DIMENSION
  5
409
330
730
100
AcDbEntity
  8
DIM
 62
     7
100
AcDbDimension
  2
_D_13
 10
139.5297249545
 20
32.0204543538
 30
0.0
 11
139.5297249545
 21
19.8760793538
 31
0.0
 70
   160
  1
<>
  3
SLDDIMSTYLE0
100
AcDbAlignedDimension
 13
133.22160586
 23
7.7317043538
 33
0.0
 14
133.73623086
 24
32.0204543538
 34
0.0
 50
90.0
100
AcDbRotatedDimension
1001
ACAD
1000
DSTYLE
1002
{
1070
   270
1070
     5
1070
    41
1040
0.75
1070
   176
1070
   256
1070
   177
1070
   256
1070
   178
1070
   256
1070
    44
1040
1.0
1070
    42
1040
0.5
1070
   276
1070
     0
1070
   147
1040
0.25
1070
   277
1070
     5
1070
     3
1000
"
1070
    45
1040
0.0
1070
   272
1070
     3
1070
   340
1005
7C1
1070
   140
1040
1.0
1070
   284
1070
    12
1002
}
  0
DIMENSION
  5
418
330
730
100
AcDbEntity
  8
DIM
 62
     7
100
AcDbDimension
  2
_D_14
 10
133.82623086
 20
52.9132462168
 30
0.0
 11
124.42185586
 21
52.9132462168
 31
0.0
 70
   160
  1
<>
  3
SLDDIMSTYLE0
100
AcDbAlignedDimension
 13
115.01748086
 23
49.5202543538
 33
0.0
 14
133.82623086
 24
31.9304543538
 34
0.0
100
AcDbRotatedDimension
1001
ACAD
1000
DSTYLE
1002
{
1070
   270
1070
     5
1070
    41
1040
0.75
1070
   176
1070
   256
1070
   177
1070
   256
1070
   178
1070
   256
1070
    44
1040
1.0
1070
    42
1040
0.5
1070
   276
1070
     0
1070
   147
1040
0.25
1070
   277
1070
     5
1070
     3
1000
"
1070
    45
1040
0.0
1070
   272
1070
     3
1070
   340
1005
7C1
1070
   140
1040
1.0
1070
   284
1070
    12
1002
}
  0
INSERT
  5
432
330
730
100
AcDbEntity
  8
SLD-0
 62
     7
100
AcDbBlockReference
  2
SW_CENTERMARKSYMBOL_0
 10
128.63060586
 20
10.2823293538
 30
0.0
  0
INSERT
  5
43E
330
730
100
AcDbEntity
  8
SLD-0
 62
     7
100
AcDbBlockReference
  2
SW_CENTERMARKSYMBOL_1
 10
124.37685586
 20
10.0323293538
 30
0.0
  0
INSERT
  5
44A
330
730
100
AcDbEntity
  8
SLD-0
 62
     7
100
AcDbBlockReference
  2
SW_CENTERMARKSYMBOL_2
 10
120.12310586
 20
10.2823293538
 30
0.0
  0
LINE
  5
44B
330
730
100
AcDbEntity
  8
0
  6
SLD-SOLID
 62
     7
100
AcDbLine
 10
22.6987208752
 20
14.4697043825
 30
0.0
 11
22.6987208752
 21
30.4697053624
 31
0.0
  0
LINE
  5
44C
330
730
100
AcDbEntity
  8
0
  6
SLD-SOLID
 62
     7
100
AcDbLine
 10
10.916854367
 20
11.2524952813
 30
0.0
 11
10.9264977356
 21
11.2424402241
 31
0.0
  0
LINE
  5
44D
330
730
100
AcDbEntity
  8
0
  6
SLD-SOLID
 62
     7
100
AcDbLine
 10
12.3707887602
 20
10.6391957528
 30
0.0
 11
13.1044028363
 21
10.2545630495
 31
0.0
  0
LINE
  5
44E
330
730
100
AcDbEntity
  8
0
  6
SLD-SOLID
 62
     7
100
AcDbLine
 10
15.9614045986
 20
9.9578027577
 30
0.0
 11
17.5902942349
 21
10.5974252754
 31
0.0
  0
LINE
  5
44F
330
730
100
AcDbEntity
  8
0
  6
SLD-SOLID
 62
     7
100
AcDbLine
 10
17.376872647
 20
10.9164955094
 30
0.0
 11
15.9006973266
 21
10.3368397523
 31
0.0
  0
LINE
  5
450
330
730
100
AcDbEntity
  8
0
  6
SLD-SOLID
 62
     7
100
AcDbLine
 10
21.1646228639
 20
32.0204539547
 30
0.0
 11
21.1646228639
 21
32.0554540837
 31
0.0
  0
LINE
  5
451
330
730
100
AcDbEntity
  8
0
  6
SLD-SOLID
 62
     7
100
AcDbLine
 10
21.819622764
 20
32.0554540837
 30
0.0
 11
21.1646228639
 21
32.0554540837
 31
0.0
  0
LINE
  5
452
330
730
100
AcDbEntity
  8
0
  6
SLD-SOLID
 62
     7
100
AcDbLine
 10
21.819622764
 20
32.0204539547
 30
0.0
 11
21.819622764
 21
32.0554540837
 31
0.0
  0
LINE
  5
453
330
730
100
AcDbEntity
  8
0
  6
SLD-SOLID
 62
     7
100
AcDbLine
 10
21.3046227933
 20
32.1041820542
 30
0.0
 11
21.6796228346
 21
32.1041820542
 31
0.0
  0
LINE
  5
454
330
730
100
AcDbEntity
  8
0
  6
SLD-SOLID
 62
     7
100
AcDbLine
 10
21.6796228346
 20
32.0555878422
 30
0.0
 11
21.3046227933
 21
32.0555878422
 31
0.0
  0
LINE
  5
455
330
730
100
AcDbEntity
  8
0
  6
SLD-SOLID
 62
     7
100
AcDbLine
 10
21.6796228346
 20
32.1066202127
 30
0.0
 11
21.6796228346
 21
32.0555878422
 31
0.0
  0
LINE
  5
456
330
730
100
AcDbEntity
  8
0
  6
SLD-SOLID
 62
     7
100
AcDbLine
 10
21.3046227933
 20
32.1066202127
 30
0.0
 11
21.6796228346
 21
32.1066202127
 31
0.0
  0
LINE
  5
457
330
730
100
AcDbEntity
  8
0
  6
SLD-SOLID
 62
     7
100
AcDbLine
 10
21.3046227933
 20
32.0555878422
 30
0.0
 11
21.3046227933
 21
32.1066202127
 31
0.0
  0
LINE
  5
458
330
730
100
AcDbEntity
  8
0
  6
SLD-SOLID
 62
     7
100
AcDbLine
 10
21.819622764
 20
32.1104546217
 30
0.0
 11
21.1646228639
 21
32.1104546217
 31
0.0
  0
LINE
  5
459
330
730
100
AcDbEntity
  8
0
  6
SLD-SOLID
 62
     7
100
AcDbLine
 10
21.819622764
 20
32.0554540837
 30
0.0
 11
21.819622764
 21
32.1104546217
 31
0.0
  0
LINE
  5
45A
330
730
100
AcDbEntity
  8
0
  6
SLD-SOLID
 62
     7
100
AcDbLine
 10
21.1646228639
 20
32.1104546217
 30
0.0
 11
21.1646228639
 21
32.0554540837
 31
0.0
  0
LINE
  5
45B
330
730
100
AcDbEntity
  8
0
  6
SLD-SOLID
 62
     7
100
AcDbLine
 10
21.8246228662
 20
48.5202563076
 30
0.0
 11
21.8246228662
 21
32.1154553106
 31
0.0
  0
LINE
  5
45C
330
730
100
AcDbEntity
  8
0
  6
SLD-SOLID
 62
     7
100
AcDbLine
 10
21.8246228662
 20
32.1154553106
 30
0.0
 11
21.819622764
 21
32.1154553106
 31
0.0
  0
LINE
  5
45D
330
730
100
AcDbEntity
  8
0
  6
SLD-SOLID
 62
     7
100
AcDbLine
 10
21.819622764
 20
32.1154553106
 30
0.0
 11
21.819622764
 21
32.1104546217
 31
0.0
  0
LINE
  5
45E
330
730
100
AcDbEntity
  8
0
  6
SLD-SOLID
 62
     7
100
AcDbLine
 10
21.1646228639
 20
48.5202563076
 30
0.0
 11
21.8246228662
 21
48.5202563076
 31
0.0
  0
LINE
  5
45F
330
730
100
AcDbEntity
  8
0
  6
SLD-SOLID
 62
     7
100
AcDbLine
 10
21.1646228639
 20
48.5202563076
 30
0.0
 11
21.1646228639
 21
32.1104546217
 31
0.0
  0
LINE
  5
460
330
730
100
AcDbEntity
  8
0
  6
SLD-SOLID
 62
     7
100
AcDbLine
 10
21.9146229465
 20
48.5202563076
 30
0.0
 11
21.9146229465
 21
32.1154553106
 31
0.0
  0
LINE
  5
461
330
730
100
AcDbEntity
  8
0
  6
SLD-SOLID
 62
     7
100
AcDbLine
 10
21.9146229465
 20
48.5202563076
 30
0.0
 11
21.8246228662
 21
48.5202563076
 31
0.0
  0
LINE
  5
462
330
730
100
AcDbEntity
  8
0
  6
SLD-SOLID
 62
     7
100
AcDbLine
 10
21.8246228662
 20
32.1154553106
 30
0.0
 11
21.9146229465
 21
32.1154553106
 31
0.0
  0
LINE
  5
463
330
730
100
AcDbEntity
  8
0
  6
SLD-SOLID
 62
     7
100
AcDbLine
 10
21.8796228175
 20
49.5202532889
 30
0.0
 11
21.9146229465
 21
49.5202532889
 31
0.0
  0
LINE
  5
464
330
730
100
AcDbEntity
  8
0
  6
SLD-SOLID
 62
     7
100
AcDbLine
 10
21.8796228175
 20
48.5202563076
 30
0.0
 11
21.8796228175
 21
49.5202532889
 31
0.0
  0
LINE
  5
465
330
730
100
AcDbEntity
  8
0
  6
SLD-SOLID
 62
     7
100
AcDbLine
 10
21.9146229465
 20
48.5202563076
 30
0.0
 11
21.9146229465
 21
49.5202532889
 31
0.0
  0
ARC
  5
466
330
730
100
AcDbEntity
  8
0
  6
SLD-SOLID
 62
     7
100
AcDbCircle
 10
3.6219832451
 20
31.8551815061
 30
0.0
 40
0.1737975874983279
100
AcDbArc
 50
25.66447242650001
 51
71.979869626
  0
LINE
  5
467
330
730
100
AcDbEntity
  8
0
  6
SLD-SOLID
 62
     7
100
AcDbLine
 10
3.6757477235
 20
32.0204539547
 30
0.0
 11
21.3097478541
 21
32.0204539547
 31
0.0
  0
ARC
  5
468
330
730
100
AcDbEntity
  8
0
  6
SLD-SOLID
 62
     7
100
AcDbCircle
 10
21.3635123325
 20
31.8551815061
 30
0.0
 40
0.1737975874983152
100
AcDbArc
 50
108.020130374
 51
154.3355275735
  0
LINE
  5
469
330
730
100
AcDbEntity
  8
0
  6
SLD-SOLID
 62
     7
100
AcDbLine
 10
21.206860616
 20
31.9304532877
 30
0.0
 11
3.7786349617
 21
31.9304532877
 31
0.0
  0
LINE
  5
46A
330
730
100
AcDbEntity
  8
0
  6
SLD-SOLID
 62
     7
100
AcDbLine
 10
3.7786349617
 20
31.9304532877
 30
0.0
 11
4.3486348836
 21
31.3604545391
 31
0.0
  0
LINE
  5
46B
330
730
100
AcDbEntity
  8
0
  6
SLD-SOLID
 62
     7
100
AcDbLine
 10
20.636860694
 20
31.3604545391
 30
0.0
 11
21.206860616
 21
31.9304532877
 31
0.0
  0
LINE
  5
46C
330
730
100
AcDbEntity
  8
0
  6
SLD-SOLID
 62
     7
100
AcDbLine
 10
4.3486348836
 20
31.3604545391
 30
0.0
 11
20.636860694
 21
31.3604545391
 31
0.0
  0
CIRCLE
  5
46D
330
730
100
AcDbEntity
  8
0
  6
SLD-SOLID
 62
     7
100
AcDbCircle
 10
5.1177477888
 20
31.6729543538
 30
0.0
 40
0.109375
  0
CIRCLE
  5
46E
330
730
100
AcDbEntity
  8
0
  6
SLD-SOLID
 62
     7
100
AcDbCircle
 10
12.4927477888
 20
31.6729543538
 30
0.0
 40
0.109375
  0
CIRCLE
  5
46F
330
730
100
AcDbEntity
  8
0
  6
SLD-SOLID
 62
     7
100
AcDbCircle
 10
19.8677477888
 20
31.6729543538
 30
0.0
 40
0.1093749999999964
  0
ARC
  5
470
330
730
100
AcDbEntity
  8
0
  6
SLD-SOLID
 62
     7
100
AcDbCircle
 10
3.6481692643
 20
31.8101302137
 30
0.0
 40
0.1774794082106447
100
AcDbArc
 50
42.68405506519999
 51
81.0606058885
  0
LINE
  5
471
330
730
100
AcDbEntity
  8
0
  6
SLD-SOLID
 62
     7
100
AcDbLine
 10
3.6757477235
 20
31.9854538257
 30
0.0
 11
3.6757477235
 21
32.0204539547
 31
0.0
  0
ARC
  5
472
330
730
100
AcDbEntity
  8
0
  6
SLD-SOLID
 62
     7
100
AcDbCircle
 10
21.3373263134
 20
31.8101302137
 30
0.0
 40
0.1774794082106292
100
AcDbArc
 50
98.93939411149998
 51
137.3159449348
  0
LINE
  5
473
330
730
100
AcDbEntity
  8
0
  6
SLD-SOLID
 62
     7
100
AcDbLine
 10
21.3097478541
 20
32.0204539547
 30
0.0
 11
21.3097478541
 21
31.9854538257
 31
0.0
  0
LINE
  5
474
330
730
100
AcDbEntity
  8
0
  6
SLD-SOLID
 62
     7
100
AcDbLine
 10
3.660872962
 20
31.9854538257
 30
0.0
 11
3.660872962
 21
32.0204539547
 31
0.0
  0
LINE
  5
475
330
730
100
AcDbEntity
  8
0
  6
SLD-SOLID
 62
     7
100
AcDbLine
 10
3.660872962
 20
31.9854538257
 30
0.0
 11
3.6757477235
 21
31.9854538257
 31
0.0
  0
LINE
  5
476
330
730
100
AcDbEntity
  8
0
  6
SLD-SOLID
 62
     7
100
AcDbLine
 10
3.660872962
 20
32.0204539547
 30
0.0
 11
3.6757477235
 21
32.0204539547
 31
0.0
  0
LINE
  5
477
330
730
100
AcDbEntity
  8
0
  6
SLD-SOLID
 62
     7
100
AcDbLine
 10
21.3246226156
 20
32.0204539547
 30
0.0
 11
21.3246226156
 21
31.9854538257
 31
0.0
  0
LINE
  5
478
330
730
100
AcDbEntity
  8
0
  6
SLD-SOLID
 62
     7
100
AcDbLine
 10
21.3097478541
 20
31.9854538257
 30
0.0
 11
21.3246226156
 21
31.9854538257
 31
0.0
  0
LINE
  5
479
330
730
100
AcDbEntity
  8
0
  6
SLD-SOLID
 62
     7
100
AcDbLine
 10
21.3097478541
 20
32.0204539547
 30
0.0
 11
21.3246226156
 21
32.0204539547
 31
0.0
  0
ARC
  5
47A
330
730
100
AcDbEntity
  8
0
  6
SLD-SOLID
 62
     7
100
AcDbCircle
 10
21.8246227888
 20
31.9304543538
 30
0.0
 40
0.0550000000000033
100
AcDbArc
 50
0.0
 51
90.0
  0
LINE
  5
47B
330
730
100
AcDbEntity
  8
0
  6
SLD-SOLID
 62
     7
100
AcDbLine
 10
21.8246228662
 20
31.9854538257
 30
0.0
 11
21.8246228662
 21
32.0204539547
 31
0.0
  0
ARC
  5
47C
330
730
100
AcDbEntity
  8
0
  6
SLD-SOLID
 62
     7
100
AcDbCircle
 10
21.8246227888
 20
31.9304543538
 30
0.0
 40
0.0900000000000034
100
AcDbArc
 50
0.0
 51
90.0
  0
LINE
  5
47D
330
730
100
AcDbEntity
  8
0
  6
SLD-SOLID
 62
     7
100
AcDbLine
 10
21.8796228175
 20
31.9304532877
 30
0.0
 11
21.9146229465
 21
31.9304532877
 31
0.0
  0
LINE
  5
47E
330
730
100
AcDbEntity
  8
0
  6
SLD-SOLID
 62
     7
100
AcDbLine
 10
21.3246226156
 20
31.9854538257
 30
0.0
 11
21.8246228662
 21
31.9854538257
 31
0.0
  0
LINE
  5
47F
330
730
100
AcDbEntity
  8
0
  6
SLD-SOLID
 62
     7
100
AcDbLine
 10
21.3246226156
 20
32.0204539547
 30
0.0
 11
21.8246228662
 21
32.0204539547
 31
0.0
  0
LINE
  5
480
330
730
100
AcDbEntity
  8
0
  6
SLD-SOLID
 62
     7
100
AcDbLine
 10
3.1608727114
 20
31.9854538257
 30
0.0
 11
3.1608727114
 21
32.0204539547
 31
0.0
  0
LINE
  5
481
330
730
100
AcDbEntity
  8
0
  6
SLD-SOLID
 62
     7
100
AcDbLine
 10
3.1058727601
 20
31.9304532877
 30
0.0
 11
3.0708726311
 21
31.9304532877
 31
0.0
  0
ARC
  5
482
330
730
100
AcDbEntity
  8
0
  6
SLD-SOLID
 62
     7
100
AcDbCircle
 10
3.1608727888
 20
31.9304543538
 30
0.0
 40
0.0900000000000034
100
AcDbArc
 50
90.0
 51
180.0
  0
ARC
  5
483
330
730
100
AcDbEntity
  8
0
  6
SLD-SOLID
 62
     7
100
AcDbCircle
 10
3.1608727888
 20
31.9304543538
 30
0.0
 40
0.0550000000000033
100
AcDbArc
 50
90.0
 51
180.0
  0
LINE
  5
484
330
730
100
AcDbEntity
  8
0
  6
SLD-SOLID
 62
     7
100
AcDbLine
 10
3.1608727114
 20
31.9854538257
 30
0.0
 11
3.660872962
 21
31.9854538257
 31
0.0
  0
LINE
  5
485
330
730
100
AcDbEntity
  8
0
  6
SLD-SOLID
 62
     7
100
AcDbLine
 10
3.1608727114
 20
32.0204539547
 30
0.0
 11
3.660872962
 21
32.0204539547
 31
0.0
  0
LINE
  5
486
330
730
100
AcDbEntity
  8
0
  6
SLD-SOLID
 62
     7
100
AcDbLine
 10
3.0708726311
 20
31.3604545391
 30
0.0
 11
3.1058727601
 21
31.3604545391
 31
0.0
  0
LINE
  5
487
330
730
100
AcDbEntity
  8
0
  6
SLD-SOLID
 62
     7
100
AcDbLine
 10
3.1058727601
 20
31.9304532877
 30
0.0
 11
3.1058727601
 21
31.3604545391
 31
0.0
  0
LINE
  5
488
330
730
100
AcDbEntity
  8
0
  6
SLD-SOLID
 62
     7
100
AcDbLine
 10
3.0708726311
 20
31.9304532877
 30
0.0
 11
3.0708726311
 21
31.3604545391
 31
0.0
  0
LINE
  5
489
330
730
100
AcDbEntity
  8
0
  6
SLD-SOLID
 62
     7
100
AcDbLine
 10
21.8796228175
 20
30.5748301214
 30
0.0
 11
21.8796228175
 21
31.9304532877
 31
0.0
  0
LINE
  5
48A
330
730
100
AcDbEntity
  8
0
  6
SLD-SOLID
 62
     7
100
AcDbLine
 10
21.9146229465
 20
30.5748301214
 30
0.0
 11
21.9146229465
 21
31.9304532877
 31
0.0
  0
LINE
  5
48B
330
730
100
AcDbEntity
  8
0
  6
SLD-SOLID
 62
     7
100
AcDbLine
 10
21.9146229465
 20
30.5748301214
 30
0.0
 11
21.8796228175
 21
30.5748301214
 31
0.0
  0
LINE
  5
48C
330
730
100
AcDbEntity
  8
0
  6
SLD-SOLID
 62
     7
100
AcDbLine
 10
21.7739976377
 20
7.7823293531
 30
0.0
 11
21.2595984067
 21
7.7823293531
 31
0.0
  0
LINE
  5
48D
330
730
100
AcDbEntity
  8
0
  6
SLD-SOLID
 62
     7
100
AcDbLine
 10
3.7258971709
 20
7.7823293531
 30
0.0
 11
3.2114979399
 21
7.7823293531
 31
0.0
  0
LINE
  5
48E
330
730
100
AcDbEntity
  8
0
  6
SLD-SOLID
 62
     7
100
AcDbLine
 10
3.2114979399
 20
7.7823293531
 30
0.0
 11
3.2114979399
 21
31.9698298995
 31
0.0
  0
LINE
  5
48F
330
730
100
AcDbEntity
  8
0
  6
SLD-SOLID
 62
     7
100
AcDbLine
 10
3.2114979399
 20
31.9698298995
 30
0.0
 11
3.726147088
 21
31.9698298995
 31
0.0
  0
LINE
  5
490
330
730
100
AcDbEntity
  8
0
  6
SLD-SOLID
 62
     7
100
AcDbLine
 10
21.2593484896
 20
31.9698298995
 30
0.0
 11
21.7739976377
 21
31.9698298995
 31
0.0
  0
CIRCLE
  5
491
330
730
100
AcDbEntity
  8
0
  6
SLD-SOLID
 62
     7
100
AcDbCircle
 10
19.8677477888
 20
31.6729543538
 30
0.0
 40
0.0859999999999985
  0
CIRCLE
  5
492
330
730
100
AcDbEntity
  8
0
  6
SLD-SOLID
 62
     7
100
AcDbCircle
 10
12.4927477888
 20
31.6729543538
 30
0.0
 40
0.0860000000000021
  0
CIRCLE
  5
493
330
730
100
AcDbEntity
  8
0
  6
SLD-SOLID
 62
     7
100
AcDbCircle
 10
5.1177477888
 20
31.6729543538
 30
0.0
 40
0.0859999999999994
  0
CIRCLE
  5
494
330
730
100
AcDbEntity
  8
0
  6
SLD-SOLID
 62
     7
100
AcDbCircle
 10
5.1177477888
 20
8.0792043538
 30
0.0
 40
0.0860000000000003
  0
CIRCLE
  5
495
330
730
100
AcDbEntity
  8
0
  6
SLD-SOLID
 62
     7
100
AcDbCircle
 10
12.4927477888
 20
8.0792043538
 30
0.0
 40
0.0860000000000021
  0
CIRCLE
  5
496
330
730
100
AcDbEntity
  8
0
  6
SLD-SOLID
 62
     7
100
AcDbCircle
 10
19.8677477888
 20
8.0792043538
 30
0.0
 40
0.0859999999999985
  0
CIRCLE
  5
497
330
730
100
AcDbEntity
  8
0
  6
SLD-SOLID
 62
     7
100
AcDbCircle
 10
12.5202477888
 20
10.0323293538
 30
0.0
 40
0.625
  0
CIRCLE
  5
498
330
730
100
AcDbEntity
  8
0
  6
SLD-SOLID
 62
     7
100
AcDbCircle
 10
16.7739977888
 20
10.2823293538
 30
0.0
 40
0.875
  0
CIRCLE
  5
499
330
730
100
AcDbEntity
  8
0
  6
SLD-SOLID
 62
     7
100
AcDbCircle
 10
8.2664977888
 20
10.2823293538
 30
0.0
 40
0.875
  0
CIRCLE
  5
49A
330
730
100
AcDbEntity
  8
0
  6
SLD-SOLID
 62
     7
100
AcDbCircle
 10
20.7196227888
 20
13.0323293538
 30
0.0
 40
0.0859999999999985
  0
CIRCLE
  5
49B
330
730
100
AcDbEntity
  8
0
  6
SLD-SOLID
 62
     7
100
AcDbCircle
 10
20.7196227888
 20
10.5323293538
 30
0.0
 40
0.0859999999999985
  0
CIRCLE
  5
49C
330
730
100
AcDbEntity
  8
0
  6
SLD-SOLID
 62
     7
100
AcDbCircle
 10
20.7196227888
 20
24.7198293538
 30
0.0
 40
0.0859999999999985
  0
CIRCLE
  5
49D
330
730
100
AcDbEntity
  8
0
  6
SLD-SOLID
 62
     7
100
AcDbCircle
 10
20.7196227888
 20
27.2198293538
 30
0.0
 40
0.0859999999999985
  0
CIRCLE
  5
49E
330
730
100
AcDbEntity
  8
0
  6
SLD-SOLID
 62
     7
100
AcDbCircle
 10
14.4889977888
 20
11.1729543538
 30
0.0
 40
0.1015000000000015
  0
CIRCLE
  5
49F
330
730
100
AcDbEntity
  8
0
  6
SLD-SOLID
 62
     7
100
AcDbCircle
 10
10.5514977888
 20
11.1729543538
 30
0.0
 40
0.1014999999999997
  0
CIRCLE
  5
4A0
330
730
100
AcDbEntity
  8
0
  6
SLD-SOLID
 62
     7
100
AcDbCircle
 10
10.5514977888
 20
8.8917043538
 30
0.0
 40
0.1014999999999997
  0
CIRCLE
  5
4A1
330
730
100
AcDbEntity
  8
0
  6
SLD-SOLID
 62
     7
100
AcDbCircle
 10
14.4889977888
 20
8.8917043538
 30
0.0
 40
0.1015000000000015
  0
LINE
  5
4A2
330
730
100
AcDbEntity
  8
0
  6
SLD-SOLID
 62
     7
100
AcDbLine
 10
14.238997856
 20
10.8917044358
 30
0.0
 11
14.1139977933
 21
10.8917044358
 31
0.0
  0
LINE
  5
4A3
330
730
100
AcDbEntity
  8
0
  6
SLD-SOLID
 62
     7
100
AcDbLine
 10
14.238997856
 20
11.5167043091
 30
0.0
 11
14.238997856
 21
10.8917044358
 31
0.0
  0
LINE
  5
4A4
330
730
100
AcDbEntity
  8
0
  6
SLD-SOLID
 62
     7
100
AcDbLine
 10
14.1139977933
 20
11.5167043091
 30
0.0
 11
14.238997856
 21
11.5167043091
 31
0.0
  0
LINE
  5
4A5
330
730
100
AcDbEntity
  8
0
  6
SLD-SOLID
 62
     7
100
AcDbLine
 10
14.1139977933
 20
10.8917044358
 30
0.0
 11
14.1139977933
 21
11.5167043091
 31
0.0
  0
LINE
  5
4A6
330
730
100
AcDbEntity
  8
0
  6
SLD-SOLID
 62
     7
100
AcDbLine
 10
14.1139977933
 20
9.1729543443
 30
0.0
 11
14.238997856
 21
9.1729543443
 31
0.0
  0
LINE
  5
4A7
330
730
100
AcDbEntity
  8
0
  6
SLD-SOLID
 62
     7
100
AcDbLine
 10
14.1139977933
 20
8.5479543244
 30
0.0
 11
14.1139977933
 21
9.1729543443
 31
0.0
  0
LINE
  5
4A8
330
730
100
AcDbEntity
  8
0
  6
SLD-SOLID
 62
     7
100
AcDbLine
 10
14.238997856
 20
8.5479543244
 30
0.0
 11
14.1139977933
 21
8.5479543244
 31
0.0
  0
LINE
  5
4A9
330
730
100
AcDbEntity
  8
0
  6
SLD-SOLID
 62
     7
100
AcDbLine
 10
14.238997856
 20
9.1729543443
 30
0.0
 11
14.238997856
 21
8.5479543244
 31
0.0
  0
LINE
  5
4AA
330
730
100
AcDbEntity
  8
0
  6
SLD-SOLID
 62
     7
100
AcDbLine
 10
10.9264977356
 20
8.5479543244
 30
0.0
 11
10.8014978196
 21
8.5479543244
 31
0.0
  0
LINE
  5
4AB
330
730
100
AcDbEntity
  8
0
  6
SLD-SOLID
 62
     7
100
AcDbLine
 10
10.9264977356
 20
9.1729543443
 30
0.0
 11
10.9264977356
 21
8.5479543244
 31
0.0
  0
LINE
  5
4AC
330
730
100
AcDbEntity
  8
0
  6
SLD-SOLID
 62
     7
100
AcDbLine
 10
10.8014978196
 20
9.1729543443
 30
0.0
 11
10.9264977356
 21
9.1729543443
 31
0.0
  0
LINE
  5
4AD
330
730
100
AcDbEntity
  8
0
  6
SLD-SOLID
 62
     7
100
AcDbLine
 10
10.8014978196
 20
8.5479543244
 30
0.0
 11
10.8014978196
 21
9.1729543443
 31
0.0
  0
LINE
  5
4AE
330
730
100
AcDbEntity
  8
0
  6
SLD-SOLID
 62
     7
100
AcDbLine
 10
10.9264977356
 20
10.8917044358
 30
0.0
 11
10.8014978196
 21
10.8917044358
 31
0.0
  0
LINE
  5
4AF
330
730
100
AcDbEntity
  8
0
  6
SLD-SOLID
 62
     7
100
AcDbLine
 10
10.9264977356
 20
11.5167043091
 30
0.0
 11
10.9264977356
 21
10.8917044358
 31
0.0
  0
LINE
  5
4B0
330
730
100
AcDbEntity
  8
0
  6
SLD-SOLID
 62
     7
100
AcDbLine
 10
10.8014978196
 20
11.5167043091
 30
0.0
 11
10.9264977356
 21
11.5167043091
 31
0.0
  0
LINE
  5
4B1
330
730
100
AcDbEntity
  8
0
  6
SLD-SOLID
 62
     7
100
AcDbLine
 10
10.8014978196
 20
10.8917044358
 30
0.0
 11
10.8014978196
 21
11.5167043091
 31
0.0
  0
LINE
  5
4B2
330
730
100
AcDbEntity
  8
0
  6
SLD-SOLID
 62
     7
100
AcDbLine
 10
3.1214978596
 20
31.9688560441
 30
0.0
 11
3.1214978596
 21
7.7833037127
 31
0.0
  0
LINE
  5
4B3
330
730
100
AcDbEntity
  8
0
  6
SLD-SOLID
 62
     7
100
AcDbLine
 10
3.2114979399
 20
31.9698298995
 30
0.0
 11
3.1224723017
 21
31.9698298995
 31
0.0
  0
LINE
  5
4B4
330
730
100
AcDbEntity
  8
0
  6
SLD-SOLID
 62
     7
100
AcDbLine
 10
3.1224723017
 20
7.7823293531
 30
0.0
 11
3.2114979399
 21
7.7823293531
 31
0.0
  0
LINE
  5
4B5
330
730
100
AcDbEntity
  8
0
  6
SLD-SOLID
 62
     7
100
AcDbLine
 10
21.863997718
 20
7.7833037127
 30
0.0
 11
21.863997718
 21
10.2823293687
 31
0.0
  0
LINE
  5
4B6
330
730
100
AcDbEntity
  8
0
  6
SLD-SOLID
 62
     7
100
AcDbLine
 10
21.863997718
 20
13.5948296358
 30
0.0
 11
21.863997718
 21
24.4698290735
 31
0.0
  0
LINE
  5
4B7
330
730
100
AcDbEntity
  8
0
  6
SLD-SOLID
 62
     7
100
AcDbLine
 10
21.863997718
 20
27.7823290472
 30
0.0
 11
21.863997718
 21
31.9688560441
 31
0.0
  0
LINE
  5
4B8
330
730
100
AcDbEntity
  8
0
  6
SLD-SOLID
 62
     7
100
AcDbLine
 10
21.7739976377
 20
7.7823293531
 30
0.0
 11
21.8630232759
 21
7.7823293531
 31
0.0
  0
LINE
  5
4B9
330
730
100
AcDbEntity
  8
0
  6
SLD-SOLID
 62
     7
100
AcDbLine
 10
21.8630232759
 20
31.9698298995
 30
0.0
 11
21.7739976377
 21
31.9698298995
 31
0.0
  0
LINE
  5
4BA
330
730
100
AcDbEntity
  8
0
  6
SLD-SOLID
 62
     7
100
AcDbLine
 10
22.6030190474
 20
30.6087953823
 30
0.0
 11
21.9328246562
 21
30.5146059637
 31
0.0
  0
ARC
  5
4BB
330
730
100
AcDbEntity
  8
0
  6
SLD-SOLID
 62
     7
100
AcDbCircle
 10
21.9202992714
 20
30.6037298498
 30
0.0
 40
0.0900000000000026
100
AcDbArc
 50
231.2758148141
 51
278.0
  0
ARC
  5
4BC
330
730
100
AcDbEntity
  8
0
  6
SLD-SOLID
 62
     7
100
AcDbCircle
 10
21.9202992714
 20
30.6037298498
 30
0.0
 40
0.0549999999999968
100
AcDbArc
 50
180.0
 51
278.0
  0
LINE
  5
4BD
330
730
100
AcDbEntity
  8
0
  6
SLD-SOLID
 62
     7
100
AcDbLine
 10
21.9279536192
 20
30.54926583
 30
0.0
 11
22.5981474237
 21
30.6434552486
 31
0.0
  0
ARC
  5
4BE
330
730
100
AcDbEntity
  8
0
  6
SLD-SOLID
 62
     7
100
AcDbCircle
 10
22.6102977888
 20
30.5570043538
 30
0.0
 40
0.0873000000000097
100
AcDbArc
 50
270.0
 51
97.99999999999999
  0
ARC
  5
4BF
330
730
100
AcDbEntity
  8
0
  6
SLD-SOLID
 62
     7
100
AcDbCircle
 10
22.6102977888
 20
30.5570043538
 30
0.0
 40
0.0522999999999906
100
AcDbArc
 50
270.0
 51
97.99999999999999
  0
LINE
  5
4C0
330
730
100
AcDbEntity
  8
0
  6
SLD-SOLID
 62
     7
100
AcDbLine
 10
21.863997718
 20
31.2978297692
 30
0.0
 11
21.8652995163
 21
31.2978297692
 31
0.0
  0
LINE
  5
4C1
330
730
100
AcDbEntity
  8
0
  6
SLD-SOLID
 62
     7
100
AcDbLine
 10
21.8652995163
 20
31.2978297692
 30
0.0
 11
21.8652995163
 21
30.6037289875
 31
0.0
  0
LINE
  5
4C2
330
730
100
AcDbEntity
  8
0
  6
SLD-SOLID
 62
     7
100
AcDbLine
 10
21.863997718
 20
30.5047054914
 30
0.0
 11
22.6102983233
 21
30.5047054914
 31
0.0
  0
LINE
  5
4C3
330
730
100
AcDbEntity
  8
0
  6
SLD-SOLID
 62
     7
100
AcDbLine
 10
3.2818355274
 20
31.9854045463
 30
0.0
 11
3.2818355274
 21
31.9698298995
 31
0.0
  0
LINE
  5
4C4
330
730
100
AcDbEntity
  8
0
  6
SLD-SOLID
 62
     7
100
AcDbLine
 10
21.672460304
 20
31.9854045463
 30
0.0
 11
21.672460304
 21
31.9698298995
 31
0.0
  0
LINE
  5
4C5
330
730
100
AcDbEntity
  8
0
  6
SLD-SOLID
 62
     7
100
AcDbLine
 10
21.672460304
 20
31.9854045463
 30
0.0
 11
21.3094404443
 21
31.9854045463
 31
0.0
  0
LINE
  5
4C6
330
730
100
AcDbEntity
  8
0
  6
SLD-SOLID
 62
     7
100
AcDbLine
 10
3.6760551333
 20
31.9854045463
 30
0.0
 11
3.2818355274
 21
31.9854045463
 31
0.0
  0
LINE
  5
4C7
330
730
100
AcDbEntity
  8
0
  6
SLD-SOLID
 62
     7
100
AcDbLine
 10
22.6987208752
 20
14.4697043825
 30
0.0
 11
22.5998851103
 21
14.4697043825
 31
0.0
  0
LINE
  5
4C8
330
730
100
AcDbEntity
  8
0
  6
SLD-SOLID
 62
     7
100
AcDbLine
 10
22.5998851103
 20
30.4697053624
 30
0.0
 11
22.5998851103
 21
14.4697043825
 31
0.0
  0
LINE
  5
4C9
330
730
100
AcDbEntity
  8
0
  6
SLD-SOLID
 62
     7
100
AcDbLine
 10
22.5998851103
 20
30.4697053624
 30
0.0
 11
22.6987208752
 21
30.4697053624
 31
0.0
  0
LINE
  5
4CA
330
730
100
AcDbEntity
  8
0
  6
SLD-SOLID
 62
     7
100
AcDbLine
 10
22.5998851103
 20
14.4697043825
 30
0.0
 11
21.8746843145
 21
14.4697043825
 31
0.0
  0
LINE
  5
4CB
330
730
100
AcDbEntity
  8
0
  6
SLD-SOLID
 62
     7
100
AcDbLine
 10
21.8746843145
 20
30.4697053624
 30
0.0
 11
22.5998851103
 21
30.4697053624
 31
0.0
  0
LINE
  5
4CC
330
730
100
AcDbEntity
  8
0
  6
SLD-SOLID
 62
     7
100
AcDbLine
 10
21.863997718
 20
14.4697043825
 30
0.0
 11
21.8746843145
 21
14.4697043825
 31
0.0
  0
LINE
  5
4CD
330
730
100
AcDbEntity
  8
0
  6
SLD-SOLID
 62
     7
100
AcDbLine
 10
21.8746843145
 20
30.4697053624
 30
0.0
 11
21.863997718
 21
30.4697053624
 31
0.0
  0
ARC
  5
4CE
330
730
100
AcDbEntity
  8
0
  6
SLD-SOLID
 62
     7
100
AcDbCircle
 10
3.6217275332
 20
7.8969839866
 30
0.0
 40
0.1738062119339717
100
AcDbArc
 50
288.0212143024
 51
334.3340214329
  0
LINE
  5
4CF
330
730
100
AcDbEntity
  8
0
  6
SLD-SOLID
 62
     7
100
AcDbLine
 10
21.2071105331
 20
7.8217043516
 30
0.0
 11
3.7783850445
 21
7.8217043516
 31
0.0
  0
ARC
  5
4D0
330
730
100
AcDbEntity
  8
0
  6
SLD-SOLID
 62
     7
100
AcDbCircle
 10
21.3637680444
 20
7.8969839866
 30
0.0
 40
0.1738062119339777
100
AcDbArc
 50
205.6659785671
 51
251.9787856976
  0
LINE
  5
4D1
330
730
100
AcDbEntity
  8
0
  6
SLD-SOLID
 62
     7
100
AcDbLine
 10
3.6754978064
 20
7.7317043538
 30
0.0
 11
21.3099977712
 21
7.7317043538
 31
0.0
  0
LINE
  5
4D2
330
730
100
AcDbEntity
  8
0
  6
SLD-SOLID
 62
     7
100
AcDbLine
 10
20.6371106111
 20
8.3917043561
 30
0.0
 11
4.3483849665
 21
8.3917043561
 31
0.0
  0
LINE
  5
4D3
330
730
100
AcDbEntity
  8
0
  6
SLD-SOLID
 62
     7
100
AcDbLine
 10
21.2071105331
 20
7.8217043516
 30
0.0
 11
20.6371106111
 21
8.3917043561
 31
0.0
  0
CIRCLE
  5
4D4
330
730
100
AcDbEntity
  8
0
  6
SLD-SOLID
 62
     7
100
AcDbCircle
 10
19.8677477888
 20
8.0792043538
 30
0.0
 40
0.1093750000000036
  0
CIRCLE
  5
4D5
330
730
100
AcDbEntity
  8
0
  6
SLD-SOLID
 62
     7
100
AcDbCircle
 10
5.1177477888
 20
8.0792043538
 30
0.0
 40
0.1093749999999982
  0
CIRCLE
  5
4D6
330
730
100
AcDbEntity
  8
0
  6
SLD-SOLID
 62
     7
100
AcDbCircle
 10
12.4927477888
 20
8.0792043538
 30
0.0
 40
0.109375
  0
LINE
  5
4D7
330
730
100
AcDbEntity
  8
0
  6
SLD-SOLID
 62
     7
100
AcDbLine
 10
4.3483849665
 20
8.3917043561
 30
0.0
 11
3.7783850445
 21
7.8217043516
 31
0.0
  0
LINE
  5
4D8
330
730
100
AcDbEntity
  8
0
  6
SLD-SOLID
 62
     7
100
AcDbLine
 10
3.6754978064
 20
7.7317043538
 30
0.0
 11
3.6754978064
 21
7.7667043544
 31
0.0
  0
ARC
  5
4D9
330
730
100
AcDbEntity
  8
0
  6
SLD-SOLID
 62
     7
100
AcDbCircle
 10
3.6479109605
 20
7.9420448383
 30
0.0
 40
0.1774973784623571
100
AcDbArc
 50
278.9412221391
 51
317.31364843
  0
ARC
  5
4DA
330
730
100
AcDbEntity
  8
0
  6
SLD-SOLID
 62
     7
100
AcDbCircle
 10
21.3375846171
 20
7.9420448383
 30
0.0
 40
0.1774973784623594
100
AcDbArc
 50
222.68635157
 51
261.0587778609
  0
LINE
  5
4DB
330
730
100
AcDbEntity
  8
0
  6
SLD-SOLID
 62
     7
100
AcDbLine
 10
21.3099977712
 20
7.7667043544
 30
0.0
 11
21.3099977712
 21
7.7317043538
 31
0.0
  0
LINE
  5
4DC
330
730
100
AcDbEntity
  8
0
  6
SLD-SOLID
 62
     7
100
AcDbLine
 10
3.6754978064
 20
7.7667043544
 30
0.0
 11
3.660872962
 21
7.7667043544
 31
0.0
  0
LINE
  5
4DD
330
730
100
AcDbEntity
  8
0
  6
SLD-SOLID
 62
     7
100
AcDbLine
 10
3.660872962
 20
7.7317043538
 30
0.0
 11
3.660872962
 21
7.7667043544
 31
0.0
  0
LINE
  5
4DE
330
730
100
AcDbEntity
  8
0
  6
SLD-SOLID
 62
     7
100
AcDbLine
 10
3.6754978064
 20
7.7317043538
 30
0.0
 11
3.660872962
 21
7.7317043538
 31
0.0
  0
LINE
  5
4DF
330
730
100
AcDbEntity
  8
0
  6
SLD-SOLID
 62
     7
100
AcDbLine
 10
21.3246226156
 20
7.7667043544
 30
0.0
 11
21.3246226156
 21
7.7317043538
 31
0.0
  0
LINE
  5
4E0
330
730
100
AcDbEntity
  8
0
  6
SLD-SOLID
 62
     7
100
AcDbLine
 10
21.3246226156
 20
7.7667043544
 30
0.0
 11
21.3099977712
 21
7.7667043544
 31
0.0
  0
LINE
  5
4E1
330
730
100
AcDbEntity
  8
0
  6
SLD-SOLID
 62
     7
100
AcDbLine
 10
21.3246226156
 20
7.7317043538
 30
0.0
 11
21.3099977712
 21
7.7317043538
 31
0.0
  0
ARC
  5
4E2
330
730
100
AcDbEntity
  8
0
  6
SLD-SOLID
 62
     7
100
AcDbCircle
 10
3.1608727888
 20
7.8217043538
 30
0.0
 40
0.0550000000000015
100
AcDbArc
 50
180.0
 51
270.0
  0
LINE
  5
4E3
330
730
100
AcDbEntity
  8
0
  6
SLD-SOLID
 62
     7
100
AcDbLine
 10
3.1608727114
 20
7.7667043544
 30
0.0
 11
3.1608727114
 21
7.7317043538
 31
0.0
  0
ARC
  5
4E4
330
730
100
AcDbEntity
  8
0
  6
SLD-SOLID
 62
     7
100
AcDbCircle
 10
3.1608727888
 20
7.8217043538
 30
0.0
 40
0.0900000000000087
100
AcDbArc
 50
180.0
 51
270.0
  0
LINE
  5
4E5
330
730
100
AcDbEntity
  8
0
  6
SLD-SOLID
 62
     7
100
AcDbLine
 10
3.1058727601
 20
7.8217043516
 30
0.0
 11
3.0708726311
 21
7.8217043516
 31
0.0
  0
LINE
  5
4E6
330
730
100
AcDbEntity
  8
0
  6
SLD-SOLID
 62
     7
100
AcDbLine
 10
3.660872962
 20
7.7667043544
 30
0.0
 11
3.1608727114
 21
7.7667043544
 31
0.0
  0
LINE
  5
4E7
330
730
100
AcDbEntity
  8
0
  6
SLD-SOLID
 62
     7
100
AcDbLine
 10
3.660872962
 20
7.7317043538
 30
0.0
 11
3.1608727114
 21
7.7317043538
 31
0.0
  0
LINE
  5
4E8
330
730
100
AcDbEntity
  8
0
  6
SLD-SOLID
 62
     7
100
AcDbLine
 10
3.1058727601
 20
7.8217043516
 30
0.0
 11
3.1058727601
 21
8.3917043561
 31
0.0
  0
LINE
  5
4E9
330
730
100
AcDbEntity
  8
0
  6
SLD-SOLID
 62
     7
100
AcDbLine
 10
3.0708726311
 20
7.8217043516
 30
0.0
 11
3.0708726311
 21
8.3917043561
 31
0.0
  0
LINE
  5
4EA
330
730
100
AcDbEntity
  8
0
  6
SLD-SOLID
 62
     7
100
AcDbLine
 10
3.0708726311
 20
8.3917043561
 30
0.0
 11
3.1058727601
 21
8.3917043561
 31
0.0
  0
LINE
  5
4EB
330
730
100
AcDbEntity
  8
0
  6
SLD-SOLID
 62
     7
100
AcDbLine
 10
21.8246228662
 20
7.7667043544
 30
0.0
 11
21.8246228662
 21
7.7317043538
 31
0.0
  0
LINE
  5
4EC
330
730
100
AcDbEntity
  8
0
  6
SLD-SOLID
 62
     7
100
AcDbLine
 10
21.8796228175
 20
7.8217043516
 30
0.0
 11
21.9146229465
 21
7.8217043516
 31
0.0
  0
ARC
  5
4ED
330
730
100
AcDbEntity
  8
0
  6
SLD-SOLID
 62
     7
100
AcDbCircle
 10
21.8246227888
 20
7.8217043538
 30
0.0
 40
0.0900000000000034
100
AcDbArc
 50
270.0
 51
0.0
  0
ARC
  5
4EE
330
730
100
AcDbEntity
  8
0
  6
SLD-SOLID
 62
     7
100
AcDbCircle
 10
21.8246227888
 20
7.8217043538
 30
0.0
 40
0.0549999999999997
100
AcDbArc
 50
270.0
 51
0.0
  0
LINE
  5
4EF
330
730
100
AcDbEntity
  8
0
  6
SLD-SOLID
 62
     7
100
AcDbLine
 10
21.8246228662
 20
7.7667043544
 30
0.0
 11
21.3246226156
 21
7.7667043544
 31
0.0
  0
LINE
  5
4F0
330
730
100
AcDbEntity
  8
0
  6
SLD-SOLID
 62
     7
100
AcDbLine
 10
21.8246228662
 20
7.7317043538
 30
0.0
 11
21.3246226156
 21
7.7317043538
 31
0.0
  0
LINE
  5
4F1
330
730
100
AcDbEntity
  8
0
  6
SLD-SOLID
 62
     7
100
AcDbLine
 10
21.9146229465
 20
14.3642041612
 30
0.0
 11
21.9146229465
 21
7.8217043516
 31
0.0
  0
LINE
  5
4F2
330
730
100
AcDbEntity
  8
0
  6
SLD-SOLID
 62
     7
100
AcDbLine
 10
21.8796228175
 20
14.3642041612
 30
0.0
 11
21.8796228175
 21
13.5948296358
 31
0.0
  0
LINE
  5
4F3
330
730
100
AcDbEntity
  8
0
  6
SLD-SOLID
 62
     7
100
AcDbLine
 10
21.8796228175
 20
10.2823293687
 30
0.0
 11
21.8796228175
 21
7.8217043516
 31
0.0
  0
LINE
  5
4F4
330
730
100
AcDbEntity
  8
0
  6
SLD-SOLID
 62
     7
100
AcDbLine
 10
21.9146229465
 20
14.3642041612
 30
0.0
 11
21.8796228175
 21
14.3642041612
 31
0.0
  0
LINE
  5
4F5
330
730
100
AcDbEntity
  8
0
  6
SLD-SOLID
 62
     7
100
AcDbLine
 10
21.9146229465
 20
14.3798292607
 30
0.0
 11
21.8796228175
 21
14.3798292607
 31
0.0
  0
LINE
  5
4F6
330
730
100
AcDbEntity
  8
0
  6
SLD-SOLID
 62
     7
100
AcDbLine
 10
21.9146229465
 20
14.3798292607
 30
0.0
 11
21.9146229465
 21
14.3642041612
 31
0.0
  0
LINE
  5
4F7
330
730
100
AcDbEntity
  8
0
  6
SLD-SOLID
 62
     7
100
AcDbLine
 10
21.8796228175
 20
14.3798292607
 30
0.0
 11
21.8796228175
 21
14.3642041612
 31
0.0
  0
ARC
  5
4F8
330
730
100
AcDbEntity
  8
0
  6
SLD-SOLID
 62
     7
100
AcDbCircle
 10
21.9696227888
 20
14.3798293538
 30
0.0
 40
0.0900000000000011
100
AcDbArc
 50
93.0201023464
 51
180.0
  0
ARC
  5
4F9
330
730
100
AcDbEntity
  8
0
  6
SLD-SOLID
 62
     7
100
AcDbCircle
 10
21.9696227888
 20
14.3798293538
 30
0.0
 40
0.0550000000000033
100
AcDbArc
 50
90.0
 51
180.0
  0
LINE
  5
4FA
330
730
100
AcDbEntity
  8
0
  6
SLD-SOLID
 62
     7
100
AcDbLine
 10
21.9696228978
 20
14.434829212
 30
0.0
 11
22.6921232981
 21
14.434829212
 31
0.0
  0
LINE
  5
4FB
330
730
100
AcDbEntity
  8
0
  6
SLD-SOLID
 62
     7
100
AcDbLine
 10
22.3540910431
 20
14.3958925952
 30
0.0
 11
22.6921232981
 21
14.3958925952
 31
0.0
  0
LINE
  5
4FC
330
730
100
AcDbEntity
  8
0
  6
SLD-SOLID
 62
     7
100
AcDbLine
 10
22.3540910431
 20
14.4308921375
 30
0.0
 11
22.3540910431
 21
14.3958925952
 31
0.0
  0
LINE
  5
4FD
330
730
100
AcDbEntity
  8
0
  6
SLD-SOLID
 62
     7
100
AcDbLine
 10
22.3540910431
 20
14.4308921375
 30
0.0
 11
22.6921232981
 21
14.4308921375
 31
0.0
  0
LINE
  5
4FE
330
730
100
AcDbEntity
  8
0
  6
SLD-SOLID
 62
     7
100
AcDbLine
 10
22.6921232981
 20
14.4308921375
 30
0.0
 11
22.6921232981
 21
14.3958925952
 31
0.0
  0
ARC
  5
4FF
330
730
100
AcDbEntity
  8
0
  6
SLD-SOLID
 62
     7
100
AcDbCircle
 10
22.6921227888
 20
14.4328608498
 30
0.0
 40
0.0019685039370074
100
AcDbArc
 50
270.0
 51
90.0
  0
ARC
  5
500
330
730
100
AcDbEntity
  8
0
  6
SLD-SOLID
 62
     7
100
AcDbCircle
 10
22.6921227888
 20
14.4328608498
 30
0.0
 40
0.0369685039370081
100
AcDbArc
 50
270.0
 51
85.2869814732
  0
LINE
  5
501
330
730
100
AcDbEntity
  8
0
  6
SLD-SOLID
 62
     7
100
AcDbLine
 10
21.8446226885
 20
24.4698290735
 30
0.0
 11
21.8796228175
 21
24.4698290735
 31
0.0
  0
LINE
  5
502
330
730
100
AcDbEntity
  8
0
  6
SLD-SOLID
 62
     7
100
AcDbLine
 10
21.8446226885
 20
24.4698290735
 30
0.0
 11
21.8446226885
 21
27.7823290472
 31
0.0
  0
LINE
  5
503
330
730
100
AcDbEntity
  8
0
  6
SLD-SOLID
 62
     7
100
AcDbLine
 10
21.8446226885
 20
27.7823290472
 30
0.0
 11
21.8796228175
 21
27.7823290472
 31
0.0
  0
LINE
  5
504
330
730
100
AcDbEntity
  8
0
  6
SLD-SOLID
 62
     7
100
AcDbLine
 10
21.8796228175
 20
24.4698290735
 30
0.0
 11
21.8796228175
 21
27.7823290472
 31
0.0
  0
LINE
  5
505
330
730
100
AcDbEntity
  8
0
  6
SLD-SOLID
 62
     7
100
AcDbLine
 10
21.7934559729
 20
24.6573290942
 30
0.0
 11
21.84448893
 21
24.6573290942
 31
0.0
  0
LINE
  5
506
330
730
100
AcDbEntity
  8
0
  6
SLD-SOLID
 62
     7
100
AcDbLine
 10
21.84448893
 20
24.6573290942
 30
0.0
 11
21.84448893
 21
26.0323296367
 31
0.0
  0
LINE
  5
507
330
730
100
AcDbEntity
  8
0
  6
SLD-SOLID
 62
     7
100
AcDbLine
 10
21.84448893
 20
26.0323296367
 30
0.0
 11
21.7934559729
 21
26.0323296367
 31
0.0
  0
LINE
  5
508
330
730
100
AcDbEntity
  8
0
  6
SLD-SOLID
 62
     7
100
AcDbLine
 10
21.7934559729
 20
26.0323296367
 30
0.0
 11
21.7934559729
 21
24.6573290942
 31
0.0
  0
LINE
  5
509
330
730
100
AcDbEntity
  8
0
  6
SLD-SOLID
 62
     7
100
AcDbLine
 10
21.8446226885
 20
24.4698290735
 30
0.0
 11
21.7896227372
 21
24.4698290735
 31
0.0
  0
LINE
  5
50A
330
730
100
AcDbEntity
  8
0
  6
SLD-SOLID
 62
     7
100
AcDbLine
 10
21.7896227372
 20
24.4698290735
 30
0.0
 11
21.7896227372
 21
27.7823290472
 31
0.0
  0
LINE
  5
50B
330
730
100
AcDbEntity
  8
0
  6
SLD-SOLID
 62
     7
100
AcDbLine
 10
21.7934559729
 20
26.2198296574
 30
0.0
 11
21.84448893
 21
26.2198296574
 31
0.0
  0
LINE
  5
50C
330
730
100
AcDbEntity
  8
0
  6
SLD-SOLID
 62
     7
100
AcDbLine
 10
21.84448893
 20
26.2198296574
 30
0.0
 11
21.84448893
 21
27.5948301999
 31
0.0
  0
LINE
  5
50D
330
730
100
AcDbEntity
  8
0
  6
SLD-SOLID
 62
     7
100
AcDbLine
 10
21.84448893
 20
27.5948301999
 30
0.0
 11
21.7934559729
 21
27.5948301999
 31
0.0
  0
LINE
  5
50E
330
730
100
AcDbEntity
  8
0
  6
SLD-SOLID
 62
     7
100
AcDbLine
 10
21.7934559729
 20
27.5948301999
 30
0.0
 11
21.7934559729
 21
26.2198296574
 31
0.0
  0
LINE
  5
50F
330
730
100
AcDbEntity
  8
0
  6
SLD-SOLID
 62
     7
100
AcDbLine
 10
21.7896227372
 20
27.7823290472
 30
0.0
 11
21.8446226885
 21
27.7823290472
 31
0.0
  0
LINE
  5
510
330
730
100
AcDbEntity
  8
0
  6
SLD-SOLID
 62
     7
100
AcDbLine
 10
21.7958953047
 20
26.0323296367
 30
0.0
 11
21.7958953047
 21
24.6573290942
 31
0.0
  0
LINE
  5
511
330
730
100
AcDbEntity
  8
0
  6
SLD-SOLID
 62
     7
100
AcDbLine
 10
21.7958953047
 20
27.5948301999
 30
0.0
 11
21.7958953047
 21
26.2198296574
 31
0.0
  0
LINE
  5
512
330
730
100
AcDbEntity
  8
0
  6
SLD-SOLID
 62
     7
100
AcDbLine
 10
21.7896227372
 20
24.4698290735
 30
0.0
 11
20.4421230503
 21
24.4698290735
 31
0.0
  0
LINE
  5
513
330
730
100
AcDbEntity
  8
0
  6
SLD-SOLID
 62
     7
100
AcDbLine
 10
20.4421230503
 20
24.4698290735
 30
0.0
 11
20.4421230503
 21
27.7823290472
 31
0.0
  0
CIRCLE
  5
514
330
730
100
AcDbEntity
  8
0
  6
SLD-SOLID
 62
     7
100
AcDbCircle
 10
21.3446227888
 20
24.7198293538
 30
0.0
 40
0.1093749999999964
  0
CIRCLE
  5
515
330
730
100
AcDbEntity
  8
0
  6
SLD-SOLID
 62
     7
100
AcDbCircle
 10
21.3446227888
 20
27.2198293538
 30
0.0
 40
0.1093749999999964
  0
CIRCLE
  5
516
330
730
100
AcDbEntity
  8
0
  6
SLD-SOLID
 62
     7
100
AcDbCircle
 10
21.2196227888
 20
25.0323293538
 30
0.0
 40
0.1093750000000036
  0
CIRCLE
  5
517
330
730
100
AcDbEntity
  8
0
  6
SLD-SOLID
 62
     7
100
AcDbCircle
 10
21.2196227888
 20
27.5323293538
 30
0.0
 40
0.1093750000000036
  0
CIRCLE
  5
518
330
730
100
AcDbEntity
  8
0
  6
SLD-SOLID
 62
     7
100
AcDbCircle
 10
20.7196227888
 20
27.2198293538
 30
0.0
 40
0.1093749999999964
  0
LINE
  5
519
330
730
100
AcDbEntity
  8
0
  6
SLD-SOLID
 62
     7
100
AcDbLine
 10
21.7896227372
 20
27.7823290472
 30
0.0
 11
20.4421230503
 21
27.7823290472
 31
0.0
  0
CIRCLE
  5
51A
330
730
100
AcDbEntity
  8
0
  6
SLD-SOLID
 62
     7
100
AcDbCircle
 10
20.7196227888
 20
24.7198293538
 30
0.0
 40
0.1093749999999964
  0
LINE
  5
51B
330
730
100
AcDbEntity
  8
0
  6
SLD-SOLID
 62
     7
100
AcDbLine
 10
21.8446226885
 20
13.5948296358
 30
0.0
 11
21.8796228175
 21
13.5948296358
 31
0.0
  0
LINE
  5
51C
330
730
100
AcDbEntity
  8
0
  6
SLD-SOLID
 62
     7
100
AcDbLine
 10
21.8446226885
 20
10.2823293687
 30
0.0
 11
21.8796228175
 21
10.2823293687
 31
0.0
  0
LINE
  5
51D
330
730
100
AcDbEntity
  8
0
  6
SLD-SOLID
 62
     7
100
AcDbLine
 10
21.8446226885
 20
10.2823293687
 30
0.0
 11
21.8446226885
 21
13.5948296358
 31
0.0
  0
LINE
  5
51E
330
730
100
AcDbEntity
  8
0
  6
SLD-SOLID
 62
     7
100
AcDbLine
 10
21.8796228175
 20
10.2823293687
 30
0.0
 11
21.8796228175
 21
13.5948296358
 31
0.0
  0
LINE
  5
51F
330
730
100
AcDbEntity
  8
0
  6
SLD-SOLID
 62
     7
100
AcDbLine
 10
21.7934559729
 20
10.4698293894
 30
0.0
 11
21.84448893
 21
10.4698293894
 31
0.0
  0
LINE
  5
520
330
730
100
AcDbEntity
  8
0
  6
SLD-SOLID
 62
     7
100
AcDbLine
 10
21.84448893
 20
10.4698293894
 30
0.0
 11
21.84448893
 21
11.8448293453
 31
0.0
  0
LINE
  5
521
330
730
100
AcDbEntity
  8
0
  6
SLD-SOLID
 62
     7
100
AcDbLine
 10
21.84448893
 20
11.8448293453
 30
0.0
 11
21.7934559729
 21
11.8448293453
 31
0.0
  0
LINE
  5
522
330
730
100
AcDbEntity
  8
0
  6
SLD-SOLID
 62
     7
100
AcDbLine
 10
21.7934559729
 20
11.8448293453
 30
0.0
 11
21.7934559729
 21
10.4698293894
 31
0.0
  0
LINE
  5
523
330
730
100
AcDbEntity
  8
0
  6
SLD-SOLID
 62
     7
100
AcDbLine
 10
21.7896227372
 20
10.2823293687
 30
0.0
 11
21.7896227372
 21
13.5948296358
 31
0.0
  0
LINE
  5
524
330
730
100
AcDbEntity
  8
0
  6
SLD-SOLID
 62
     7
100
AcDbLine
 10
21.7896227372
 20
13.5948296358
 30
0.0
 11
21.8446226885
 21
13.5948296358
 31
0.0
  0
LINE
  5
525
330
730
100
AcDbEntity
  8
0
  6
SLD-SOLID
 62
     7
100
AcDbLine
 10
21.7934559729
 20
12.0323293659
 30
0.0
 11
21.84448893
 21
12.0323293659
 31
0.0
  0
LINE
  5
526
330
730
100
AcDbEntity
  8
0
  6
SLD-SOLID
 62
     7
100
AcDbLine
 10
21.84448893
 20
12.0323293659
 30
0.0
 11
21.84448893
 21
13.4073296151
 31
0.0
  0
LINE
  5
527
330
730
100
AcDbEntity
  8
0
  6
SLD-SOLID
 62
     7
100
AcDbLine
 10
21.84448893
 20
13.4073296151
 30
0.0
 11
21.7934559729
 21
13.4073296151
 31
0.0
  0
LINE
  5
528
330
730
100
AcDbEntity
  8
0
  6
SLD-SOLID
 62
     7
100
AcDbLine
 10
21.7934559729
 20
13.4073296151
 30
0.0
 11
21.7934559729
 21
12.0323293659
 31
0.0
  0
LINE
  5
529
330
730
100
AcDbEntity
  8
0
  6
SLD-SOLID
 62
     7
100
AcDbLine
 10
21.8446226885
 20
10.2823293687
 30
0.0
 11
21.7896227372
 21
10.2823293687
 31
0.0
  0
LINE
  5
52A
330
730
100
AcDbEntity
  8
0
  6
SLD-SOLID
 62
     7
100
AcDbLine
 10
21.7958953047
 20
11.8448293453
 30
0.0
 11
21.7958953047
 21
10.4698293894
 31
0.0
  0
LINE
  5
52B
330
730
100
AcDbEntity
  8
0
  6
SLD-SOLID
 62
     7
100
AcDbLine
 10
21.7958953047
 20
13.4073296151
 30
0.0
 11
21.7958953047
 21
12.0323293659
 31
0.0
  0
CIRCLE
  5
52C
330
730
100
AcDbEntity
  8
0
  6
SLD-SOLID
 62
     7
100
AcDbCircle
 10
21.3446227888
 20
10.5323293538
 30
0.0
 40
0.1093750000000036
  0
CIRCLE
  5
52D
330
730
100
AcDbEntity
  8
0
  6
SLD-SOLID
 62
     7
100
AcDbCircle
 10
21.3446227888
 20
13.0323293538
 30
0.0
 40
0.1093750000000036
  0
CIRCLE
  5
52E
330
730
100
AcDbEntity
  8
0
  6
SLD-SOLID
 62
     7
100
AcDbCircle
 10
21.2196227888
 20
10.8448293538
 30
0.0
 40
0.1093749999999964
  0
CIRCLE
  5
52F
330
730
100
AcDbEntity
  8
0
  6
SLD-SOLID
 62
     7
100
AcDbCircle
 10
21.2196227888
 20
13.3448293538
 30
0.0
 40
0.1093749999999964
  0
LINE
  5
530
330
730
100
AcDbEntity
  8
0
  6
SLD-SOLID
 62
     7
100
AcDbLine
 10
21.7896227372
 20
10.2823293687
 30
0.0
 11
20.4421230503
 21
10.2823293687
 31
0.0
  0
CIRCLE
  5
531
330
730
100
AcDbEntity
  8
0
  6
SLD-SOLID
 62
     7
100
AcDbCircle
 10
20.7196227888
 20
10.5323293538
 30
0.0
 40
0.109375
  0
CIRCLE
  5
532
330
730
100
AcDbEntity
  8
0
  6
SLD-SOLID
 62
     7
100
AcDbCircle
 10
20.7196227888
 20
13.0323293538
 30
0.0
 40
0.109375
  0
LINE
  5
533
330
730
100
AcDbEntity
  8
0
  6
SLD-SOLID
 62
     7
100
AcDbLine
 10
20.4421230503
 20
10.2823293687
 30
0.0
 11
20.4421230503
 21
13.5948296358
 31
0.0
  0
LINE
  5
534
330
730
100
AcDbEntity
  8
0
  6
SLD-SOLID
 62
     7
100
AcDbLine
 10
21.7896227372
 20
13.5948296358
 30
0.0
 11
20.4421230503
 21
13.5948296358
 31
0.0
  0
LINE
  5
535
330
730
100
AcDbEntity
  8
0
  6
SLD-SOLID
 62
     7
100
AcDbLine
 10
14.238997856
 20
11.4672394939
 30
0.0
 11
14.1139977933
 21
11.4672394939
 31
0.0
  0
LINE
  5
536
330
730
100
AcDbEntity
  8
0
  6
SLD-SOLID
 62
     7
100
AcDbLine
 10
10.8014978196
 20
8.5974192129
 30
0.0
 11
10.9264977356
 21
8.5974192129
 31
0.0
  0
LINE
  5
537
330
730
100
AcDbEntity
  8
0
  6
SLD-SOLID
 62
     7
100
AcDbLine
 10
14.1139977933
 20
8.5974192129
 30
0.0
 11
14.238997856
 21
8.5974192129
 31
0.0
  0
LINE
  5
538
330
730
100
AcDbEntity
  8
0
  6
SLD-SOLID
 62
     7
100
AcDbLine
 10
14.238997856
 20
11.3734751104
 30
0.0
 11
14.1139977933
 21
11.3734751104
 31
0.0
  0
LINE
  5
539
330
730
100
AcDbEntity
  8
0
  6
SLD-SOLID
 62
     7
100
AcDbLine
 10
10.8014978196
 20
8.6911835231
 30
0.0
 11
10.9264977356
 21
8.6911835231
 31
0.0
  0
LINE
  5
53A
330
730
100
AcDbEntity
  8
0
  6
SLD-SOLID
 62
     7
100
AcDbLine
 10
14.1139977933
 20
8.6911835231
 30
0.0
 11
14.238997856
 21
8.6911835231
 31
0.0
  0
LINE
  5
53B
330
730
100
AcDbEntity
  8
0
  6
SLD-SOLID
 62
     7
100
AcDbLine
 10
14.238997856
 20
8.6917289701
 30
0.0
 11
14.1139977933
 21
8.6917289701
 31
0.0
  0
LINE
  5
53C
330
730
100
AcDbEntity
  8
0
  6
SLD-SOLID
 62
     7
100
AcDbLine
 10
10.8014978196
 20
8.6917289701
 30
0.0
 11
10.9264977356
 21
8.6917289701
 31
0.0
  0
LINE
  5
53D
330
730
100
AcDbEntity
  8
0
  6
SLD-SOLID
 62
     7
100
AcDbLine
 10
14.1139977933
 20
11.37292981
 30
0.0
 11
14.238997856
 21
11.37292981
 31
0.0
  0
ARC
  5
53E
330
730
100
AcDbEntity
  8
0
  6
SLD-SOLID
 62
     7
100
AcDbCircle
 10
12.5202477888
 20
10.0323293538
 30
0.0
 40
0.4999999999999982
100
AcDbArc
 50
0.0
 51
41.7460161957
  0
ARC
  5
53F
330
730
100
AcDbEntity
  8
0
  6
SLD-SOLID
 62
     7
100
AcDbCircle
 10
12.5202477888
 20
10.0323293538
 30
0.0
 40
0.5000000000000017
100
AcDbArc
 50
82.9180762257
 51
0.0
  0
CIRCLE
  5
540
330
730
100
AcDbEntity
  8
0
  6
SLD-SOLID
 62
     7
100
AcDbCircle
 10
12.5202477888
 20
10.0323293538
 30
0.0
 40
0.3749999999999964
  0
LINE
  5
541
330
730
100
AcDbEntity
  8
0
  6
SLD-SOLID
 62
     7
100
AcDbLine
 10
10.916854367
 20
11.2524952813
 30
0.0
 11
10.9264977356
 21
11.2617436811
 31
0.0
  0
LINE
  5
542
330
730
100
AcDbEntity
  8
0
  6
SLD-SOLID
 62
     7
100
AcDbLine
 10
10.8494403991
 20
11.2463541256
 30
0.0
 11
10.8387027631
 21
11.2743665486
 31
0.0
  0
LINE
  5
543
330
730
100
AcDbEntity
  8
0
  6
SLD-SOLID
 62
     7
100
AcDbLine
 10
10.8494403991
 20
11.2463541256
 30
0.0
 11
10.8045101715
 21
11.2319492786
 31
0.0
  0
LWPOLYLINE
  5
544
330
730
100
AcDbEntity
  8
0
  6
SLD-SOLID
 62
     7
100
AcDbPolyline
 90
        3
 70
   128
 43
0.0
 10
10.8014978196
 20
11.2621273567
 10
10.8084940321
 20
11.26386299
 10
10.8387027631
 20
11.2743665486
  0
LINE
  5
545
330
730
100
AcDbEntity
  8
0
  6
SLD-SOLID
 62
     7
100
AcDbLine
 10
10.9264977356
 20
11.283133594
 30
0.0
 11
10.8494403991
 21
11.2463541256
 31
0.0
  0
LWPOLYLINE
  5
546
330
730
100
AcDbEntity
  8
0
  6
SLD-SOLID
 62
     7
100
AcDbPolyline
 90
        3
 70
   128
 43
0.0
 10
10.9264977356
 20
11.3181436962
 10
10.9199982773
 20
11.3141447291
 10
10.8387027631
 20
11.2743665486
  0
ARC
  5
547
330
730
100
AcDbEntity
  8
0
  6
SLD-SOLID
 62
     7
100
AcDbCircle
 10
10.6564977888
 20
11.7497043538
 30
0.0
 40
0.5390624999999989
100
AcDbArc
 50
250.5120129003
 51
268.8520688374
  0
LWPOLYLINE
  5
548
330
730
100
AcDbEntity
  8
0
  6
SLD-SOLID
 62
     7
100
AcDbPolyline
 90
        3
 70
   128
 43
0.0
 10
10.5056447973
 20
11.2635068874
 10
10.5832107679
 20
11.2459449303
 10
10.6263220566
 20
11.2415370612
  0
ARC
  5
549
330
730
100
AcDbEntity
  8
0
  6
SLD-SOLID
 62
     7
100
AcDbCircle
 10
10.6564977888
 20
11.7497043538
 30
0.0
 40
0.4999999999999999
100
AcDbArc
 50
286.8579560225
 51
302.6836388463
  0
LWPOLYLINE
  5
54A
330
730
100
AcDbEntity
  8
0
  6
SLD-SOLID
 62
     7
100
AcDbPolyline
 90
        3
 70
   128
 43
0.0
 10
10.5187927254
 20
11.2690408501
 10
10.5719973508
 20
11.2568964038
 10
10.6159680962
 20
11.2513498278
  0
LINE
  5
54B
330
730
100
AcDbEntity
  8
0
  6
SLD-SOLID
 62
     7
100
AcDbLine
 10
21.7933726672
 20
7.7667043544
 30
0.0
 11
21.7933726672
 21
7.7823293531
 31
0.0
  0
LINE
  5
54C
330
730
100
AcDbEntity
  8
0
  6
SLD-SOLID
 62
     7
100
AcDbLine
 10
21.8796228175
 20
7.8529543581
 30
0.0
 11
21.863997718
 21
7.8529543581
 31
0.0
  0
LINE
  5
54D
330
730
100
AcDbEntity
  8
0
  6
SLD-SOLID
 62
     8
100
AcDbLine
 10
21.7739976377
 20
31.9698298995
 30
0.0
 11
21.7739976377
 21
27.7823290472
 31
0.0
  0
LINE
  5
54E
330
730
100
AcDbEntity
  8
0
  6
SLD-SOLID
 62
     8
100
AcDbLine
 10
21.7739976377
 20
24.4698290735
 30
0.0
 11
21.7739976377
 21
13.5948296358
 31
0.0
  0
LINE
  5
54F
330
730
100
AcDbEntity
  8
0
  6
SLD-SOLID
 62
     8
100
AcDbLine
 10
21.7739976377
 20
10.2823293687
 30
0.0
 11
21.7739976377
 21
7.7823293531
 31
0.0
  0
LINE
  5
550
330
730
100
AcDbEntity
  8
0
  6
SLD-SOLID
 62
     8
100
AcDbLine
 10
21.8746843145
 20
14.4697043825
 30
0.0
 11
21.8746843145
 21
24.4698290735
 31
0.0
  0
LINE
  5
551
330
730
100
AcDbEntity
  8
0
  6
SLD-SOLID
 62
     8
100
AcDbLine
 10
21.8746843145
 20
27.7823290472
 30
0.0
 11
21.8746843145
 21
30.4697053624
 31
0.0
  0
LINE
  5
552
330
730
100
AcDbEntity
  8
0
  6
SLD-SOLID
 62
     8
100
AcDbLine
 10
21.9696228978
 20
14.434829212
 30
0.0
 11
21.9696228978
 21
14.4697043825
 31
0.0
  0
LINE
  5
553
330
730
100
AcDbEntity
  8
0
  6
SLD-SOLID
 62
     8
100
AcDbLine
 10
22.6921232981
 20
14.4697043825
 30
0.0
 11
22.6921232981
 21
14.434829212
 31
0.0
  0
DIMENSION
  5
554
330
730
100
AcDbEntity
  8
DIM
 62
     7
100
AcDbDimension
  2
_D_15
 10
27.2262535425
 20
14.3958923459
 30
0.0
 11
27.2262535425
 21
22.5200983498
 31
0.0
 70
   160
  1
<>
  3
SLDDIMSTYLE0
100
AcDbAlignedDimension
 13
22.6102977888
 23
30.6443043538
 33
0.0
 14
22.6921227888
 24
14.3958923459
 34
0.0
 50
90.0
100
AcDbRotatedDimension
1001
ACAD
1000
DSTYLE
1002
{
1070
   270
1070
     5
1070
    41
1040
0.75
1070
   176
1070
   256
1070
   177
1070
   256
1070
   178
1070
   256
1070
    44
1040
1.0
1070
    42
1040
0.5
1070
   276
1070
     0
1070
   147
1040
0.25
1070
   277
1070
     5
1070
     3
1000
"
1070
    45
1040
0.0
1070
   272
1070
     3
1070
   340
1005
7C1
1070
   140
1040
1.0
1070
   284
1070
    12
1002
}
  0
LINE
  5
563
330
730
100
AcDbEntity
  8
0
  6
SLD-SOLID
 62
     7
100
AcDbLine
 10
37.844185474
 20
67.7643898017
 30
0.0
 11
85.8441860672
 21
67.7643898017
 31
0.0
  0
LINE
  5
564
330
730
100
AcDbEntity
  8
0
  6
SLD-SOLID
 62
     7
100
AcDbLine
 10
37.8441596609
 20
67.7328967255
 30
0.0
 11
85.8441602542
 21
67.7328967255
 31
0.0
  0
LINE
  5
565
330
730
100
AcDbEntity
  8
0
  6
SLD-SOLID
 62
     7
100
AcDbLine
 10
63.7385349002
 20
68.5823649924
 30
0.0
 11
59.9497850149
 21
68.5823649924
 31
0.0
  0
LINE
  5
566
330
730
100
AcDbEntity
  8
0
  6
SLD-SOLID
 62
     7
100
AcDbLine
 10
63.7385349002
 20
68.5823649924
 30
0.0
 11
63.7385349002
 21
68.5473648634
 31
0.0
  0
LINE
  5
567
330
730
100
AcDbEntity
  8
0
  6
SLD-SOLID
 62
     7
100
AcDbLine
 10
63.7385349002
 20
68.5473648634
 30
0.0
 11
59.9497850149
 21
68.5473648634
 31
0.0
  0
LINE
  5
568
330
730
100
AcDbEntity
  8
0
  6
SLD-SOLID
 62
     7
100
AcDbLine
 10
59.9497850149
 20
68.5823649924
 30
0.0
 11
59.9497850149
 21
68.5473648634
 31
0.0
  0
LINE
  5
569
330
730
100
AcDbEntity
  8
0
  6
SLD-SOLID
 62
     7
100
AcDbLine
 10
63.809159951
 20
68.6373649437
 30
0.0
 11
63.809159951
 21
69.297364946
 31
0.0
  0
LINE
  5
56A
330
730
100
AcDbEntity
  8
0
  6
SLD-SOLID
 62
     7
100
AcDbLine
 10
63.809159951
 20
69.297364946
 30
0.0
 11
63.8441599334
 21
69.297364946
 31
0.0
  0
LINE
  5
56B
330
730
100
AcDbEntity
  8
0
  6
SLD-SOLID
 62
     7
100
AcDbLine
 10
63.8441599334
 20
68.6373649437
 30
0.0
 11
63.8441599334
 21
69.297364946
 31
0.0
  0
LINE
  5
56C
330
730
100
AcDbEntity
  8
0
  6
SLD-SOLID
 62
     7
100
AcDbLine
 10
63.8441599334
 20
68.6373649437
 30
0.0
 11
63.809159951
 21
68.6373649437
 31
0.0
  0
LINE
  5
56D
330
730
100
AcDbEntity
  8
0
  6
SLD-SOLID
 62
     7
100
AcDbLine
 10
59.8791599641
 20
68.6373649437
 30
0.0
 11
59.8441599817
 21
68.6373649437
 31
0.0
  0
LINE
  5
56E
330
730
100
AcDbEntity
  8
0
  6
SLD-SOLID
 62
     7
100
AcDbLine
 10
59.8441599817
 20
69.297364946
 30
0.0
 11
59.8441599817
 21
68.6373649437
 31
0.0
  0
LINE
  5
56F
330
730
100
AcDbEntity
  8
0
  6
SLD-SOLID
 62
     7
100
AcDbLine
 10
59.8791599641
 20
69.297364946
 30
0.0
 11
59.8441599817
 21
69.297364946
 31
0.0
  0
LINE
  5
570
330
730
100
AcDbEntity
  8
0
  6
SLD-SOLID
 62
     7
100
AcDbLine
 10
59.8791599641
 20
69.297364946
 30
0.0
 11
59.8791599641
 21
68.6373649437
 31
0.0
  0
LINE
  5
571
330
730
100
AcDbEntity
  8
0
  6
SLD-SOLID
 62
     7
100
AcDbLine
 10
59.9341599154
 20
68.5473648634
 30
0.0
 11
59.9341599154
 21
68.5823649924
 31
0.0
  0
LINE
  5
572
330
730
100
AcDbEntity
  8
0
  6
SLD-SOLID
 62
     7
100
AcDbLine
 10
59.9341599154
 20
68.5823649924
 30
0.0
 11
59.9497850149
 21
68.5823649924
 31
0.0
  0
LINE
  5
573
330
730
100
AcDbEntity
  8
0
  6
SLD-SOLID
 62
     7
100
AcDbLine
 10
59.9341599154
 20
68.5473648634
 30
0.0
 11
59.9497850149
 21
68.5473648634
 31
0.0
  0
ARC
  5
574
330
730
100
AcDbEntity
  8
0
  6
SLD-SOLID
 62
     7
100
AcDbCircle
 10
63.7541599576
 20
68.6373650211
 30
0.0
 40
0.0900000000000034
100
AcDbArc
 50
270.0
 51
0.0
  0
LINE
  5
575
330
730
100
AcDbEntity
  8
0
  6
SLD-SOLID
 62
     7
100
AcDbLine
 10
63.7541599997
 20
68.5823649924
 30
0.0
 11
63.7541599997
 21
68.5473648634
 31
0.0
  0
ARC
  5
576
330
730
100
AcDbEntity
  8
0
  6
SLD-SOLID
 62
     7
100
AcDbCircle
 10
63.7541599576
 20
68.6373650211
 30
0.0
 40
0.0549999999999997
100
AcDbArc
 50
270.0
 51
0.0
  0
LINE
  5
577
330
730
100
AcDbEntity
  8
0
  6
SLD-SOLID
 62
     7
100
AcDbLine
 10
63.7385349002
 20
68.5823649924
 30
0.0
 11
63.7541599997
 21
68.5823649924
 31
0.0
  0
LINE
  5
578
330
730
100
AcDbEntity
  8
0
  6
SLD-SOLID
 62
     7
100
AcDbLine
 10
63.7385349002
 20
68.5473648634
 30
0.0
 11
63.7541599997
 21
68.5473648634
 31
0.0
  0
ARC
  5
579
330
730
100
AcDbEntity
  8
0
  6
SLD-SOLID
 62
     7
100
AcDbCircle
 10
59.9341599576
 20
68.6373650211
 30
0.0
 40
0.0549999999999997
100
AcDbArc
 50
180.0
 51
270.0
  0
ARC
  5
57A
330
730
100
AcDbEntity
  8
0
  6
SLD-SOLID
 62
     7
100
AcDbCircle
 10
59.9341599576
 20
68.6373650211
 30
0.0
 40
0.0900000000000034
100
AcDbArc
 50
180.0
 51
270.0
  0
LINE
  5
57B
330
730
100
AcDbEntity
  8
0
  6
SLD-SOLID
 62
     7
100
AcDbLine
 10
59.7954323046
 20
68.7823649753
 30
0.0
 11
59.7954323046
 21
69.1573650166
 31
0.0
  0
LINE
  5
57C
330
730
100
AcDbEntity
  8
0
  6
SLD-SOLID
 62
     7
100
AcDbLine
 10
63.8953267956
 20
69.1573650166
 30
0.0
 11
63.8953267956
 21
68.7823649753
 31
0.0
  0
LINE
  5
57D
330
730
100
AcDbEntity
  8
0
  6
SLD-SOLID
 62
     7
100
AcDbLine
 10
63.8442936918
 20
69.1573650166
 30
0.0
 11
63.8953267956
 21
69.1573650166
 31
0.0
  0
LINE
  5
57E
330
730
100
AcDbEntity
  8
0
  6
SLD-SOLID
 62
     7
100
AcDbLine
 10
63.8442936918
 20
68.7823649753
 30
0.0
 11
63.8442936918
 21
69.1573650166
 31
0.0
  0
LINE
  5
57F
330
730
100
AcDbEntity
  8
0
  6
SLD-SOLID
 62
     7
100
AcDbLine
 10
63.8953267956
 20
68.7823649753
 30
0.0
 11
63.8442936918
 21
68.7823649753
 31
0.0
  0
LINE
  5
580
330
730
100
AcDbEntity
  8
0
  6
SLD-SOLID
 62
     7
100
AcDbLine
 10
63.8991598847
 20
68.6423650459
 30
0.0
 11
63.8991598847
 21
69.297364946
 31
0.0
  0
LINE
  5
581
330
730
100
AcDbEntity
  8
0
  6
SLD-SOLID
 62
     7
100
AcDbLine
 10
63.8991598847
 20
69.297364946
 30
0.0
 11
63.8441599334
 21
69.297364946
 31
0.0
  0
LINE
  5
582
330
730
100
AcDbEntity
  8
0
  6
SLD-SOLID
 62
     7
100
AcDbLine
 10
63.8441599334
 20
68.6423650459
 30
0.0
 11
63.8991598847
 21
68.6423650459
 31
0.0
  0
LINE
  5
583
330
730
100
AcDbEntity
  8
0
  6
SLD-SOLID
 62
     7
100
AcDbLine
 10
63.8928876105
 20
69.1573650166
 30
0.0
 11
63.8928876105
 21
68.7823649753
 31
0.0
  0
LINE
  5
584
330
730
100
AcDbEntity
  8
0
  6
SLD-SOLID
 62
     7
100
AcDbLine
 10
59.7929931195
 20
68.7823649753
 30
0.0
 11
59.7929931195
 21
69.1573650166
 31
0.0
  0
LINE
  5
585
330
730
100
AcDbEntity
  8
0
  6
SLD-SOLID
 62
     7
100
AcDbLine
 10
59.8440262233
 20
68.7823649753
 30
0.0
 11
59.7929931195
 21
68.7823649753
 31
0.0
  0
LINE
  5
586
330
730
100
AcDbEntity
  8
0
  6
SLD-SOLID
 62
     7
100
AcDbLine
 10
59.8440262233
 20
69.1573650166
 30
0.0
 11
59.8440262233
 21
68.7823649753
 31
0.0
  0
LINE
  5
587
330
730
100
AcDbEntity
  8
0
  6
SLD-SOLID
 62
     7
100
AcDbLine
 10
59.7929931195
 20
69.1573650166
 30
0.0
 11
59.8440262233
 21
69.1573650166
 31
0.0
  0
LINE
  5
588
330
730
100
AcDbEntity
  8
0
  6
SLD-SOLID
 62
     7
100
AcDbLine
 10
59.7891600304
 20
69.297364946
 30
0.0
 11
59.7891600304
 21
68.6423650459
 31
0.0
  0
LINE
  5
589
330
730
100
AcDbEntity
  8
0
  6
SLD-SOLID
 62
     7
100
AcDbLine
 10
59.7891600304
 20
68.6423650459
 30
0.0
 11
59.8441599817
 21
68.6423650459
 31
0.0
  0
LINE
  5
58A
330
730
100
AcDbEntity
  8
0
  6
SLD-SOLID
 62
     7
100
AcDbLine
 10
59.8441599817
 20
69.297364946
 30
0.0
 11
59.7891600304
 21
69.297364946
 31
0.0
  0
LINE
  5
58B
330
730
100
AcDbEntity
  8
0
  6
SLD-SOLID
 62
     7
100
AcDbLine
 10
63.8991598847
 20
69.297364946
 30
0.0
 11
64.5941598693
 21
69.297364946
 31
0.0
  0
LINE
  5
58C
330
730
100
AcDbEntity
  8
0
  6
SLD-SOLID
 62
     7
100
AcDbLine
 10
64.5941598693
 20
69.297364946
 30
0.0
 11
64.5941598693
 21
68.6423650459
 31
0.0
  0
CIRCLE
  5
58D
330
730
100
AcDbEntity
  8
0
  6
SLD-SOLID
 62
     7
100
AcDbCircle
 10
64.3129099576
 20
68.9848650211
 30
0.0
 40
0.1093749999999858
  0
LINE
  5
58E
330
730
100
AcDbEntity
  8
0
  6
SLD-SOLID
 62
     7
100
AcDbLine
 10
64.5941598693
 20
68.6423650459
 30
0.0
 11
63.8991598847
 21
68.6423650459
 31
0.0
  0
LINE
  5
58F
330
730
100
AcDbEntity
  8
0
  6
SLD-SOLID
 62
     7
100
AcDbLine
 10
59.0941600458
 20
68.6423650459
 30
0.0
 11
59.0941600458
 21
69.297364946
 31
0.0
  0
LINE
  5
590
330
730
100
AcDbEntity
  8
0
  6
SLD-SOLID
 62
     7
100
AcDbLine
 10
59.7891600304
 20
68.6423650459
 30
0.0
 11
59.0941600458
 21
68.6423650459
 31
0.0
  0
CIRCLE
  5
591
330
730
100
AcDbEntity
  8
0
  6
SLD-SOLID
 62
     7
100
AcDbCircle
 10
59.3754099576
 20
68.9848650211
 30
0.0
 40
0.1093749999999858
  0
LINE
  5
592
330
730
100
AcDbEntity
  8
0
  6
SLD-SOLID
 62
     7
100
AcDbLine
 10
59.0941600458
 20
69.297364946
 30
0.0
 11
59.7891600304
 21
69.297364946
 31
0.0
  0
LINE
  5
593
330
730
100
AcDbEntity
  8
0
  6
SLD-SOLID
 62
     7
100
AcDbLine
 10
45.9497847441
 20
68.5823649924
 30
0.0
 11
45.9497847441
 21
68.5473648634
 31
0.0
  0
LINE
  5
594
330
730
100
AcDbEntity
  8
0
  6
SLD-SOLID
 62
     7
100
AcDbLine
 10
49.7385352161
 20
68.5823649924
 30
0.0
 11
45.9497847441
 21
68.5823649924
 31
0.0
  0
LINE
  5
595
330
730
100
AcDbEntity
  8
0
  6
SLD-SOLID
 62
     7
100
AcDbLine
 10
49.7385352161
 20
68.5473648634
 30
0.0
 11
45.9497847441
 21
68.5473648634
 31
0.0
  0
LINE
  5
596
330
730
100
AcDbEntity
  8
0
  6
SLD-SOLID
 62
     7
100
AcDbLine
 10
49.7385352161
 20
68.5823649924
 30
0.0
 11
49.7385352161
 21
68.5473648634
 31
0.0
  0
LINE
  5
597
330
730
100
AcDbEntity
  8
0
  6
SLD-SOLID
 62
     7
100
AcDbLine
 10
45.8791602799
 20
68.6373649437
 30
0.0
 11
45.8441601509
 21
68.6373649437
 31
0.0
  0
LINE
  5
598
330
730
100
AcDbEntity
  8
0
  6
SLD-SOLID
 62
     7
100
AcDbLine
 10
45.8791602799
 20
69.297364946
 30
0.0
 11
45.8441601509
 21
69.297364946
 31
0.0
  0
LINE
  5
599
330
730
100
AcDbEntity
  8
0
  6
SLD-SOLID
 62
     7
100
AcDbLine
 10
45.8441601509
 20
69.297364946
 30
0.0
 11
45.8441601509
 21
68.6373649437
 31
0.0
  0
LINE
  5
59A
330
730
100
AcDbEntity
  8
0
  6
SLD-SOLID
 62
     7
100
AcDbLine
 10
45.8791602799
 20
69.297364946
 30
0.0
 11
45.8791602799
 21
68.6373649437
 31
0.0
  0
LINE
  5
59B
330
730
100
AcDbEntity
  8
0
  6
SLD-SOLID
 62
     7
100
AcDbLine
 10
49.8441598092
 20
68.6373649437
 30
0.0
 11
49.8091596802
 21
68.6373649437
 31
0.0
  0
LINE
  5
59C
330
730
100
AcDbEntity
  8
0
  6
SLD-SOLID
 62
     7
100
AcDbLine
 10
49.8091596802
 20
68.6373649437
 30
0.0
 11
49.8091596802
 21
69.297364946
 31
0.0
  0
LINE
  5
59D
330
730
100
AcDbEntity
  8
0
  6
SLD-SOLID
 62
     7
100
AcDbLine
 10
49.8091596802
 20
69.297364946
 30
0.0
 11
49.8441598092
 21
69.297364946
 31
0.0
  0
LINE
  5
59E
330
730
100
AcDbEntity
  8
0
  6
SLD-SOLID
 62
     7
100
AcDbLine
 10
49.8441598092
 20
68.6373649437
 30
0.0
 11
49.8441598092
 21
69.297364946
 31
0.0
  0
LINE
  5
59F
330
730
100
AcDbEntity
  8
0
  6
SLD-SOLID
 62
     7
100
AcDbLine
 10
45.9341596446
 20
68.5473648634
 30
0.0
 11
45.9341596446
 21
68.5823649924
 31
0.0
  0
ARC
  5
5A0
330
730
100
AcDbEntity
  8
0
  6
SLD-SOLID
 62
     7
100
AcDbCircle
 10
45.9341599576
 20
68.6373650211
 30
0.0
 40
0.0899999999999963
100
AcDbArc
 50
180.0
 51
270.0
  0
ARC
  5
5A1
330
730
100
AcDbEntity
  8
0
  6
SLD-SOLID
 62
     7
100
AcDbCircle
 10
45.9341599576
 20
68.6373650211
 30
0.0
 40
0.0549999999999926
100
AcDbArc
 50
180.0
 51
270.0
  0
LINE
  5
5A2
330
730
100
AcDbEntity
  8
0
  6
SLD-SOLID
 62
     7
100
AcDbLine
 10
49.7541603156
 20
68.5823649924
 30
0.0
 11
49.7541603156
 21
68.5473648634
 31
0.0
  0
LINE
  5
5A3
330
730
100
AcDbEntity
  8
0
  6
SLD-SOLID
 62
     7
100
AcDbLine
 10
49.7385352161
 20
68.5823649924
 30
0.0
 11
49.7541603156
 21
68.5823649924
 31
0.0
  0
LINE
  5
5A4
330
730
100
AcDbEntity
  8
0
  6
SLD-SOLID
 62
     7
100
AcDbLine
 10
49.7385352161
 20
68.5473648634
 30
0.0
 11
49.7541603156
 21
68.5473648634
 31
0.0
  0
ARC
  5
5A5
330
730
100
AcDbEntity
  8
0
  6
SLD-SOLID
 62
     7
100
AcDbCircle
 10
49.7541599576
 20
68.6373650211
 30
0.0
 40
0.0899999999999963
100
AcDbArc
 50
270.0
 51
0.0
  0
ARC
  5
5A6
330
730
100
AcDbEntity
  8
0
  6
SLD-SOLID
 62
     7
100
AcDbCircle
 10
49.7541599576
 20
68.6373650211
 30
0.0
 40
0.0549999999999926
100
AcDbArc
 50
270.0
 51
0.0
  0
LINE
  5
5A7
330
730
100
AcDbEntity
  8
0
  6
SLD-SOLID
 62
     7
100
AcDbLine
 10
45.9341596446
 20
68.5823649924
 30
0.0
 11
45.9497847441
 21
68.5823649924
 31
0.0
  0
LINE
  5
5A8
330
730
100
AcDbEntity
  8
0
  6
SLD-SOLID
 62
     7
100
AcDbLine
 10
45.9341596446
 20
68.5473648634
 30
0.0
 11
45.9497847441
 21
68.5473648634
 31
0.0
  0
LINE
  5
5A9
330
730
100
AcDbEntity
  8
0
  6
SLD-SOLID
 62
     7
100
AcDbLine
 10
49.8928877797
 20
69.1573650166
 30
0.0
 11
49.8928877797
 21
68.7823649753
 31
0.0
  0
LINE
  5
5AA
330
730
100
AcDbEntity
  8
0
  6
SLD-SOLID
 62
     7
100
AcDbLine
 10
45.7954321805
 20
68.7823649753
 30
0.0
 11
45.7954321805
 21
69.1573650166
 31
0.0
  0
LINE
  5
5AB
330
730
100
AcDbEntity
  8
0
  6
SLD-SOLID
 62
     7
100
AcDbLine
 10
49.8953271115
 20
69.1573650166
 30
0.0
 11
49.8953271115
 21
68.7823649753
 31
0.0
  0
LINE
  5
5AC
330
730
100
AcDbEntity
  8
0
  6
SLD-SOLID
 62
     7
100
AcDbLine
 10
49.8442935677
 20
69.1573650166
 30
0.0
 11
49.8953271115
 21
69.1573650166
 31
0.0
  0
LINE
  5
5AD
330
730
100
AcDbEntity
  8
0
  6
SLD-SOLID
 62
     7
100
AcDbLine
 10
49.8442935677
 20
68.7823649753
 30
0.0
 11
49.8442935677
 21
69.1573650166
 31
0.0
  0
LINE
  5
5AE
330
730
100
AcDbEntity
  8
0
  6
SLD-SOLID
 62
     7
100
AcDbLine
 10
49.8953271115
 20
68.7823649753
 30
0.0
 11
49.8442935677
 21
68.7823649753
 31
0.0
  0
LINE
  5
5AF
330
730
100
AcDbEntity
  8
0
  6
SLD-SOLID
 62
     7
100
AcDbLine
 10
49.8991603472
 20
68.6423650459
 30
0.0
 11
49.8991603472
 21
69.297364946
 31
0.0
  0
LINE
  5
5B0
330
730
100
AcDbEntity
  8
0
  6
SLD-SOLID
 62
     7
100
AcDbLine
 10
49.8441598092
 20
68.6423650459
 30
0.0
 11
49.8991603472
 21
68.6423650459
 31
0.0
  0
LINE
  5
5B1
330
730
100
AcDbEntity
  8
0
  6
SLD-SOLID
 62
     7
100
AcDbLine
 10
49.8991603472
 20
69.297364946
 30
0.0
 11
49.8441598092
 21
69.297364946
 31
0.0
  0
LINE
  5
5B2
330
730
100
AcDbEntity
  8
0
  6
SLD-SOLID
 62
     7
100
AcDbLine
 10
45.7929928487
 20
68.7823649753
 30
0.0
 11
45.7929928487
 21
69.1573650166
 31
0.0
  0
LINE
  5
5B3
330
730
100
AcDbEntity
  8
0
  6
SLD-SOLID
 62
     7
100
AcDbLine
 10
45.8440263925
 20
68.7823649753
 30
0.0
 11
45.7929928487
 21
68.7823649753
 31
0.0
  0
LINE
  5
5B4
330
730
100
AcDbEntity
  8
0
  6
SLD-SOLID
 62
     7
100
AcDbLine
 10
45.8440263925
 20
69.1573650166
 30
0.0
 11
45.8440263925
 21
68.7823649753
 31
0.0
  0
LINE
  5
5B5
330
730
100
AcDbEntity
  8
0
  6
SLD-SOLID
 62
     7
100
AcDbLine
 10
45.7929928487
 20
69.1573650166
 30
0.0
 11
45.8440263925
 21
69.1573650166
 31
0.0
  0
LINE
  5
5B6
330
730
100
AcDbEntity
  8
0
  6
SLD-SOLID
 62
     7
100
AcDbLine
 10
45.789159613
 20
69.297364946
 30
0.0
 11
45.789159613
 21
68.6423650459
 31
0.0
  0
LINE
  5
5B7
330
730
100
AcDbEntity
  8
0
  6
SLD-SOLID
 62
     7
100
AcDbLine
 10
45.789159613
 20
68.6423650459
 30
0.0
 11
45.8441601509
 21
68.6423650459
 31
0.0
  0
LINE
  5
5B8
330
730
100
AcDbEntity
  8
0
  6
SLD-SOLID
 62
     7
100
AcDbLine
 10
45.8441601509
 20
69.297364946
 30
0.0
 11
45.789159613
 21
69.297364946
 31
0.0
  0
LINE
  5
5B9
330
730
100
AcDbEntity
  8
0
  6
SLD-SOLID
 62
     7
100
AcDbLine
 10
49.8991603472
 20
69.297364946
 30
0.0
 11
50.5941598918
 21
69.297364946
 31
0.0
  0
LINE
  5
5BA
330
730
100
AcDbEntity
  8
0
  6
SLD-SOLID
 62
     7
100
AcDbLine
 10
50.5941598918
 20
69.297364946
 30
0.0
 11
50.5941598918
 21
68.6423650459
 31
0.0
  0
LINE
  5
5BB
330
730
100
AcDbEntity
  8
0
  6
SLD-SOLID
 62
     7
100
AcDbLine
 10
50.5941598918
 20
68.6423650459
 30
0.0
 11
49.8991603472
 21
68.6423650459
 31
0.0
  0
CIRCLE
  5
5BC
330
730
100
AcDbEntity
  8
0
  6
SLD-SOLID
 62
     7
100
AcDbCircle
 10
50.3129099576
 20
68.9848650211
 30
0.0
 40
0.109375
  0
LINE
  5
5BD
330
730
100
AcDbEntity
  8
0
  6
SLD-SOLID
 62
     7
100
AcDbLine
 10
45.0941600683
 20
68.6423650459
 30
0.0
 11
45.0941600683
 21
69.297364946
 31
0.0
  0
LINE
  5
5BE
330
730
100
AcDbEntity
  8
0
  6
SLD-SOLID
 62
     7
100
AcDbLine
 10
45.789159613
 20
68.6423650459
 30
0.0
 11
45.0941600683
 21
68.6423650459
 31
0.0
  0
CIRCLE
  5
5BF
330
730
100
AcDbEntity
  8
0
  6
SLD-SOLID
 62
     7
100
AcDbCircle
 10
45.3754099576
 20
68.9848650211
 30
0.0
 40
0.109375
  0
LINE
  5
5C0
330
730
100
AcDbEntity
  8
0
  6
SLD-SOLID
 62
     7
100
AcDbLine
 10
45.0941600683
 20
69.297364946
 30
0.0
 11
45.789159613
 21
69.297364946
 31
0.0
  0
LINE
  5
5C1
330
730
100
AcDbEntity
  8
0
  6
SLD-SOLID
 62
     7
100
AcDbLine
 10
77.738535171
 20
68.5823649924
 30
0.0
 11
73.949784699
 21
68.5823649924
 31
0.0
  0
LINE
  5
5C2
330
730
100
AcDbEntity
  8
0
  6
SLD-SOLID
 62
     7
100
AcDbLine
 10
77.738535171
 20
68.5823649924
 30
0.0
 11
77.738535171
 21
68.5473648634
 31
0.0
  0
LINE
  5
5C3
330
730
100
AcDbEntity
  8
0
  6
SLD-SOLID
 62
     7
100
AcDbLine
 10
77.738535171
 20
68.5473648634
 30
0.0
 11
73.949784699
 21
68.5473648634
 31
0.0
  0
LINE
  5
5C4
330
730
100
AcDbEntity
  8
0
  6
SLD-SOLID
 62
     7
100
AcDbLine
 10
73.949784699
 20
68.5823649924
 30
0.0
 11
73.949784699
 21
68.5473648634
 31
0.0
  0
LINE
  5
5C5
330
730
100
AcDbEntity
  8
0
  6
SLD-SOLID
 62
     7
100
AcDbLine
 10
73.8791602349
 20
69.297364946
 30
0.0
 11
73.8441601059
 21
69.297364946
 31
0.0
  0
LINE
  5
5C6
330
730
100
AcDbEntity
  8
0
  6
SLD-SOLID
 62
     7
100
AcDbLine
 10
73.8791602349
 20
68.6373649437
 30
0.0
 11
73.8441601059
 21
68.6373649437
 31
0.0
  0
LINE
  5
5C7
330
730
100
AcDbEntity
  8
0
  6
SLD-SOLID
 62
     7
100
AcDbLine
 10
73.8441601059
 20
69.297364946
 30
0.0
 11
73.8441601059
 21
68.6373649437
 31
0.0
  0
LINE
  5
5C8
330
730
100
AcDbEntity
  8
0
  6
SLD-SOLID
 62
     7
100
AcDbLine
 10
73.8791602349
 20
69.297364946
 30
0.0
 11
73.8791602349
 21
68.6373649437
 31
0.0
  0
LINE
  5
5C9
330
730
100
AcDbEntity
  8
0
  6
SLD-SOLID
 62
     7
100
AcDbLine
 10
77.8441597642
 20
68.6373649437
 30
0.0
 11
77.8091596352
 21
68.6373649437
 31
0.0
  0
LINE
  5
5CA
330
730
100
AcDbEntity
  8
0
  6
SLD-SOLID
 62
     7
100
AcDbLine
 10
77.8441597642
 20
68.6373649437
 30
0.0
 11
77.8441597642
 21
69.297364946
 31
0.0
  0
LINE
  5
5CB
330
730
100
AcDbEntity
  8
0
  6
SLD-SOLID
 62
     7
100
AcDbLine
 10
77.8091596352
 20
68.6373649437
 30
0.0
 11
77.8091596352
 21
69.297364946
 31
0.0
  0
LINE
  5
5CC
330
730
100
AcDbEntity
  8
0
  6
SLD-SOLID
 62
     7
100
AcDbLine
 10
77.8091596352
 20
69.297364946
 30
0.0
 11
77.8441597642
 21
69.297364946
 31
0.0
  0
ARC
  5
5CD
330
730
100
AcDbEntity
  8
0
  6
SLD-SOLID
 62
     7
100
AcDbCircle
 10
73.9341599576
 20
68.6373650211
 30
0.0
 40
0.0550000000000068
100
AcDbArc
 50
180.0
 51
270.0
  0
LINE
  5
5CE
330
730
100
AcDbEntity
  8
0
  6
SLD-SOLID
 62
     7
100
AcDbLine
 10
73.9341595995
 20
68.5473648634
 30
0.0
 11
73.9341595995
 21
68.5823649924
 31
0.0
  0
ARC
  5
5CF
330
730
100
AcDbEntity
  8
0
  6
SLD-SOLID
 62
     7
100
AcDbCircle
 10
73.9341599576
 20
68.6373650211
 30
0.0
 40
0.0900000000000034
100
AcDbArc
 50
180.0
 51
270.0
  0
LINE
  5
5D0
330
730
100
AcDbEntity
  8
0
  6
SLD-SOLID
 62
     7
100
AcDbLine
 10
73.9341595995
 20
68.5823649924
 30
0.0
 11
73.949784699
 21
68.5823649924
 31
0.0
  0
LINE
  5
5D1
330
730
100
AcDbEntity
  8
0
  6
SLD-SOLID
 62
     7
100
AcDbLine
 10
73.9341595995
 20
68.5473648634
 30
0.0
 11
73.949784699
 21
68.5473648634
 31
0.0
  0
LINE
  5
5D2
330
730
100
AcDbEntity
  8
0
  6
SLD-SOLID
 62
     7
100
AcDbLine
 10
77.7541602705
 20
68.5823649924
 30
0.0
 11
77.7541602705
 21
68.5473648634
 31
0.0
  0
LINE
  5
5D3
330
730
100
AcDbEntity
  8
0
  6
SLD-SOLID
 62
     7
100
AcDbLine
 10
77.738535171
 20
68.5823649924
 30
0.0
 11
77.7541602705
 21
68.5823649924
 31
0.0
  0
LINE
  5
5D4
330
730
100
AcDbEntity
  8
0
  6
SLD-SOLID
 62
     7
100
AcDbLine
 10
77.738535171
 20
68.5473648634
 30
0.0
 11
77.7541602705
 21
68.5473648634
 31
0.0
  0
ARC
  5
5D5
330
730
100
AcDbEntity
  8
0
  6
SLD-SOLID
 62
     7
100
AcDbCircle
 10
77.7541599576
 20
68.6373650211
 30
0.0
 40
0.0900000000000034
100
AcDbArc
 50
270.0
 51
0.0
  0
ARC
  5
5D6
330
730
100
AcDbEntity
  8
0
  6
SLD-SOLID
 62
     7
100
AcDbCircle
 10
77.7541599576
 20
68.6373650211
 30
0.0
 40
0.0550000000000068
100
AcDbArc
 50
270.0
 51
0.0
  0
LINE
  5
5D7
330
730
100
AcDbEntity
  8
0
  6
SLD-SOLID
 62
     7
100
AcDbLine
 10
77.8928877346
 20
69.1573650166
 30
0.0
 11
77.8928877346
 21
68.7823649753
 31
0.0
  0
LINE
  5
5D8
330
730
100
AcDbEntity
  8
0
  6
SLD-SOLID
 62
     7
100
AcDbLine
 10
73.7954321354
 20
68.7823649753
 30
0.0
 11
73.7954321354
 21
69.1573650166
 31
0.0
  0
LINE
  5
5D9
330
730
100
AcDbEntity
  8
0
  6
SLD-SOLID
 62
     7
100
AcDbLine
 10
73.7929928036
 20
68.7823649753
 30
0.0
 11
73.7929928036
 21
69.1573650166
 31
0.0
  0
LINE
  5
5DA
330
730
100
AcDbEntity
  8
0
  6
SLD-SOLID
 62
     7
100
AcDbLine
 10
73.8440263474
 20
68.7823649753
 30
0.0
 11
73.7929928036
 21
68.7823649753
 31
0.0
  0
LINE
  5
5DB
330
730
100
AcDbEntity
  8
0
  6
SLD-SOLID
 62
     7
100
AcDbLine
 10
73.8440263474
 20
69.1573650166
 30
0.0
 11
73.8440263474
 21
68.7823649753
 31
0.0
  0
LINE
  5
5DC
330
730
100
AcDbEntity
  8
0
  6
SLD-SOLID
 62
     7
100
AcDbLine
 10
73.7929928036
 20
69.1573650166
 30
0.0
 11
73.8440263474
 21
69.1573650166
 31
0.0
  0
LINE
  5
5DD
330
730
100
AcDbEntity
  8
0
  6
SLD-SOLID
 62
     7
100
AcDbLine
 10
73.7891595679
 20
69.297364946
 30
0.0
 11
73.7891595679
 21
68.6423650459
 31
0.0
  0
LINE
  5
5DE
330
730
100
AcDbEntity
  8
0
  6
SLD-SOLID
 62
     7
100
AcDbLine
 10
73.8441601059
 20
69.297364946
 30
0.0
 11
73.7891595679
 21
69.297364946
 31
0.0
  0
LINE
  5
5DF
330
730
100
AcDbEntity
  8
0
  6
SLD-SOLID
 62
     7
100
AcDbLine
 10
73.7891595679
 20
68.6423650459
 30
0.0
 11
73.8441601059
 21
68.6423650459
 31
0.0
  0
LINE
  5
5E0
330
730
100
AcDbEntity
  8
0
  6
SLD-SOLID
 62
     7
100
AcDbLine
 10
77.8953270664
 20
69.1573650166
 30
0.0
 11
77.8953270664
 21
68.7823649753
 31
0.0
  0
LINE
  5
5E1
330
730
100
AcDbEntity
  8
0
  6
SLD-SOLID
 62
     7
100
AcDbLine
 10
77.8442935226
 20
69.1573650166
 30
0.0
 11
77.8953270664
 21
69.1573650166
 31
0.0
  0
LINE
  5
5E2
330
730
100
AcDbEntity
  8
0
  6
SLD-SOLID
 62
     7
100
AcDbLine
 10
77.8442935226
 20
68.7823649753
 30
0.0
 11
77.8442935226
 21
69.1573650166
 31
0.0
  0
LINE
  5
5E3
330
730
100
AcDbEntity
  8
0
  6
SLD-SOLID
 62
     7
100
AcDbLine
 10
77.8953270664
 20
68.7823649753
 30
0.0
 11
77.8442935226
 21
68.7823649753
 31
0.0
  0
LINE
  5
5E4
330
730
100
AcDbEntity
  8
0
  6
SLD-SOLID
 62
     7
100
AcDbLine
 10
77.8991603022
 20
68.6423650459
 30
0.0
 11
77.8991603022
 21
69.297364946
 31
0.0
  0
LINE
  5
5E5
330
730
100
AcDbEntity
  8
0
  6
SLD-SOLID
 62
     7
100
AcDbLine
 10
77.8441597642
 20
68.6423650459
 30
0.0
 11
77.8991603022
 21
68.6423650459
 31
0.0
  0
LINE
  5
5E6
330
730
100
AcDbEntity
  8
0
  6
SLD-SOLID
 62
     7
100
AcDbLine
 10
77.8991603022
 20
69.297364946
 30
0.0
 11
77.8441597642
 21
69.297364946
 31
0.0
  0
LINE
  5
5E7
330
730
100
AcDbEntity
  8
0
  6
SLD-SOLID
 62
     7
100
AcDbLine
 10
77.8991603022
 20
69.297364946
 30
0.0
 11
78.5941598468
 21
69.297364946
 31
0.0
  0
LINE
  5
5E8
330
730
100
AcDbEntity
  8
0
  6
SLD-SOLID
 62
     7
100
AcDbLine
 10
78.5941598468
 20
69.297364946
 30
0.0
 11
78.5941598468
 21
68.6423650459
 31
0.0
  0
CIRCLE
  5
5E9
330
730
100
AcDbEntity
  8
0
  6
SLD-SOLID
 62
     7
100
AcDbCircle
 10
78.3129099576
 20
68.9848650211
 30
0.0
 40
0.109375
  0
LINE
  5
5EA
330
730
100
AcDbEntity
  8
0
  6
SLD-SOLID
 62
     7
100
AcDbLine
 10
78.5941598468
 20
68.6423650459
 30
0.0
 11
77.8991603022
 21
68.6423650459
 31
0.0
  0
LINE
  5
5EB
330
730
100
AcDbEntity
  8
0
  6
SLD-SOLID
 62
     7
100
AcDbLine
 10
73.0941600233
 20
68.6423650459
 30
0.0
 11
73.0941600233
 21
69.297364946
 31
0.0
  0
LINE
  5
5EC
330
730
100
AcDbEntity
  8
0
  6
SLD-SOLID
 62
     7
100
AcDbLine
 10
73.0941600233
 20
69.297364946
 30
0.0
 11
73.7891595679
 21
69.297364946
 31
0.0
  0
LINE
  5
5ED
330
730
100
AcDbEntity
  8
0
  6
SLD-SOLID
 62
     7
100
AcDbLine
 10
73.7891595679
 20
68.6423650459
 30
0.0
 11
73.0941600233
 21
68.6423650459
 31
0.0
  0
CIRCLE
  5
5EE
330
730
100
AcDbEntity
  8
0
  6
SLD-SOLID
 62
     7
100
AcDbCircle
 10
73.3754099576
 20
68.9848650211
 30
0.0
 40
0.109375
  0
ARC
  5
5EF
330
730
100
AcDbEntity
  8
0
  6
SLD-SOLID
 62
     7
100
AcDbCircle
 10
87.3618733435
 20
86.6295752777
 30
0.0
 40
0.1738158701516387
100
AcDbArc
 50
18.0227080885
 51
64.332949859
  0
LINE
  5
5F0
330
730
100
AcDbEntity
  8
0
  6
SLD-SOLID
 62
     7
100
AcDbLine
 10
87.5271607587
 20
86.6833528482
 30
0.0
 11
87.5271607587
 21
69.2551271939
 31
0.0
  0
ARC
  5
5F1
330
730
100
AcDbEntity
  8
0
  6
SLD-SOLID
 62
     7
100
AcDbCircle
 10
87.3618733435
 20
69.3089047644
 30
0.0
 40
0.1738158701515884
100
AcDbArc
 50
295.667050141
 51
341.9772919115
  0
LINE
  5
5F2
330
730
100
AcDbEntity
  8
0
  6
SLD-SOLID
 62
     7
100
AcDbLine
 10
87.4371600917
 20
69.1522399558
 30
0.0
 11
87.4371600917
 21
86.7862400863
 31
0.0
  0
LINE
  5
5F3
330
730
100
AcDbEntity
  8
0
  6
SLD-SOLID
 62
     7
100
AcDbLine
 10
36.2660351716
 20
69.1373651943
 30
0.0
 11
36.2660351716
 21
68.6373649437
 31
0.0
  0
LINE
  5
5F4
330
730
100
AcDbEntity
  8
0
  6
SLD-SOLID
 62
     7
100
AcDbLine
 10
36.2511598234
 20
69.1522399558
 30
0.0
 11
36.2660351716
 21
69.1373651943
 31
0.0
  0
LINE
  5
5F5
330
730
100
AcDbEntity
  8
0
  6
SLD-SOLID
 62
     7
100
AcDbLine
 10
36.2511598234
 20
86.7862400863
 30
0.0
 11
36.2511598234
 21
69.1522399558
 31
0.0
  0
LINE
  5
5F6
330
730
100
AcDbEntity
  8
0
  6
SLD-SOLID
 62
     7
100
AcDbLine
 10
36.2660351716
 20
87.3011150985
 30
0.0
 11
36.2660351716
 21
86.8011148478
 31
0.0
  0
LINE
  5
5F7
330
730
100
AcDbEntity
  8
0
  6
SLD-SOLID
 62
     7
100
AcDbLine
 10
87.4222847435
 20
87.3011150985
 30
0.0
 11
36.2660351716
 21
87.3011150985
 31
0.0
  0
LINE
  5
5F8
330
730
100
AcDbEntity
  8
0
  6
SLD-SOLID
 62
     7
100
AcDbLine
 10
87.4222847435
 20
86.8011148478
 30
0.0
 11
87.4222847435
 21
87.3011150985
 31
0.0
  0
LINE
  5
5F9
330
730
100
AcDbEntity
  8
0
  6
SLD-SOLID
 62
     7
100
AcDbLine
 10
87.4222847435
 20
69.1373651943
 30
0.0
 11
87.4371600917
 21
69.1522399558
 31
0.0
  0
LINE
  5
5FA
330
730
100
AcDbEntity
  8
0
  6
SLD-SOLID
 62
     7
100
AcDbLine
 10
87.4222847435
 20
68.6373649437
 30
0.0
 11
87.4222847435
 21
69.1373651943
 31
0.0
  0
CIRCLE
  5
5FB
330
730
100
AcDbEntity
  8
0
  6
SLD-SOLID
 62
     7
100
AcDbCircle
 10
39.3441599576
 20
77.9692400211
 30
0.0
 40
0.109375
  0
CIRCLE
  5
5FC
330
730
100
AcDbEntity
  8
0
  6
SLD-SOLID
 62
     7
100
AcDbCircle
 10
54.3441599576
 20
77.9692400211
 30
0.0
 40
0.109375
  0
CIRCLE
  5
5FD
330
730
100
AcDbEntity
  8
0
  6
SLD-SOLID
 62
     7
100
AcDbCircle
 10
69.3441599576
 20
77.9692400211
 30
0.0
 40
0.109375
  0
CIRCLE
  5
5FE
330
730
100
AcDbEntity
  8
0
  6
SLD-SOLID
 62
     7
100
AcDbCircle
 10
84.3441599576
 20
77.9692400211
 30
0.0
 40
0.109375
  0
CIRCLE
  5
5FF
330
730
100
AcDbEntity
  8
0
  6
SLD-SOLID
 62
     7
100
AcDbCircle
 10
59.3754099576
 20
68.9848650211
 30
0.0
 40
0.0859999999999985
  0
CIRCLE
  5
600
330
730
100
AcDbEntity
  8
0
  6
SLD-SOLID
 62
     7
100
AcDbCircle
 10
64.3129099576
 20
68.9848650211
 30
0.0
 40
0.0859999999999985
  0
CIRCLE
  5
601
330
730
100
AcDbEntity
  8
0
  6
SLD-SOLID
 62
     7
100
AcDbCircle
 10
64.3129099576
 20
69.5004900211
 30
0.0
 40
0.0859999999999985
  0
CIRCLE
  5
602
330
730
100
AcDbEntity
  8
0
  6
SLD-SOLID
 62
     7
100
AcDbCircle
 10
64.0609644029
 20
69.6254900211
 30
0.0
 40
0.0859999999999985
  0
CIRCLE
  5
603
330
730
100
AcDbEntity
  8
0
  6
SLD-SOLID
 62
     7
100
AcDbCircle
 10
59.3754099576
 20
69.5004900211
 30
0.0
 40
0.0859999999999985
  0
CIRCLE
  5
604
330
730
100
AcDbEntity
  8
0
  6
SLD-SOLID
 62
     7
100
AcDbCircle
 10
59.1234644029
 20
69.6254900211
 30
0.0
 40
0.0859999999999559
  0
CIRCLE
  5
605
330
730
100
AcDbEntity
  8
0
  6
SLD-SOLID
 62
     7
100
AcDbCircle
 10
73.3754099576
 20
68.9848650211
 30
0.0
 40
0.0859999999999985
  0
CIRCLE
  5
606
330
730
100
AcDbEntity
  8
0
  6
SLD-SOLID
 62
     7
100
AcDbCircle
 10
78.3129099576
 20
68.9848650211
 30
0.0
 40
0.0859999999999985
  0
CIRCLE
  5
607
330
730
100
AcDbEntity
  8
0
  6
SLD-SOLID
 62
     7
100
AcDbCircle
 10
78.3129099576
 20
69.5004900211
 30
0.0
 40
0.0859999999999985
  0
CIRCLE
  5
608
330
730
100
AcDbEntity
  8
0
  6
SLD-SOLID
 62
     7
100
AcDbCircle
 10
78.0609644029
 20
69.6254900211
 30
0.0
 40
0.0859999999999985
  0
CIRCLE
  5
609
330
730
100
AcDbEntity
  8
0
  6
SLD-SOLID
 62
     7
100
AcDbCircle
 10
73.3754099576
 20
69.5004900211
 30
0.0
 40
0.0859999999999985
  0
CIRCLE
  5
60A
330
730
100
AcDbEntity
  8
0
  6
SLD-SOLID
 62
     7
100
AcDbCircle
 10
73.1234644029
 20
69.6254900211
 30
0.0
 40
0.0859999999999985
  0
CIRCLE
  5
60B
330
730
100
AcDbEntity
  8
0
  6
SLD-SOLID
 62
     7
100
AcDbCircle
 10
45.3754099576
 20
68.9848650211
 30
0.0
 40
0.0859999999999985
  0
CIRCLE
  5
60C
330
730
100
AcDbEntity
  8
0
  6
SLD-SOLID
 62
     7
100
AcDbCircle
 10
50.3129099576
 20
68.9848650211
 30
0.0
 40
0.0859999999999985
  0
CIRCLE
  5
60D
330
730
100
AcDbEntity
  8
0
  6
SLD-SOLID
 62
     7
100
AcDbCircle
 10
50.3129099576
 20
69.5004900211
 30
0.0
 40
0.0859999999999985
  0
CIRCLE
  5
60E
330
730
100
AcDbEntity
  8
0
  6
SLD-SOLID
 62
     7
100
AcDbCircle
 10
50.0609644029
 20
69.6254900211
 30
0.0
 40
0.0859999999999985
  0
CIRCLE
  5
60F
330
730
100
AcDbEntity
  8
0
  6
SLD-SOLID
 62
     7
100
AcDbCircle
 10
45.3754099576
 20
69.5004900211
 30
0.0
 40
0.0859999999999985
  0
CIRCLE
  5
610
330
730
100
AcDbEntity
  8
0
  6
SLD-SOLID
 62
     7
100
AcDbCircle
 10
45.1234644029
 20
69.6254900211
 30
0.0
 40
0.0859999999999985
  0
LINE
  5
611
330
730
100
AcDbEntity
  8
0
  6
SLD-SOLID
 62
     7
100
AcDbLine
 10
36.2660351716
 20
86.8011148478
 30
0.0
 11
36.2511598234
 21
86.7862400863
 31
0.0
  0
LINE
  5
612
330
730
100
AcDbEntity
  8
0
  6
SLD-SOLID
 62
     7
100
AcDbLine
 10
87.4371600917
 20
86.7862400863
 30
0.0
 11
87.4222847435
 21
86.8011148478
 31
0.0
  0
ARC
  5
613
330
730
100
AcDbEntity
  8
0
  6
SLD-SOLID
 62
     7
100
AcDbCircle
 10
36.3264465716
 20
69.3089047644
 30
0.0
 40
0.1738158701515946
100
AcDbArc
 50
198.0227080885
 51
244.332949859
  0
LINE
  5
614
330
730
100
AcDbEntity
  8
0
  6
SLD-SOLID
 62
     7
100
AcDbLine
 10
36.1611591564
 20
69.2551271939
 30
0.0
 11
36.1611591564
 21
86.6833528482
 31
0.0
  0
ARC
  5
615
330
730
100
AcDbEntity
  8
0
  6
SLD-SOLID
 62
     7
100
AcDbCircle
 10
36.3264465716
 20
86.6295752777
 30
0.0
 40
0.1738158701516356
100
AcDbArc
 50
115.667050141
 51
161.9772919115
  0
LINE
  5
616
330
730
100
AcDbEntity
  8
0
  6
SLD-SOLID
 62
     7
100
AcDbLine
 10
36.2660351716
 20
87.3011150985
 30
0.0
 11
36.2660351716
 21
87.3911151788
 31
0.0
  0
LINE
  5
617
330
730
100
AcDbEntity
  8
0
  6
SLD-SOLID
 62
     7
100
AcDbLine
 10
36.2660351716
 20
87.3911151788
 30
0.0
 11
87.4222847435
 21
87.3911151788
 31
0.0
  0
LINE
  5
618
330
730
100
AcDbEntity
  8
0
  6
SLD-SOLID
 62
     7
100
AcDbLine
 10
87.4222847435
 20
87.3911151788
 30
0.0
 11
87.4222847435
 21
87.3011150985
 31
0.0
  0
LINE
  5
619
330
730
100
AcDbEntity
  8
0
  6
SLD-SOLID
 62
     7
100
AcDbLine
 10
87.4222847435
 20
68.5473648634
 30
0.0
 11
77.7541602705
 21
68.5473648634
 31
0.0
  0
LINE
  5
61A
330
730
100
AcDbEntity
  8
0
  6
SLD-SOLID
 62
     7
100
AcDbLine
 10
73.9341595995
 20
68.5473648634
 30
0.0
 11
63.7541599997
 21
68.5473648634
 31
0.0
  0
LINE
  5
61B
330
730
100
AcDbEntity
  8
0
  6
SLD-SOLID
 62
     7
100
AcDbLine
 10
59.9341599154
 20
68.5473648634
 30
0.0
 11
49.7541603156
 21
68.5473648634
 31
0.0
  0
LINE
  5
61C
330
730
100
AcDbEntity
  8
0
  6
SLD-SOLID
 62
     7
100
AcDbLine
 10
45.9341596446
 20
68.5473648634
 30
0.0
 11
36.2660351716
 21
68.5473648634
 31
0.0
  0
LINE
  5
61D
330
730
100
AcDbEntity
  8
0
  6
SLD-SOLID
 62
     7
100
AcDbLine
 10
87.4222847435
 20
68.6373649437
 30
0.0
 11
87.4222847435
 21
68.5473648634
 31
0.0
  0
LINE
  5
61E
330
730
100
AcDbEntity
  8
0
  6
SLD-SOLID
 62
     7
100
AcDbLine
 10
36.2660351716
 20
68.5473648634
 30
0.0
 11
36.2660351716
 21
68.6373649437
 31
0.0
  0
LINE
  5
61F
330
730
100
AcDbEntity
  8
0
  6
SLD-SOLID
 62
     7
100
AcDbLine
 10
36.2541588288
 20
68.6879901722
 30
0.0
 11
36.2191610464
 21
68.6879901722
 31
0.0
  0
LINE
  5
620
330
730
100
AcDbEntity
  8
0
  6
SLD-SOLID
 62
     7
100
AcDbLine
 10
36.2191610464
 20
87.25048987
 30
0.0
 11
36.2191610464
 21
86.7623413224
 31
0.0
  0
LINE
  5
621
330
730
100
AcDbEntity
  8
0
  6
SLD-SOLID
 62
     7
100
AcDbLine
 10
36.2191610464
 20
69.1761387197
 30
0.0
 11
36.2191610464
 21
68.6879901722
 31
0.0
  0
LINE
  5
622
330
730
100
AcDbEntity
  8
0
  6
SLD-SOLID
 62
     7
100
AcDbLine
 10
36.2541588288
 20
87.25048987
 30
0.0
 11
36.2191610464
 21
87.25048987
 31
0.0
  0
LINE
  5
623
330
730
100
AcDbEntity
  8
0
  6
SLD-SOLID
 62
     7
100
AcDbLine
 10
36.2541588288
 20
87.25048987
 30
0.0
 11
36.2541588288
 21
86.789240265
 31
0.0
  0
LINE
  5
624
330
730
100
AcDbEntity
  8
0
  6
SLD-SOLID
 62
     7
100
AcDbLine
 10
36.2541588288
 20
69.1492397771
 30
0.0
 11
36.2541588288
 21
68.6879901722
 31
0.0
  0
ARC
  5
625
330
730
100
AcDbEntity
  8
0
  6
SLD-SOLID
 62
     7
100
AcDbCircle
 10
36.3091599576
 20
87.2504900211
 30
0.0
 40
0.0900000000000008
100
AcDbArc
 50
118.630989837
 51
180.0
  0
ARC
  5
626
330
730
100
AcDbEntity
  8
0
  6
SLD-SOLID
 62
     7
100
AcDbCircle
 10
36.3091599576
 20
87.2504900211
 30
0.0
 40
0.0549999999999997
100
AcDbArc
 50
141.6366764731
 51
180.0
  0
ARC
  5
627
330
730
100
AcDbEntity
  8
0
  6
SLD-SOLID
 62
     7
100
AcDbCircle
 10
36.3091599576
 20
68.6879900211
 30
0.0
 40
0.0900000000000121
100
AcDbArc
 50
180.0
 51
241.3690101631
  0
ARC
  5
628
330
730
100
AcDbEntity
  8
0
  6
SLD-SOLID
 62
     7
100
AcDbCircle
 10
36.3091599576
 20
68.6879900211
 30
0.0
 40
0.0549999999999999
100
AcDbArc
 50
180.0
 51
218.3633235267
  0
LINE
  5
629
330
730
100
AcDbEntity
  8
0
  6
SLD-SOLID
 62
     7
100
AcDbLine
 10
87.4341610863
 20
87.25048987
 30
0.0
 11
87.4691588687
 21
87.25048987
 31
0.0
  0
LINE
  5
62A
330
730
100
AcDbEntity
  8
0
  6
SLD-SOLID
 62
     7
100
AcDbLine
 10
87.4691588687
 20
87.25048987
 30
0.0
 11
87.4691588687
 21
86.7623413224
 31
0.0
  0
LINE
  5
62B
330
730
100
AcDbEntity
  8
0
  6
SLD-SOLID
 62
     7
100
AcDbLine
 10
87.4691588687
 20
69.1761387197
 30
0.0
 11
87.4691588687
 21
68.6879901722
 31
0.0
  0
LINE
  5
62C
330
730
100
AcDbEntity
  8
0
  6
SLD-SOLID
 62
     7
100
AcDbLine
 10
87.4341610863
 20
68.6879901722
 30
0.0
 11
87.4691588687
 21
68.6879901722
 31
0.0
  0
LINE
  5
62D
330
730
100
AcDbEntity
  8
0
  6
SLD-SOLID
 62
     7
100
AcDbLine
 10
87.4341610863
 20
87.25048987
 30
0.0
 11
87.4341610863
 21
86.789240265
 31
0.0
  0
LINE
  5
62E
330
730
100
AcDbEntity
  8
0
  6
SLD-SOLID
 62
     7
100
AcDbLine
 10
87.4341610863
 20
69.1492397771
 30
0.0
 11
87.4341610863
 21
68.6879901722
 31
0.0
  0
ARC
  5
62F
330
730
100
AcDbEntity
  8
0
  6
SLD-SOLID
 62
     7
100
AcDbCircle
 10
87.3791599576
 20
87.2504900211
 30
0.0
 40
0.0549999999999926
100
AcDbArc
 50
0.0
 51
38.3633235269
  0
ARC
  5
630
330
730
100
AcDbEntity
  8
0
  6
SLD-SOLID
 62
     7
100
AcDbCircle
 10
87.3791599576
 20
87.2504900211
 30
0.0
 40
0.0900000000000143
100
AcDbArc
 50
0.0
 51
61.36901016309999
  0
ARC
  5
631
330
730
100
AcDbEntity
  8
0
  6
SLD-SOLID
 62
     7
100
AcDbCircle
 10
87.3791599576
 20
68.6879900211
 30
0.0
 40
0.0900000000000087
100
AcDbArc
 50
298.6309898369
 51
0.0
  0
ARC
  5
632
330
730
100
AcDbEntity
  8
0
  6
SLD-SOLID
 62
     7
100
AcDbCircle
 10
87.3791599576
 20
68.6879900211
 30
0.0
 40
0.0550000000000004
100
AcDbArc
 50
321.6366764729
 51
0.0
  0
CIRCLE
  5
633
330
730
100
AcDbEntity
  8
0
  6
SLD-SOLID
 62
     7
100
AcDbCircle
 10
39.3441852426
 20
77.9848400211
 30
0.0
 40
0.0859999999999985
  0
CIRCLE
  5
634
330
730
100
AcDbEntity
  8
0
  6
SLD-SOLID
 62
     7
100
AcDbCircle
 10
69.3441852426
 20
77.9848400211
 30
0.0
 40
0.0859999999999985
  0
CIRCLE
  5
635
330
730
100
AcDbEntity
  8
0
  6
SLD-SOLID
 62
     7
100
AcDbCircle
 10
84.3441852426
 20
77.9848400211
 30
0.0
 40
0.0859999999999985
  0
CIRCLE
  5
636
330
730
100
AcDbEntity
  8
0
  6
SLD-SOLID
 62
     7
100
AcDbCircle
 10
54.3441852426
 20
77.9848400211
 30
0.0
 40
0.0859999999999985
  0
LINE
  5
637
330
730
100
AcDbEntity
  8
0
  6
SLD-SOLID
 62
     7
100
AcDbLine
 10
85.8441860672
 20
67.8638403862
 30
0.0
 11
37.844185474
 21
67.8638403862
 31
0.0
  0
LINE
  5
638
330
730
100
AcDbEntity
  8
0
  6
SLD-SOLID
 62
     7
100
AcDbLine
 10
85.8441860672
 20
67.8638403862
 30
0.0
 11
85.8441860672
 21
67.7643898017
 31
0.0
  0
LINE
  5
639
330
730
100
AcDbEntity
  8
0
  6
SLD-SOLID
 62
     7
100
AcDbLine
 10
37.844185474
 20
67.8638403862
 30
0.0
 11
37.844185474
 21
67.7643898017
 31
0.0
  0
LINE
  5
63A
330
730
100
AcDbEntity
  8
0
  6
SLD-SOLID
 62
     7
100
AcDbLine
 10
37.844185474
 20
68.5340341907
 30
0.0
 11
85.8441860672
 21
68.5340341907
 31
0.0
  0
LINE
  5
63B
330
730
100
AcDbEntity
  8
0
  6
SLD-SOLID
 62
     7
100
AcDbLine
 10
85.8441860672
 20
68.5340341907
 30
0.0
 11
85.8441860672
 21
67.8638403862
 31
0.0
  0
LINE
  5
63C
330
730
100
AcDbEntity
  8
0
  6
SLD-SOLID
 62
     7
100
AcDbLine
 10
37.844185474
 20
68.5340341907
 30
0.0
 11
37.844185474
 21
67.8638403862
 31
0.0
  0
LINE
  5
63D
330
730
100
AcDbEntity
  8
0
  6
SLD-SOLID
 62
     7
100
AcDbLine
 10
85.8441860672
 20
68.5473648634
 30
0.0
 11
85.8441860672
 21
68.5340341907
 31
0.0
  0
LINE
  5
63E
330
730
100
AcDbEntity
  8
0
  6
SLD-SOLID
 62
     7
100
AcDbLine
 10
37.844185474
 20
68.5473648634
 30
0.0
 11
37.844185474
 21
68.5340341907
 31
0.0
  0
LINE
  5
63F
330
730
100
AcDbEntity
  8
0
  6
SLD-SOLID
 62
     7
100
AcDbLine
 10
85.88521002
 20
68.5473648634
 30
0.0
 11
85.9822013262
 21
67.8572310759
 31
0.0
  0
LINE
  5
640
330
730
100
AcDbEntity
  8
0
  6
SLD-SOLID
 62
     7
100
AcDbLine
 10
85.9822013262
 20
67.8572310759
 30
0.0
 11
86.0168611924
 21
67.8621026996
 31
0.0
  0
LINE
  5
641
330
730
100
AcDbEntity
  8
0
  6
SLD-SOLID
 62
     7
100
AcDbLine
 10
85.9205527583
 20
68.5473648634
 30
0.0
 11
86.0168611924
 21
67.8621026996
 31
0.0
  0
LINE
  5
642
330
730
100
AcDbEntity
  8
0
  6
SLD-SOLID
 62
     7
100
AcDbLine
 10
85.8441860672
 20
67.8500280657
 30
0.0
 11
85.8791861962
 21
67.8500280657
 31
0.0
  0
LINE
  5
643
330
730
100
AcDbEntity
  8
0
  6
SLD-SOLID
 62
     7
100
AcDbLine
 10
85.8791861962
 20
68.5473648634
 30
0.0
 11
85.8791861962
 21
67.8500280657
 31
0.0
  0
ARC
  5
644
330
730
100
AcDbEntity
  8
0
  6
SLD-SOLID
 62
     7
100
AcDbCircle
 10
85.9309452426
 20
67.8500275211
 30
0.0
 40
0.0517600000000123
100
AcDbArc
 50
180.0
 51
8.0
  0
ARC
  5
645
330
730
100
AcDbEntity
  8
0
  6
SLD-SOLID
 62
     7
100
AcDbCircle
 10
85.9309452426
 20
67.8500275211
 30
0.0
 40
0.0867600000000188
100
AcDbArc
 50
180.0
 51
8.0
  0
LINE
  5
646
330
730
100
AcDbEntity
  8
0
  6
SLD-SOLID
 62
     7
100
AcDbLine
 10
37.7061678684
 20
67.8572310759
 30
0.0
 11
37.6715103487
 21
67.8621026996
 31
0.0
  0
LINE
  5
647
330
730
100
AcDbEntity
  8
0
  6
SLD-SOLID
 62
     7
100
AcDbLine
 10
37.7678164362
 20
68.5473648634
 30
0.0
 11
37.6715103487
 21
67.8621026996
 31
0.0
  0
LINE
  5
648
330
730
100
AcDbEntity
  8
0
  6
SLD-SOLID
 62
     7
100
AcDbLine
 10
37.8031615212
 20
68.5473648634
 30
0.0
 11
37.7061678684
 21
67.8572310759
 31
0.0
  0
LINE
  5
649
330
730
100
AcDbEntity
  8
0
  6
SLD-SOLID
 62
     7
100
AcDbLine
 10
37.809185345
 20
67.8500280657
 30
0.0
 11
37.844185474
 21
67.8500280657
 31
0.0
  0
LINE
  5
64A
330
730
100
AcDbEntity
  8
0
  6
SLD-SOLID
 62
     7
100
AcDbLine
 10
37.809185345
 20
68.5473648634
 30
0.0
 11
37.809185345
 21
67.8500280657
 31
0.0
  0
ARC
  5
64B
330
730
100
AcDbEntity
  8
0
  6
SLD-SOLID
 62
     7
100
AcDbCircle
 10
37.7574252426
 20
67.8500275211
 30
0.0
 40
0.0867600000000047
100
AcDbArc
 50
172.0
 51
0.0
  0
ARC
  5
64C
330
730
100
AcDbEntity
  8
0
  6
SLD-SOLID
 62
     7
100
AcDbCircle
 10
37.7574252426
 20
67.8500275211
 30
0.0
 40
0.0517600000000033
100
AcDbArc
 50
172.0
 51
0.0
  0
LINE
  5
64D
330
730
100
AcDbEntity
  8
0
  6
SLD-SOLID
 62
     7
100
AcDbLine
 10
37.8441596609
 20
67.8479325166
 30
0.0
 11
37.8441596609
 21
67.7698645118
 31
0.0
  0
LINE
  5
64E
330
730
100
AcDbEntity
  8
0
  6
SLD-SOLID
 62
     7
100
AcDbLine
 10
85.8441602542
 20
67.7328967255
 30
0.0
 11
85.8441602542
 21
67.7643898017
 31
0.0
  0
LINE
  5
64F
330
730
100
AcDbEntity
  8
0
  6
SLD-SOLID
 62
     7
100
AcDbLine
 10
37.8441596609
 20
67.7698645118
 30
0.0
 11
37.8441596609
 21
67.7328967255
 31
0.0
  0
LINE
  5
650
330
730
100
AcDbEntity
  8
0
  6
SLD-SOLID
 62
     7
100
AcDbLine
 10
87.5041589977
 20
68.6723650727
 30
0.0
 11
87.5041589977
 21
69.2081140304
 31
0.0
  0
LINE
  5
651
330
730
100
AcDbEntity
  8
0
  6
SLD-SOLID
 62
     7
100
AcDbLine
 10
87.4691588687
 20
68.6723650727
 30
0.0
 11
87.5041589977
 21
68.6723650727
 31
0.0
  0
LINE
  5
652
330
730
100
AcDbEntity
  8
0
  6
SLD-SOLID
 62
     7
100
AcDbLine
 10
87.4691588687
 20
68.6723650727
 30
0.0
 11
87.4691588687
 21
68.6879901722
 31
0.0
  0
ARC
  5
653
330
730
100
AcDbEntity
  8
0
  6
SLD-SOLID
 62
     7
100
AcDbCircle
 10
87.5591599576
 20
68.6723650211
 30
0.0
 40
0.0900000000000176
100
AcDbArc
 50
180.0
 51
270.0
  0
ARC
  5
654
330
730
100
AcDbEntity
  8
0
  6
SLD-SOLID
 62
     7
100
AcDbCircle
 10
87.5591599576
 20
68.6723650211
 30
0.0
 40
0.055000000000021
100
AcDbArc
 50
180.0
 51
270.0
  0
LINE
  5
655
330
730
100
AcDbEntity
  8
0
  6
SLD-SOLID
 62
     7
100
AcDbLine
 10
87.5591595357
 20
68.6173651214
 30
0.0
 11
87.5591595357
 21
68.5823649924
 31
0.0
  0
LINE
  5
656
330
730
100
AcDbEntity
  8
0
  6
SLD-SOLID
 62
     7
100
AcDbLine
 10
89.0941598299
 20
68.6173651214
 30
0.0
 11
89.0941598299
 21
68.5823649924
 31
0.0
  0
LINE
  5
657
330
730
100
AcDbEntity
  8
0
  6
SLD-SOLID
 62
     7
100
AcDbLine
 10
89.0941598299
 20
68.5823649924
 30
0.0
 11
87.5591595357
 21
68.5823649924
 31
0.0
  0
LINE
  5
658
330
730
100
AcDbEntity
  8
0
  6
SLD-SOLID
 62
     7
100
AcDbLine
 10
89.0941598299
 20
68.6173651214
 30
0.0
 11
87.5591595357
 21
68.6173651214
 31
0.0
  0
LINE
  5
659
330
730
100
AcDbEntity
  8
0
  6
SLD-SOLID
 62
     7
100
AcDbLine
 10
36.1841609174
 20
68.6723650727
 30
0.0
 11
36.2191610464
 21
68.6723650727
 31
0.0
  0
LINE
  5
65A
330
730
100
AcDbEntity
  8
0
  6
SLD-SOLID
 62
     7
100
AcDbLine
 10
36.1841609174
 20
68.6723650727
 30
0.0
 11
36.1841609174
 21
69.2081140304
 31
0.0
  0
LINE
  5
65B
330
730
100
AcDbEntity
  8
0
  6
SLD-SOLID
 62
     7
100
AcDbLine
 10
36.2191610464
 20
68.6723650727
 30
0.0
 11
36.2191610464
 21
68.6879901722
 31
0.0
  0
ARC
  5
65C
330
730
100
AcDbEntity
  8
0
  6
SLD-SOLID
 62
     7
100
AcDbCircle
 10
36.1291599576
 20
68.6723650211
 30
0.0
 40
0.0900000000000034
100
AcDbArc
 50
270.0
 51
0.0
  0
LINE
  5
65D
330
730
100
AcDbEntity
  8
0
  6
SLD-SOLID
 62
     7
100
AcDbLine
 10
36.1291603794
 20
68.5823649924
 30
0.0
 11
36.1291603794
 21
68.6173651214
 31
0.0
  0
ARC
  5
65E
330
730
100
AcDbEntity
  8
0
  6
SLD-SOLID
 62
     7
100
AcDbCircle
 10
36.1291599576
 20
68.6723650211
 30
0.0
 40
0.0549999999999997
100
AcDbArc
 50
270.0
 51
0.0
  0
LINE
  5
65F
330
730
100
AcDbEntity
  8
0
  6
SLD-SOLID
 62
     7
100
AcDbLine
 10
34.5941600852
 20
68.6173651214
 30
0.0
 11
34.5941600852
 21
68.5823649924
 31
0.0
  0
LINE
  5
660
330
730
100
AcDbEntity
  8
0
  6
SLD-SOLID
 62
     7
100
AcDbLine
 10
34.5941600852
 20
68.5823649924
 30
0.0
 11
36.1291603794
 21
68.5823649924
 31
0.0
  0
LINE
  5
661
330
730
100
AcDbEntity
  8
0
  6
SLD-SOLID
 62
     7
100
AcDbLine
 10
34.5941600852
 20
68.6173651214
 30
0.0
 11
36.1291603794
 21
68.6173651214
 31
0.0
  0
LINE
  5
662
330
730
100
AcDbEntity
  8
0
  6
SLD-SOLID
 62
     7
100
AcDbLine
 10
87.5591595357
 20
79.6292400846
 30
0.0
 11
87.5271607587
 21
79.6292400846
 31
0.0
  0
LINE
  5
663
330
730
100
AcDbEntity
  8
0
  6
SLD-SOLID
 62
     7
100
AcDbLine
 10
87.5591595357
 20
79.6292400846
 30
0.0
 11
87.5591595357
 21
79.56673998
 31
0.0
  0
LINE
  5
664
330
730
100
AcDbEntity
  8
0
  6
SLD-SOLID
 62
     7
100
AcDbLine
 10
87.5591595357
 20
79.56673998
 30
0.0
 11
87.5271607587
 21
79.56673998
 31
0.0
  0
LINE
  5
665
330
730
100
AcDbEntity
  8
0
  6
SLD-SOLID
 62
     7
100
AcDbLine
 10
87.5591595357
 20
76.2542400062
 30
0.0
 11
87.5271607587
 21
76.2542400062
 31
0.0
  0
LINE
  5
666
330
730
100
AcDbEntity
  8
0
  6
SLD-SOLID
 62
     7
100
AcDbLine
 10
87.5591595357
 20
76.3167399642
 30
0.0
 11
87.5271607587
 21
76.3167399642
 31
0.0
  0
LINE
  5
667
330
730
100
AcDbEntity
  8
0
  6
SLD-SOLID
 62
     7
100
AcDbLine
 10
87.5591595357
 20
76.3167399642
 30
0.0
 11
87.5591595357
 21
76.2542400062
 31
0.0
  0
LINE
  5
668
330
730
100
AcDbEntity
  8
0
  6
SLD-SOLID
 62
     8
100
AcDbLine
 10
36.2660351716
 20
68.6373649437
 30
0.0
 11
45.8441601509
 21
68.6373649437
 31
0.0
  0
LINE
  5
669
330
730
100
AcDbEntity
  8
0
  6
SLD-SOLID
 62
     8
100
AcDbLine
 10
45.8791602799
 20
68.6373649437
 30
0.0
 11
49.8091596802
 21
68.6373649437
 31
0.0
  0
LINE
  5
66A
330
730
100
AcDbEntity
  8
0
  6
SLD-SOLID
 62
     8
100
AcDbLine
 10
49.8441598092
 20
68.6373649437
 30
0.0
 11
59.8441599817
 21
68.6373649437
 31
0.0
  0
LINE
  5
66B
330
730
100
AcDbEntity
  8
0
  6
SLD-SOLID
 62
     8
100
AcDbLine
 10
59.8791599641
 20
68.6373649437
 30
0.0
 11
63.809159951
 21
68.6373649437
 31
0.0
  0
LINE
  5
66C
330
730
100
AcDbEntity
  8
0
  6
SLD-SOLID
 62
     8
100
AcDbLine
 10
63.8441599334
 20
68.6373649437
 30
0.0
 11
73.8441601059
 21
68.6373649437
 31
0.0
  0
LINE
  5
66D
330
730
100
AcDbEntity
  8
0
  6
SLD-SOLID
 62
     8
100
AcDbLine
 10
73.8791602349
 20
68.6373649437
 30
0.0
 11
77.8091596352
 21
68.6373649437
 31
0.0
  0
LINE
  5
66E
330
730
100
AcDbEntity
  8
0
  6
SLD-SOLID
 62
     8
100
AcDbLine
 10
77.8441597642
 20
68.6373649437
 30
0.0
 11
87.4222847435
 21
68.6373649437
 31
0.0
  0
LINE
  5
66F
330
730
100
AcDbEntity
  8
0
  6
SLD-SOLID
 62
     8
100
AcDbLine
 10
37.8441596609
 20
67.7698645118
 30
0.0
 11
37.844185474
 21
67.7698645118
 31
0.0
  0
DIMENSION
  5
670
330
730
100
AcDbEntity
  8
DIM
 62
     7
100
AcDbDimension
  2
_D_16
 10
37.6706652426
 20
62.2380536717
 30
0.0
 11
61.8441852426
 21
62.2380536717
 31
0.0
 70
   160
  1
<>
  3
SLDDIMSTYLE0
100
AcDbAlignedDimension
 13
86.0177052426
 23
67.8500275211
 33
0.0
 14
37.6706652426
 24
67.8500275211
 34
0.0
100
AcDbRotatedDimension
1001
ACAD
1000
DSTYLE
1002
{
1070
   270
1070
     5
1070
    41
1040
0.75
1070
   176
1070
   256
1070
   177
1070
   256
1070
   178
1070
   256
1070
    44
1040
1.0
1070
    42
1040
0.5
1070
   276
1070
     0
1070
   147
1040
0.25
1070
   277
1070
     5
1070
     3
1000
"
1070
    45
1040
0.0
1070
   272
1070
     3
1070
   340
1005
7C1
1070
   140
1040
1.0
1070
   284
1070
    12
1002
}
  0
DIMENSION
  5
67F
330
730
100
AcDbEntity
  8
DIM
 62
     7
100
AcDbDimension
  2
_D_17
 10
95.80899832633332
 20
68.6173650211
 30
0.0
 11
99.225664993
 21
72.3212624782
 31
0.0
 70
   160
  1
<> TYP
  3
SLDDIMSTYLE1
100
AcDbAlignedDimension
 13
85.8441599576
 23
67.7328965171
 33
0.0
 14
89.0941599576
 24
68.6173650211
 34
0.0
 50
90.0
100
AcDbRotatedDimension
1001
ACAD
1000
DSTYLE
1002
{
1070
   270
1070
     5
1070
    41
1040
0.75
1070
   176
1070
   256
1070
   177
1070
   256
1070
   178
1070
   256
1070
    44
1040
1.0
1070
    42
1040
0.5
1070
   276
1070
     0
1070
   147
1040
0.25
1070
   277
1070
     5
1070
     3
1000
"
1070
    45
1040
0.0
1070
   272
1070
     3
1070
   172
1070
     0
1070
   340
1005
7C1
1070
   140
1040
1.0
1070
   284
1070
    12
1002
}
  0
ENDSEC
  0
SECTION
  2
OBJECTS
  0
DICTIONARY
  5
720
330
0
100
AcDbDictionary
  3
ACAD_GROUP
350
721
  3
ACAD_IMAGE_VARS
350
7B9
  3
ACAD_MLINESTYLE
350
72A
  3
ACAD_SCALELIST
350
84C
  3
APPDATA
350
7B7
  3
DWGPROPS
350
87B
  0
DICTIONARY
  5
810
330
716
100
AcDbDictionary
280
     1
  3
ACAD_LAYERSTATES
360
811
  0
DICTIONARY
  5
721
102
{ACAD_REACTORS
330
720
102
}
330
720
100
AcDbDictionary
  0
RASTERVARIABLES
  5
7B9
102
{ACAD_REACTORS
330
720
102
}
330
720
100
AcDbRasterVariables
 90
        0
 70
     1
 71
     1
 72
     0
  0
DICTIONARY
  5
72A
102
{ACAD_REACTORS
330
720
102
}
330
720
100
AcDbDictionary
  3
STANDARD
350
72B
  0
DICTIONARY
  5
84C
102
{ACAD_REACTORS
330
720
102
}
330
720
100
AcDbDictionary
  0
DICTIONARY
  5
7B7
102
{ACAD_REACTORS
330
720
102
}
330
720
100
AcDbDictionary
  0
XRECORD
  5
87B
102
{ACAD_REACTORS
330
720
102
}
330
720
100
AcDbXrecord
  1
DWGPROPS COOKIE
  2

  3

  4

  6

  7

  8
cj.klein
  9

300
=
301
=
302
=
303
=
304
=
305
=
306
=
307
=
308
=
309
=
 40
0.0
 41
2457294.809765301
 42
2457295.695330822
  1

 90
        0
  0
DICTIONARY
  5
811
102
{ACAD_REACTORS
330
810
102
}
330
810
100
AcDbDictionary
  0
MLINESTYLE
  5
72B
102
{ACAD_REACTORS
330
72A
102
}
330
72A
100
AcDbMlineStyle
  2
Standard
 70
     0
  3

 62
   256
 51
90.0
 52
90.0
 71
     2
 49
0.5
 62
   256
  6
BYLAYER
 49
-0.5
 62
   256
  6
BYLAYER
  0
ENDSEC
  0
EOF
