  0
SECTION
  2
HEADER
  9
$ACADVER
  1
AC1018
  9
$ACADMAINTVER
 70
     0
  9
$DWGCODEPAGE
  3
ANSI_1252
  9
$INSBASE
 10
0.0
 20
0.0
 30
0.0
  9
$EXTMIN
 10
0.0
 20
0.0
 30
0.0
  9
$EXTMAX
 10
105.0
 20
65.0
 30
0.0
  9
$LIMMIN
 10
0.0
 20
0.0
  9
$LIMMAX
 10
105.0
 20
65.0
  9
$ORTHOMODE
 70
     0
  9
$REGENMODE
 70
     1
  9
$FILLMODE
 70
     1
  9
$QTEXTMODE
 70
     0
  9
$MIRRTEXT
 70
     1
  9
$LTSCALE
 40
1.0
  9
$ATTMODE
 70
     1
  9
$TEXTSIZE
 40
0.1388888889
  9
$TRACEWID
 40
0.05
  9
$TEXTSTYLE
  7
Standard
  9
$CLAYER
  8
0
  9
$CELTYPE
  6
ByLayer
  9
$CECOLOR
 62
   256
  9
$CELTSCALE
 40
1.0
  9
$DISPSILH
 70
     0
  9
$DIMSCALE
 40
1.0
  9
$DIMASZ
 40
1.0
  9
$DIMEXO
 40
0.0393700787
  9
$DIMDLI
 40
0.38
  9
$DIMRND
 40
0.0
  9
$DIMDLE
 40
0.0
  9
$DIMEXE
 40
0.0393700787
  9
$DIMTP
 40
0.0
  9
$DIMTM
 40
0.0
  9
$DIMTXT
 40
1.25
  9
$DIMCEN
 40
0.09
  9
$DIMTSZ
 40
0.0
  9
$DIMTOL
 70
     0
  9
$DIMLIM
 70
     0
  9
$DIMTIH
 70
     1
  9
$DIMTOH
 70
     1
  9
$DIMSE1
 70
     0
  9
$DIMSE2
 70
     0
  9
$DIMTAD
 70
     0
  9
$DIMZIN
 70
     0
  9
$DIMBLK
  1

  9
$DIMASO
 70
     1
  9
$DIMSHO
 70
     1
  9
$DIMPOST
  1

  9
$DIMAPOST
  1

  9
$DIMALT
 70
     0
  9
$DIMALTD
 70
     2
  9
$DIMALTF
 40
25.4
  9
$DIMLFAC
 40
1.0
  9
$DIMTOFL
 70
     0
  9
$DIMTVP
 40
0.0
  9
$DIMTIX
 70
     0
  9
$DIMSOXD
 70
     0
  9
$DIMSAH
 70
     0
  9
$DIMBLK1
  1

  9
$DIMBLK2
  1

  9
$DIMSTYLE
  2
Standard
  9
$DIMCLRD
 70
     0
  9
$DIMCLRE
 70
     0
  9
$DIMCLRT
 70
     0
  9
$DIMTFAC
 40
1.0
  9
$DIMGAP
 40
0.06
  9
$DIMJUST
 70
     0
  9
$DIMSD1
 70
     0
  9
$DIMSD2
 70
     0
  9
$DIMTOLJ
 70
     1
  9
$DIMTZIN
 70
     0
  9
$DIMALTZ
 70
     0
  9
$DIMALTTZ
 70
     0
  9
$DIMUPT
 70
     0
  9
$DIMDEC
 70
     3
  9
$DIMTDEC
 70
     2
  9
$DIMALTU
 70
     2
  9
$DIMALTTD
 70
     2
  9
$DIMTXSTY
  7
Standard
  9
$DIMAUNIT
 70
     0
  9
$DIMADEC
 70
     2
  9
$DIMALTRND
 40
0.0
  9
$DIMAZIN
 70
     0
  9
$DIMDSEP
 70
    46
  9
$DIMATFIT
 70
     3
  9
$DIMFRAC
 70
     0
  9
$DIMLDRBLK
  1

  9
$DIMLUNIT
 70
     2
  9
$DIMLWD
 70
    -2
  9
$DIMLWE
 70
    -2
  9
$DIMTMOVE
 70
     0
  9
$LUNITS
 70
     2
  9
$LUPREC
 70
     3
  9
$SKETCHINC
 40
0.1
  9
$FILLETRAD
 40
0.5
  9
$AUNITS
 70
     0
  9
$AUPREC
 70
     2
  9
$MENU
  1
.
  9
$ELEVATION
 40
0.0
  9
$PELEVATION
 40
0.0
  9
$THICKNESS
 40
0.0
  9
$LIMCHECK
 70
     0
  9
$CHAMFERA
 40
0.5
  9
$CHAMFERB
 40
0.5
  9
$CHAMFERC
 40
1.0
  9
$CHAMFERD
 40
0.0
  9
$SKPOLY
 70
     0
  9
$TDCREATE
 40
2456591.413598496
  9
$TDUCREATE
 40
2456591.621931829
  9
$TDUPDATE
 40
2456591.413604282
  9
$TDUUPDATE
 40
2456591.621937616
  9
$TDINDWG
 40
0.0000000116
  9
$TDUSRTIMER
 40
0.0000000116
  9
$USRTIMER
 70
     1
  9
$ANGBASE
 50
0.0
  9
$ANGDIR
 70
     0
  9
$PDMODE
 70
     0
  9
$PDSIZE
 40
-1.0
  9
$PLINEWID
 40
0.0
  9
$SPLFRAME
 70
     0
  9
$SPLINETYPE
 70
     6
  9
$SPLINESEGS
 70
     8
  9
$HANDSEED
  5
453
  9
$SURFTAB1
 70
     6
  9
$SURFTAB2
 70
     6
  9
$SURFTYPE
 70
     6
  9
$SURFU
 70
     6
  9
$SURFV
 70
     6
  9
$UCSBASE
  2

  9
$UCSNAME
  2

  9
$UCSORG
 10
0.0
 20
0.0
 30
0.0
  9
$UCSXDIR
 10
1.0
 20
0.0
 30
0.0
  9
$UCSYDIR
 10
0.0
 20
1.0
 30
0.0
  9
$UCSORTHOREF
  2

  9
$UCSORTHOVIEW
 70
     0
  9
$UCSORGTOP
 10
0.0
 20
0.0
 30
0.0
  9
$UCSORGBOTTOM
 10
0.0
 20
0.0
 30
0.0
  9
$UCSORGLEFT
 10
0.0
 20
0.0
 30
0.0
  9
$UCSORGRIGHT
 10
0.0
 20
0.0
 30
0.0
  9
$UCSORGFRONT
 10
0.0
 20
0.0
 30
0.0
  9
$UCSORGBACK
 10
0.0
 20
0.0
 30
0.0
  9
$PUCSBASE
  2

  9
$PUCSNAME
  2

  9
$PUCSORG
 10
0.0
 20
0.0
 30
0.0
  9
$PUCSXDIR
 10
1.0
 20
0.0
 30
0.0
  9
$PUCSYDIR
 10
0.0
 20
1.0
 30
0.0
  9
$PUCSORTHOREF
  2

  9
$PUCSORTHOVIEW
 70
     0
  9
$PUCSORGTOP
 10
0.0
 20
0.0
 30
0.0
  9
$PUCSORGBOTTOM
 10
0.0
 20
0.0
 30
0.0
  9
$PUCSORGLEFT
 10
0.0
 20
0.0
 30
0.0
  9
$PUCSORGRIGHT
 10
0.0
 20
0.0
 30
0.0
  9
$PUCSORGFRONT
 10
0.0
 20
0.0
 30
0.0
  9
$PUCSORGBACK
 10
0.0
 20
0.0
 30
0.0
  9
$USERI1
 70
     0
  9
$USERI2
 70
     0
  9
$USERI3
 70
     0
  9
$USERI4
 70
     0
  9
$USERI5
 70
     0
  9
$USERR1
 40
0.0
  9
$USERR2
 40
0.0
  9
$USERR3
 40
0.0
  9
$USERR4
 40
0.0
  9
$USERR5
 40
0.0
  9
$WORLDVIEW
 70
     1
  9
$SHADEDGE
 70
     3
  9
$SHADEDIF
 70
    70
  9
$TILEMODE
 70
     1
  9
$MAXACTVP
 70
    64
  9
$PINSBASE
 10
0.0
 20
0.0
 30
0.0
  9
$PLIMCHECK
 70
     0
  9
$PEXTMIN
 10
1.0000000000E+20
 20
1.0000000000E+20
 30
1.0000000000E+20
  9
$PEXTMAX
 10
-1.0000000000E+20
 20
-1.0000000000E+20
 30
-1.0000000000E+20
  9
$PLIMMIN
 10
0.0
 20
0.0
  9
$PLIMMAX
 10
12.0
 20
9.0
  9
$UNITMODE
 70
     0
  9
$VISRETAIN
 70
     1
  9
$PLINEGEN
 70
     0
  9
$PSLTSCALE
 70
     1
  9
$TREEDEPTH
 70
  3020
  9
$CMLSTYLE
  2
Standard
  9
$CMLJUST
 70
     0
  9
$CMLSCALE
 40
1.0
  9
$PROXYGRAPHICS
 70
     1
  9
$MEASUREMENT
 70
     0
  9
$CELWEIGHT
370
    -1
  9
$ENDCAPS
280
     0
  9
$JOINSTYLE
280
     0
  9
$LWDISPLAY
290
     1
  9
$INSUNITS
 70
     1
  9
$HYPERLINKBASE
  1

  9
$STYLESHEET
  1

  9
$XEDIT
290
     1
  9
$CEPSNTYPE
380
     0
  9
$PSTYLEMODE
290
     1
  9
$FINGERPRINTGUID
  2
{85A1B2B3-361F-4189-AB23-83E77EA4B808}
  9
$VERSIONGUID
  2
{FAEB1C32-E019-11D5-929B-00C0DF256EC4}
  9
$EXTNAMES
290
     1
  9
$PSVPSCALE
 40
0.0
  9
$OLESTARTUP
290
     0
  9
$SORTENTS
280
   127
  9
$INDEXCTL
280
     0
  9
$HIDETEXT
280
     1
  9
$XCLIPFRAME
290
     0
  9
$HALOGAP
280
     0
  9
$OBSCOLOR
 70
   257
  9
$OBSLTYPE
280
     0
  9
$INTERSECTIONDISPLAY
280
     0
  9
$INTERSECTIONCOLOR
 70
   257
  9
$DIMASSOC
280
     2
  9
$PROJECTNAME
  1

  0
ENDSEC
  0
SECTION
  2
CLASSES
  0
CLASS
  1
ACDBDICTIONARYWDFLT
  2
AcDbDictionaryWithDefault
  3
ObjectDBX Classes
 90
        0
 91
        4
280
     0
281
     0
  0
CLASS
  1
VISUALSTYLE
  2
AcDbVisualStyle
  3
ObjectDBX Classes
 90
     4095
 91
        4
280
     0
281
     0
  0
CLASS
  1
MATERIAL
  2
AcDbMaterial
  3
ObjectDBX Classes
 90
     1153
 91
        4
280
     0
281
     0
  0
ENDSEC
  0
SECTION
  2
TABLES
  0
TABLE
  2
VPORT
  5
8
330
0
100
AcDbSymbolTable
 70
     1
  0
VPORT
  5
29
330
8
100
AcDbSymbolTableRecord
100
AcDbViewportTableRecord
  2
*Active
 70
     0
 10
0.0
 20
0.0
 11
1.0
 21
1.0
 12
52.5
 22
32.5
 13
0.0
 23
0.0
 14
0.5
 24
0.5
 15
0.5
 25
0.5
 16
0.0
 26
0.0
 36
1.0
 17
0.0
 27
0.0
 37
0.0
 40
65.0
 41
1.6153846154
 42
50.0
 43
0.0
 44
0.0
 50
0.0
 51
0.0
 71
     0
 72
  2000
 73
     1
 74
     3
 75
     0
 76
     0
 77
     0
 78
     0
281
     0
 65
     1
110
0.0
120
0.0
130
0.0
111
1.0
121
0.0
131
0.0
112
0.0
122
1.0
132
0.0
 79
     0
146
0.0
  0
ENDTAB
  0
TABLE
  2
LTYPE
  5
5
330
0
100
AcDbSymbolTable
 70
     6
  0
LTYPE
  5
14
330
5
100
AcDbSymbolTableRecord
100
AcDbLinetypeTableRecord
  2
ByBlock
 70
     0
  3

 72
    65
 73
     0
 40
0.0
  0
LTYPE
  5
15
330
5
100
AcDbSymbolTableRecord
100
AcDbLinetypeTableRecord
  2
ByLayer
 70
     0
  3

 72
    65
 73
     0
 40
0.0
  0
LTYPE
  5
16
330
5
100
AcDbSymbolTableRecord
100
AcDbLinetypeTableRecord
  2
Continuous
 70
     0
  3
Solid line
 72
    65
 73
     0
 40
0.0
  0
LTYPE
  5
3F
330
5
100
AcDbSymbolTableRecord
100
AcDbLinetypeTableRecord
  2
HIDDEN
 70
     0
  3
Hidden __ __ __ __ __ __ __ __ __ __ __ __ __ __
 72
    65
 73
     2
 40
0.075
 49
0.05
 74
     0
 49
-0.025
 74
     0
  0
LTYPE
  5
40
330
5
100
AcDbSymbolTableRecord
100
AcDbLinetypeTableRecord
  2
PHANTOM
 70
     0
  3
Phantom ______  __  __  ______  __  __  ______
 72
    65
 73
     6
 40
0.5
 49
0.25
 74
     0
 49
-0.05
 74
     0
 49
0.05
 74
     0
 49
-0.05
 74
     0
 49
0.05
 74
     0
 49
-0.05
 74
     0
  0
LTYPE
  5
41
330
5
100
AcDbSymbolTableRecord
100
AcDbLinetypeTableRecord
  2
CENTER
 70
     0
  3
Center ____ _ ____ _ ____ _ ____ _ ____ _ ____
 72
    65
 73
     4
 40
0.4
 49
0.25
 74
     0
 49
-0.05
 74
     0
 49
0.05
 74
     0
 49
-0.05
 74
     0
  0
LTYPE
  5
42
330
5
100
AcDbSymbolTableRecord
100
AcDbLinetypeTableRecord
  2
CENTERX2
 70
     0
  3
Center (2x) ________  __  ________  __  _____
 72
    65
 73
     4
 40
0.8
 49
0.5
 74
     0
 49
-0.1
 74
     0
 49
0.1
 74
     0
 49
-0.1
 74
     0
  0
LTYPE
  5
43
330
5
100
AcDbSymbolTableRecord
100
AcDbLinetypeTableRecord
  2
DOT2
 70
     0
  3
Dot (.5x) ........................................
 72
    65
 73
     2
 40
0.025
 49
0.0
 74
     0
 49
-0.025
 74
     0
  0
ENDTAB
  0
TABLE
  2
LAYER
  5
2
330
0
100
AcDbSymbolTable
 70
     4
  0
LAYER
  5
10
330
2
100
AcDbSymbolTableRecord
100
AcDbLayerTableRecord
  2
0
 70
     0
 62
     7
  6
Continuous
370
    -3
390
F
  0
LAYER
  5
44
330
2
100
AcDbSymbolTableRecord
100
AcDbLayerTableRecord
  2
SLD-0
 70
     0
 62
     7
  6
Continuous
370
    -3
390
F
  0
LAYER
  5
45
330
2
100
AcDbSymbolTableRecord
100
AcDbLayerTableRecord
  2
NOTES
 70
     0
 62
     1
  6
Continuous
370
    -3
390
F
  0
LAYER
  5
46
330
2
100
AcDbSymbolTableRecord
100
AcDbLayerTableRecord
  2
DIM
 70
     0
 62
   100
  6
Continuous
370
    -3
390
F
  0
ENDTAB
  0
TABLE
  2
STYLE
  5
3
330
0
100
AcDbSymbolTable
 70
     2
  0
STYLE
  5
11
330
3
100
AcDbSymbolTableRecord
100
AcDbTextStyleTableRecord
  2
Standard
 70
     0
 40
0.0
 41
1.0
 50
0.0
 71
     0
 42
0.1388888889
  3
txt
  4

  0
STYLE
  5
4A
330
3
100
AcDbSymbolTableRecord
100
AcDbTextStyleTableRecord
  2
SLDTEXTSTYLE0
 70
     0
 40
0.0
 41
0.75
 50
0.0
 71
     0
 42
0.2
  3
TXT
  4

  0
ENDTAB
  0
TABLE
  2
VIEW
  5
6
330
0
100
AcDbSymbolTable
 70
     0
  0
ENDTAB
  0
TABLE
  2
UCS
  5
7
330
0
100
AcDbSymbolTable
 70
     0
  0
ENDTAB
  0
TABLE
  2
APPID
  5
9
330
0
100
AcDbSymbolTable
 70
     1
  0
APPID
  5
12
330
9
100
AcDbSymbolTableRecord
100
AcDbRegAppTableRecord
  2
ACAD
 70
     0
  0
ENDTAB
  0
TABLE
  2
DIMSTYLE
  5
A
330
0
100
AcDbSymbolTable
 70
     3
100
AcDbDimStyleTable
  0
DIMSTYLE
105
27
330
A
100
AcDbSymbolTableRecord
100
AcDbDimStyleTableRecord
  2
Standard
 70
     0
178
     0
340
11
  0
DIMSTYLE
105
14F
102
{ACAD_REACTORS
330
14E
330
15E
330
16D
330
236
330
245
330
254
330
263
330
355
330
36F
102
}
330
A
100
AcDbSymbolTableRecord
100
AcDbDimStyleTableRecord
  2
SLDDIMSTYLE0
 70
     0
 41
1.0
 44
0.0
 45
0.000000001
 78
    12
 79
     3
140
1.25
147
0.3125
173
     1
178
     0
271
     3
272
     2
276
     2
277
     5
284
    12
340
4A
  0
DIMSTYLE
105
17B
102
{ACAD_REACTORS
330
17A
330
18A
330
346
330
360
102
}
330
A
100
AcDbSymbolTableRecord
100
AcDbDimStyleTableRecord
  2
SLDDIMSTYLE1
 70
     0
 41
1.0
 44
0.0
 45
0.000000001
 78
    12
 79
     3
140
1.25
147
0.3125
172
     1
173
     1
178
     0
271
     3
272
     2
276
     2
277
     5
284
    12
289
     0
340
4A
  0
ENDTAB
  0
TABLE
  2
BLOCK_RECORD
  5
1
330
0
100
AcDbSymbolTable
 70
    15
  0
BLOCK_RECORD
  5
1F
330
1
100
AcDbSymbolTableRecord
100
AcDbBlockTableRecord
  2
*Model_Space
340
22
  0
BLOCK_RECORD
  5
1B
330
1
100
AcDbSymbolTableRecord
100
AcDbBlockTableRecord
  2
*Paper_Space
340
1E
  0
BLOCK_RECORD
  5
23
330
1
100
AcDbSymbolTableRecord
100
AcDbBlockTableRecord
  2
*Paper_Space0
340
26
  0
BLOCK_RECORD
  5
47
330
1
100
AcDbSymbolTableRecord
100
AcDbBlockTableRecord
  2
SW_NOTE_0
340
0
102
{BLKREFS
331
4D
102
}
  0
BLOCK_RECORD
  5
150
330
1
100
AcDbSymbolTableRecord
100
AcDbBlockTableRecord
  2
_D
340
0
  0
BLOCK_RECORD
  5
15F
330
1
100
AcDbSymbolTableRecord
100
AcDbBlockTableRecord
  2
_D_1
340
0
  0
BLOCK_RECORD
  5
16E
330
1
100
AcDbSymbolTableRecord
100
AcDbBlockTableRecord
  2
_D_2
340
0
  0
BLOCK_RECORD
  5
17C
330
1
100
AcDbSymbolTableRecord
100
AcDbBlockTableRecord
  2
_D_3
340
0
  0
BLOCK_RECORD
  5
18B
330
1
100
AcDbSymbolTableRecord
100
AcDbBlockTableRecord
  2
_D_4
340
0
  0
BLOCK_RECORD
  5
237
330
1
100
AcDbSymbolTableRecord
100
AcDbBlockTableRecord
  2
_D_5
340
0
  0
BLOCK_RECORD
  5
246
330
1
100
AcDbSymbolTableRecord
100
AcDbBlockTableRecord
  2
_D_6
340
0
  0
BLOCK_RECORD
  5
255
330
1
100
AcDbSymbolTableRecord
100
AcDbBlockTableRecord
  2
_D_7
340
0
  0
BLOCK_RECORD
  5
264
330
1
100
AcDbSymbolTableRecord
100
AcDbBlockTableRecord
  2
_D_8
340
0
  0
BLOCK_RECORD
  5
347
330
1
100
AcDbSymbolTableRecord
100
AcDbBlockTableRecord
  2
_D_9
340
0
  0
BLOCK_RECORD
  5
356
330
1
100
AcDbSymbolTableRecord
100
AcDbBlockTableRecord
  2
_D_10
340
0
  0
BLOCK_RECORD
  5
361
330
1
100
AcDbSymbolTableRecord
100
AcDbBlockTableRecord
  2
_D_11
340
0
  0
BLOCK_RECORD
  5
370
330
1
100
AcDbSymbolTableRecord
100
AcDbBlockTableRecord
  2
_D_12
340
0
  0
ENDTAB
  0
ENDSEC
  0
SECTION
  2
BLOCKS
  0
BLOCK
  5
20
330
1F
100
AcDbEntity
  8
0
100
AcDbBlockBegin
  2
*Model_Space
 70
     0
 10
0.0
 20
0.0
 30
0.0
  3
*Model_Space
  1

  0
ENDBLK
  5
21
330
1F
100
AcDbEntity
  8
0
100
AcDbBlockEnd
  0
BLOCK
  5
1C
330
1B
100
AcDbEntity
 67
     1
  8
0
100
AcDbBlockBegin
  2
*Paper_Space
 70
     0
 10
0.0
 20
0.0
 30
0.0
  3
*Paper_Space
  1

  0
ENDBLK
  5
1D
330
1B
100
AcDbEntity
 67
     1
  8
0
100
AcDbBlockEnd
  0
BLOCK
  5
24
330
23
100
AcDbEntity
  8
0
100
AcDbBlockBegin
  2
*Paper_Space0
 70
     0
 10
0.0
 20
0.0
 30
0.0
  3
*Paper_Space0
  1

  0
ENDBLK
  5
25
330
23
100
AcDbEntity
  8
0
100
AcDbBlockEnd
  0
BLOCK
  5
48
330
47
100
AcDbEntity
  8
0
100
AcDbBlockBegin
  2
SW_NOTE_0
 70
     0
 10
0.0
 20
0.0
 30
0.0
  3
SW_NOTE_0
  1

  0
MTEXT
  5
4B
330
47
100
AcDbEntity
  8
NOTES
 62
     0
100
AcDbMText
 10
0.0
 20
2.2558685446
 30
0.0
 40
1.75
 41
0.0
 71
     1
 72
     1
  1
VFL28IN32(N,P)-1
  7
SLDTEXTSTYLE0
 73
     1
 44
1.0
  0
MTEXT
  5
4C
330
47
100
AcDbEntity
  8
NOTES
 62
     0
100
AcDbMText
 10
0.0
 20
-0.0069786748
 30
0.0
 40
1.75
 41
0.0
 71
     1
 72
     1
  1
VFL28IN92(N,P)-1
  7
SLDTEXTSTYLE0
 73
     1
 44
1.0
  0
ENDBLK
  5
49
330
47
100
AcDbEntity
  8
0
100
AcDbBlockEnd
  0
BLOCK
  5
151
330
150
100
AcDbEntity
  8
0
100
AcDbBlockBegin
  2
_D
 70
     0
 10
0.0
 20
0.0
 30
0.0
  3
_D
  1

  0
SOLID
  5
153
330
150
100
AcDbEntity
  8
DIM
100
AcDbTrace
 10
25.4217755561
 20
3.2675049077
 30
0.0
 11
25.6717755561
 21
4.2675049077
 31
0.0
 12
25.1717755561
 22
4.2675049077
 32
0.0
 13
25.1717755561
 23
4.2675049077
 33
0.0
  0
SOLID
  5
154
330
150
100
AcDbEntity
  8
DIM
100
AcDbTrace
 10
25.4217755561
 20
26.0077049077
 30
0.0
 11
25.1717755561
 21
25.0077049077
 31
0.0
 12
25.6717755561
 22
25.0077049077
 32
0.0
 13
25.6717755561
 23
25.0077049077
 33
0.0
  0
LINE
  5
155
330
150
100
AcDbEntity
  8
DIM
100
AcDbLine
 10
26.3297617683
 20
15.8876048743
 30
0.0
 11
24.8297617204
 21
13.3876047945
 31
0.0
  0
LINE
  5
156
330
150
100
AcDbEntity
  8
DIM
100
AcDbLine
 10
30.3339728413
 20
3.2675049077
 30
0.0
 11
25.3824054774
 21
3.2675049077
 31
0.0
  0
LINE
  5
157
330
150
100
AcDbEntity
  8
DIM
100
AcDbLine
 10
29.5839728413
 20
26.0077049077
 30
0.0
 11
25.3824054774
 21
26.0077049077
 31
0.0
  0
LINE
  5
158
330
150
100
AcDbEntity
  8
DIM
100
AcDbLine
 10
25.4217755561
 20
3.2675049077
 30
0.0
 11
25.4217755561
 21
13.0212854862
 31
0.0
  0
LINE
  5
159
330
150
100
AcDbEntity
  8
DIM
100
AcDbLine
 10
25.4217755561
 20
26.0077049077
 30
0.0
 11
25.4217755561
 21
16.2539243292
 31
0.0
  0
MTEXT
  5
15A
330
150
100
AcDbEntity
  8
DIM
100
AcDbMText
 10
22.8089285133
 20
15.3539743011
 30
-0.434649194
 40
1.25
 41
0.0
 71
     1
 72
     1
  1
22
  7
SLDTEXTSTYLE0
 73
     1
 44
1.0
  0
MTEXT
  5
15B
330
150
100
AcDbEntity
  8
DIM
100
AcDbMText
 10
24.6561506673
 20
16.2489394358
 30
-0.434649194
 40
1.25
 41
0.0
 71
     1
 72
     1
  1
3
  7
SLDTEXTSTYLE0
 73
     1
 44
1.0
  0
MTEXT
  5
15C
330
150
100
AcDbEntity
  8
DIM
100
AcDbMText
 10
25.5797617444
 20
14.6326200143
 30
-0.434649194
 40
1.25
 41
0.0
 71
     1
 72
     1
  1
4
  7
SLDTEXTSTYLE0
 73
     1
 44
1.0
  0
MTEXT
  5
15D
330
150
100
AcDbEntity
  8
DIM
100
AcDbMText
 10
26.5033728214
 20
15.3539743011
 30
-0.434649194
 40
1.25
 41
0.0
 71
     1
 72
     1
  1
"
  7
SLDTEXTSTYLE0
 73
     1
 44
1.0
  0
ENDBLK
  5
152
330
150
100
AcDbEntity
  8
0
100
AcDbBlockEnd
  0
BLOCK
  5
160
330
15F
100
AcDbEntity
  8
0
100
AcDbBlockBegin
  2
_D_1
 70
     0
 10
0.0
 20
0.0
 30
0.0
  3
_D_1
  1

  0
SOLID
  5
162
330
15F
100
AcDbEntity
  8
DIM
100
AcDbTrace
 10
65.428859088
 20
21.8926049077
 30
0.0
 11
65.178859088
 21
20.8926049077
 31
0.0
 12
65.678859088
 22
20.8926049077
 32
0.0
 13
65.678859088
 23
20.8926049077
 33
0.0
  0
SOLID
  5
163
330
15F
100
AcDbEntity
  8
DIM
100
AcDbTrace
 10
65.428859088
 20
7.1831823412
 30
0.0
 11
65.678859088
 21
8.1831823412
 31
0.0
 12
65.178859088
 22
8.1831823412
 32
0.0
 13
65.178859088
 23
8.1831823412
 33
0.0
  0
LINE
  5
164
330
15F
100
AcDbEntity
  8
DIM
100
AcDbLine
 10
66.3368451536
 20
15.787893591
 30
0.0
 11
64.8368451057
 21
13.2878935112
 31
0.0
  0
LINE
  5
165
330
15F
100
AcDbEntity
  8
DIM
100
AcDbLine
 10
61.5140211523
 20
21.8926049077
 30
0.0
 11
65.4682291668
 21
21.8926049077
 31
0.0
  0
LINE
  5
166
330
15F
100
AcDbEntity
  8
DIM
100
AcDbLine
 10
61.5150056065
 20
7.1831823412
 30
0.0
 11
65.4682291668
 21
7.1831823412
 31
0.0
  0
LINE
  5
167
330
15F
100
AcDbEntity
  8
DIM
100
AcDbLine
 10
65.428859088
 20
21.8926049077
 30
0.0
 11
65.428859088
 21
16.1542130459
 31
0.0
  0
LINE
  5
168
330
15F
100
AcDbEntity
  8
DIM
100
AcDbLine
 10
65.428859088
 20
7.1831823412
 30
0.0
 11
65.428859088
 21
12.921574203
 31
0.0
  0
MTEXT
  5
169
330
15F
100
AcDbEntity
  8
DIM
100
AcDbMText
 10
61.8924008215
 20
15.2542630179
 30
-0.434649194
 40
1.25
 41
0.0
 71
     1
 72
     1
  1
14
  7
SLDTEXTSTYLE0
 73
     1
 44
1.0
  0
MTEXT
  5
16A
330
15F
100
AcDbEntity
  8
DIM
100
AcDbMText
 10
63.7396229756
 20
16.1492281525
 30
-0.434649194
 40
1.25
 41
0.0
 71
     1
 72
     1
  1
11
  7
SLDTEXTSTYLE0
 73
     1
 44
1.0
  0
MTEXT
  5
16B
330
15F
100
AcDbEntity
  8
DIM
100
AcDbMText
 10
65.5868451296
 20
14.532908731
 30
-0.434649194
 40
1.25
 41
0.0
 71
     1
 72
     1
  1
16
  7
SLDTEXTSTYLE0
 73
     1
 44
1.0
  0
MTEXT
  5
16C
330
15F
100
AcDbEntity
  8
DIM
100
AcDbMText
 10
67.434067577
 20
15.2542630179
 30
-0.434649194
 40
1.25
 41
0.0
 71
     1
 72
     1
  1
"
  7
SLDTEXTSTYLE0
 73
     1
 44
1.0
  0
ENDBLK
  5
161
330
15F
100
AcDbEntity
  8
0
100
AcDbBlockEnd
  0
BLOCK
  5
16F
330
16E
100
AcDbEntity
  8
0
100
AcDbBlockBegin
  2
_D_2
 70
     0
 10
0.0
 20
0.0
 30
0.0
  3
_D_2
  1

  0
SOLID
  5
171
330
16E
100
AcDbEntity
  8
DIM
100
AcDbTrace
 10
31.1424207621
 20
14.5637061245
 30
0.0
 11
32.1424207621
 21
14.3137061245
 31
0.0
 12
32.1424207621
 22
14.8137061245
 32
0.0
 13
32.1424207621
 23
14.8137061245
 33
0.0
  0
SOLID
  5
172
330
16E
100
AcDbEntity
  8
DIM
100
AcDbTrace
 10
59.604265078
 20
14.5637061245
 30
0.0
 11
58.604265078
 21
14.8137061245
 31
0.0
 12
58.604265078
 22
14.3137061245
 32
0.0
 13
58.604265078
 23
14.3137061245
 33
0.0
  0
LINE
  5
173
330
16E
100
AcDbEntity
  8
DIM
100
AcDbLine
 10
45.8195233737
 20
15.813706091
 30
0.0
 11
44.3195233259
 21
13.3137060112
 31
0.0
  0
LINE
  5
174
330
16E
100
AcDbEntity
  8
DIM
100
AcDbLine
 10
31.1424207621
 20
14.5637061245
 30
0.0
 11
42.2986901187
 21
14.5637061245
 31
0.0
  0
LINE
  5
175
330
16E
100
AcDbEntity
  8
DIM
100
AcDbLine
 10
59.604265078
 20
14.5637061245
 30
0.0
 11
48.4479957214
 21
14.5637061245
 31
0.0
  0
MTEXT
  5
176
330
16E
100
AcDbEntity
  8
DIM
100
AcDbMText
 10
42.2986901187
 20
15.2800755179
 30
-0.434649194
 40
1.25
 41
0.0
 71
     1
 72
     1
  1
28
  7
SLDTEXTSTYLE0
 73
     1
 44
1.0
  0
MTEXT
  5
177
330
16E
100
AcDbEntity
  8
DIM
100
AcDbMText
 10
44.1459122728
 20
16.1750406525
 30
-0.434649194
 40
1.25
 41
0.0
 71
     1
 72
     1
  1
7
  7
SLDTEXTSTYLE0
 73
     1
 44
1.0
  0
MTEXT
  5
178
330
16E
100
AcDbEntity
  8
DIM
100
AcDbMText
 10
45.0695233498
 20
14.558721231
 30
-0.434649194
 40
1.25
 41
0.0
 71
     1
 72
     1
  1
16
  7
SLDTEXTSTYLE0
 73
     1
 44
1.0
  0
MTEXT
  5
179
330
16E
100
AcDbEntity
  8
DIM
100
AcDbMText
 10
46.9167456505
 20
15.2800755179
 30
-0.434649194
 40
1.25
 41
0.0
 71
     1
 72
     1
  1
"
  7
SLDTEXTSTYLE0
 73
     1
 44
1.0
  0
ENDBLK
  5
170
330
16E
100
AcDbEntity
  8
0
100
AcDbBlockEnd
  0
BLOCK
  5
17D
330
17C
100
AcDbEntity
  8
0
100
AcDbBlockBegin
  2
_D_3
 70
     0
 10
0.0
 20
0.0
 30
0.0
  3
_D_3
  1

  0
SOLID
  5
17F
330
17C
100
AcDbEntity
  8
DIM
100
AcDbTrace
 10
65.428859088
 20
21.8926049077
 30
0.0
 11
65.178859088
 21
20.8926049077
 31
0.0
 12
65.678859088
 22
20.8926049077
 32
0.0
 13
65.678859088
 23
20.8926049077
 33
0.0
  0
SOLID
  5
180
330
17C
100
AcDbEntity
  8
DIM
100
AcDbTrace
 10
65.428859088
 20
26.0077049077
 30
0.0
 11
65.678859088
 21
27.0077049077
 31
0.0
 12
65.178859088
 22
27.0077049077
 32
0.0
 13
65.178859088
 23
27.0077049077
 33
0.0
  0
LINE
  5
181
330
17C
100
AcDbEntity
  8
DIM
100
AcDbLine
 10
65.8750395417
 20
25.2001548743
 30
0.0
 11
64.3750394939
 21
22.7001547945
 31
0.0
  0
LINE
  5
182
330
17C
100
AcDbEntity
  8
DIM
100
AcDbLine
 10
61.5140211523
 20
21.8926049077
 30
0.0
 11
65.4682291668
 21
21.8926049077
 31
0.0
  0
LINE
  5
183
330
17C
100
AcDbEntity
  8
DIM
100
AcDbLine
 10
61.1627129988
 20
26.0077049077
 30
0.0
 11
65.4682291668
 21
26.0077049077
 31
0.0
  0
LINE
  5
184
330
17C
100
AcDbEntity
  8
DIM
100
AcDbLine
 10
65.428859088
 20
21.8926049077
 30
0.0
 11
65.428859088
 21
20.3926049077
 31
0.0
  0
LINE
  5
185
330
17C
100
AcDbEntity
  8
DIM
100
AcDbLine
 10
65.428859088
 20
26.0077049077
 30
0.0
 11
65.428859088
 21
27.5077049077
 31
0.0
  0
MTEXT
  5
186
330
17C
100
AcDbEntity
  8
DIM
100
AcDbMText
 10
63.2778173637
 20
24.6665243011
 30
-0.434649194
 40
1.25
 41
0.0
 71
     1
 72
     1
  1
4
  7
SLDTEXTSTYLE0
 73
     1
 44
1.0
  0
MTEXT
  5
187
330
17C
100
AcDbEntity
  8
DIM
100
AcDbMText
 10
64.2014284408
 20
25.5614894358
 30
-0.434649194
 40
1.25
 41
0.0
 71
     1
 72
     1
  1
1
  7
SLDTEXTSTYLE0
 73
     1
 44
1.0
  0
MTEXT
  5
188
330
17C
100
AcDbEntity
  8
DIM
100
AcDbMText
 10
65.1250395178
 20
23.9451700143
 30
-0.434649194
 40
1.25
 41
0.0
 71
     1
 72
     1
  1
8
  7
SLDTEXTSTYLE0
 73
     1
 44
1.0
  0
MTEXT
  5
189
330
17C
100
AcDbEntity
  8
DIM
100
AcDbMText
 10
66.0486507415
 20
24.6665243011
 30
-0.434649194
 40
1.25
 41
0.0
 71
     1
 72
     1
  1
"
  7
SLDTEXTSTYLE0
 73
     1
 44
1.0
  0
ENDBLK
  5
17E
330
17C
100
AcDbEntity
  8
0
100
AcDbBlockEnd
  0
BLOCK
  5
18C
330
18B
100
AcDbEntity
  8
0
100
AcDbBlockBegin
  2
_D_4
 70
     0
 10
0.0
 20
0.0
 30
0.0
  3
_D_4
  1

  0
SOLID
  5
18E
330
18B
100
AcDbEntity
  8
DIM
100
AcDbTrace
 10
65.428859088
 20
3.2675049077
 30
0.0
 11
65.178859088
 21
2.2675049077
 31
0.0
 12
65.678859088
 22
2.2675049077
 32
0.0
 13
65.678859088
 23
2.2675049077
 33
0.0
  0
SOLID
  5
18F
330
18B
100
AcDbEntity
  8
DIM
100
AcDbTrace
 10
65.428859088
 20
7.1831823412
 30
0.0
 11
65.678859088
 21
8.1831823412
 31
0.0
 12
65.178859088
 22
8.1831823412
 32
0.0
 13
65.178859088
 23
8.1831823412
 33
0.0
  0
LINE
  5
190
330
18B
100
AcDbEntity
  8
DIM
100
AcDbLine
 10
65.8750398351
 20
6.475343591
 30
0.0
 11
64.3750397872
 21
3.9753435112
 31
0.0
  0
LINE
  5
191
330
18B
100
AcDbEntity
  8
DIM
100
AcDbLine
 10
60.4127129988
 20
3.2675049077
 30
0.0
 11
65.4682291668
 21
3.2675049077
 31
0.0
  0
LINE
  5
192
330
18B
100
AcDbEntity
  8
DIM
100
AcDbLine
 10
61.5150056065
 20
7.1831823412
 30
0.0
 11
65.4682291668
 21
7.1831823412
 31
0.0
  0
LINE
  5
193
330
18B
100
AcDbEntity
  8
DIM
100
AcDbLine
 10
65.428859088
 20
3.2675049077
 30
0.0
 11
65.428859088
 21
1.7675049077
 31
0.0
  0
LINE
  5
194
330
18B
100
AcDbEntity
  8
DIM
100
AcDbLine
 10
65.428859088
 20
7.1831823412
 30
0.0
 11
65.428859088
 21
8.6831823412
 31
0.0
  0
MTEXT
  5
195
330
18B
100
AcDbEntity
  8
DIM
100
AcDbMText
 10
62.35420658
 20
5.9417130179
 30
-0.434649194
 40
1.25
 41
0.0
 71
     1
 72
     1
  1
3
  7
SLDTEXTSTYLE0
 73
     1
 44
1.0
  0
MTEXT
  5
196
330
18B
100
AcDbEntity
  8
DIM
100
AcDbMText
 10
63.2778176571
 20
6.8366781525
 30
-0.434649194
 40
1.25
 41
0.0
 71
     1
 72
     1
  1
15
  7
SLDTEXTSTYLE0
 73
     1
 44
1.0
  0
MTEXT
  5
197
330
18B
100
AcDbEntity
  8
DIM
100
AcDbMText
 10
65.1250398111
 20
5.220358731
 30
-0.434649194
 40
1.25
 41
0.0
 71
     1
 72
     1
  1
16
  7
SLDTEXTSTYLE0
 73
     1
 44
1.0
  0
MTEXT
  5
198
330
18B
100
AcDbEntity
  8
DIM
100
AcDbMText
 10
66.9722618185
 20
5.9417130179
 30
-0.434649194
 40
1.25
 41
0.0
 71
     1
 72
     1
  1
"
  7
SLDTEXTSTYLE0
 73
     1
 44
1.0
  0
ENDBLK
  5
18D
330
18B
100
AcDbEntity
  8
0
100
AcDbBlockEnd
  0
BLOCK
  5
238
330
237
100
AcDbEntity
  8
0
100
AcDbBlockBegin
  2
_D_5
 70
     0
 10
0.0
 20
0.0
 30
0.0
  3
_D_5
  1

  0
SOLID
  5
23A
330
237
100
AcDbEntity
  8
DIM
100
AcDbTrace
 10
36.393333685
 20
60.3538313996
 30
0.0
 11
37.393333685
 21
60.1038313996
 31
0.0
 12
37.393333685
 22
60.6038313996
 32
0.0
 13
37.393333685
 23
60.6038313996
 33
0.0
  0
SOLID
  5
23B
330
237
100
AcDbEntity
  8
DIM
100
AcDbTrace
 10
54.3533521551
 20
60.3538313996
 30
0.0
 11
53.3533521551
 21
60.6038313996
 31
0.0
 12
53.3533521551
 22
60.1038313996
 32
0.0
 13
53.3533521551
 23
60.1038313996
 33
0.0
  0
LINE
  5
23C
330
237
100
AcDbEntity
  8
DIM
100
AcDbLine
 10
46.2813289856
 20
61.6038313662
 30
0.0
 11
44.7813289377
 21
59.1038312864
 31
0.0
  0
LINE
  5
23D
330
237
100
AcDbEntity
  8
DIM
100
AcDbLine
 10
36.393333685
 20
56.446164383
 30
0.0
 11
36.393333685
 21
60.3932014784
 31
0.0
  0
LINE
  5
23E
330
237
100
AcDbEntity
  8
DIM
100
AcDbLine
 10
54.3533521551
 20
56.446164383
 30
0.0
 11
54.3533521551
 21
60.3932014784
 31
0.0
  0
LINE
  5
23F
330
237
100
AcDbEntity
  8
DIM
100
AcDbLine
 10
36.393333685
 20
60.3538313996
 30
0.0
 11
41.8368846535
 21
60.3538313996
 31
0.0
  0
LINE
  5
240
330
237
100
AcDbEntity
  8
DIM
100
AcDbLine
 10
54.3533521551
 20
60.3538313996
 30
0.0
 11
48.9098011866
 21
60.3538313996
 31
0.0
  0
MTEXT
  5
241
330
237
100
AcDbEntity
  8
DIM
100
AcDbMText
 10
41.8368846535
 20
61.0702007931
 30
0.4556968959
 40
1.25
 41
0.0
 71
     1
 72
     1
  1
17
  7
SLDTEXTSTYLE0
 73
     1
 44
1.0
  0
MTEXT
  5
242
330
237
100
AcDbEntity
  8
DIM
100
AcDbMText
 10
43.6841068076
 20
61.9651659277
 30
0.4556968959
 40
1.25
 41
0.0
 71
     1
 72
     1
  1
15
  7
SLDTEXTSTYLE0
 73
     1
 44
1.0
  0
MTEXT
  5
243
330
237
100
AcDbEntity
  8
DIM
100
AcDbMText
 10
45.5313289616
 20
60.3488465062
 30
0.4556968959
 40
1.25
 41
0.0
 71
     1
 72
     1
  1
16
  7
SLDTEXTSTYLE0
 73
     1
 44
1.0
  0
MTEXT
  5
244
330
237
100
AcDbEntity
  8
DIM
100
AcDbMText
 10
47.378551409
 20
61.0702007931
 30
0.4556968959
 40
1.25
 41
0.0
 71
     1
 72
     1
  1
"
  7
SLDTEXTSTYLE0
 73
     1
 44
1.0
  0
ENDBLK
  5
239
330
237
100
AcDbEntity
  8
0
100
AcDbBlockEnd
  0
BLOCK
  5
247
330
246
100
AcDbEntity
  8
0
100
AcDbBlockBegin
  2
_D_6
 70
     0
 10
0.0
 20
0.0
 30
0.0
  3
_D_6
  1

  0
SOLID
  5
249
330
246
100
AcDbEntity
  8
DIM
100
AcDbTrace
 10
64.5059231802
 20
56.4643943043
 30
0.0
 11
64.2559231802
 21
55.4643943043
 31
0.0
 12
64.7559231802
 22
55.4643943043
 32
0.0
 13
64.7559231802
 23
55.4643943043
 33
0.0
  0
SOLID
  5
24A
330
246
100
AcDbEntity
  8
DIM
100
AcDbTrace
 10
64.5059231802
 20
41.4048325021
 30
0.0
 11
64.7559231802
 21
42.4048325021
 31
0.0
 12
64.2559231802
 22
42.4048325021
 32
0.0
 13
64.2559231802
 23
42.4048325021
 33
0.0
  0
LINE
  5
24B
330
246
100
AcDbEntity
  8
DIM
100
AcDbLine
 10
64.9521036339
 20
50.1846133698
 30
0.0
 11
63.452103586
 21
47.68461329
 31
0.0
  0
LINE
  5
24C
330
246
100
AcDbEntity
  8
DIM
100
AcDbLine
 10
54.3312915311
 20
56.4643943043
 30
0.0
 11
64.5452932589
 21
56.4643943043
 31
0.0
  0
LINE
  5
24D
330
246
100
AcDbEntity
  8
DIM
100
AcDbLine
 10
61.5150056065
 20
41.4048325021
 30
0.0
 11
64.5452932589
 21
41.4048325021
 31
0.0
  0
LINE
  5
24E
330
246
100
AcDbEntity
  8
DIM
100
AcDbLine
 10
64.5059231802
 20
56.4643943043
 30
0.0
 11
64.5059231802
 21
50.5509328247
 31
0.0
  0
LINE
  5
24F
330
246
100
AcDbEntity
  8
DIM
100
AcDbLine
 10
64.5059231802
 20
41.4048325021
 30
0.0
 11
64.5059231802
 21
47.3182939817
 31
0.0
  0
MTEXT
  5
250
330
246
100
AcDbEntity
  8
DIM
100
AcDbMText
 10
61.4312703788
 20
49.6509827966
 30
0.4556968959
 40
1.25
 41
0.0
 71
     1
 72
     1
  1
15
  7
SLDTEXTSTYLE0
 73
     1
 44
1.0
  0
MTEXT
  5
251
330
246
100
AcDbEntity
  8
DIM
100
AcDbMText
 10
63.2784925329
 20
50.5459479313
 30
0.4556968959
 40
1.25
 41
0.0
 71
     1
 72
     1
  1
1
  7
SLDTEXTSTYLE0
 73
     1
 44
1.0
  0
MTEXT
  5
252
330
246
100
AcDbEntity
  8
DIM
100
AcDbMText
 10
64.2021036099
 20
48.9296285098
 30
0.4556968959
 40
1.25
 41
0.0
 71
     1
 72
     1
  1
16
  7
SLDTEXTSTYLE0
 73
     1
 44
1.0
  0
MTEXT
  5
253
330
246
100
AcDbEntity
  8
DIM
100
AcDbMText
 10
66.0493259107
 20
49.6509827966
 30
0.4556968959
 40
1.25
 41
0.0
 71
     1
 72
     1
  1
"
  7
SLDTEXTSTYLE0
 73
     1
 44
1.0
  0
ENDBLK
  5
248
330
246
100
AcDbEntity
  8
0
100
AcDbBlockEnd
  0
BLOCK
  5
256
330
255
100
AcDbEntity
  8
0
100
AcDbBlockBegin
  2
_D_7
 70
     0
 10
0.0
 20
0.0
 30
0.0
  3
_D_7
  1

  0
SOLID
  5
258
330
255
100
AcDbEntity
  8
DIM
100
AcDbTrace
 10
30.3455274044
 20
36.7908368179
 30
0.0
 11
31.3455274044
 21
36.5408368179
 31
0.0
 12
31.3455274044
 22
37.0408368179
 32
0.0
 13
31.3455274044
 23
37.0408368179
 33
0.0
  0
SOLID
  5
259
330
255
100
AcDbEntity
  8
DIM
100
AcDbTrace
 10
60.4011584357
 20
36.7908368179
 30
0.0
 11
59.4011584357
 21
37.0408368179
 31
0.0
 12
59.4011584357
 22
36.5408368179
 32
0.0
 13
59.4011584357
 23
36.5408368179
 33
0.0
  0
LINE
  5
25A
330
255
100
AcDbEntity
  8
DIM
100
AcDbLine
 10
45.8195233737
 20
38.0408367845
 30
0.0
 11
44.3195233259
 21
35.5408367047
 31
0.0
  0
LINE
  5
25B
330
255
100
AcDbEntity
  8
DIM
100
AcDbLine
 10
30.3455274044
 20
41.4350624234
 30
0.0
 11
30.3455274044
 21
36.7514667392
 31
0.0
  0
LINE
  5
25C
330
255
100
AcDbEntity
  8
DIM
100
AcDbLine
 10
60.4011584357
 20
41.4686624234
 30
0.0
 11
60.4011584357
 21
36.7514667392
 31
0.0
  0
LINE
  5
25D
330
255
100
AcDbEntity
  8
DIM
100
AcDbLine
 10
30.3455274044
 20
36.7908368179
 30
0.0
 11
42.2986901187
 21
36.7908368179
 31
0.0
  0
LINE
  5
25E
330
255
100
AcDbEntity
  8
DIM
100
AcDbLine
 10
60.4011584357
 20
36.7908368179
 30
0.0
 11
48.4479957214
 21
36.7908368179
 31
0.0
  0
MTEXT
  5
25F
330
255
100
AcDbEntity
  8
DIM
100
AcDbMText
 10
42.2986901187
 20
37.5072062114
 30
0.4556968959
 40
1.25
 41
0.0
 71
     1
 72
     1
  1
30
  7
SLDTEXTSTYLE0
 73
     1
 44
1.0
  0
MTEXT
  5
260
330
255
100
AcDbEntity
  8
DIM
100
AcDbMText
 10
44.1459122728
 20
38.402171346
 30
0.4556968959
 40
1.25
 41
0.0
 71
     1
 72
     1
  1
1
  7
SLDTEXTSTYLE0
 73
     1
 44
1.0
  0
MTEXT
  5
261
330
255
100
AcDbEntity
  8
DIM
100
AcDbMText
 10
45.0695233498
 20
36.7858519245
 30
0.4556968959
 40
1.25
 41
0.0
 71
     1
 72
     1
  1
16
  7
SLDTEXTSTYLE0
 73
     1
 44
1.0
  0
MTEXT
  5
262
330
255
100
AcDbEntity
  8
DIM
100
AcDbMText
 10
46.9167456505
 20
37.5072062114
 30
0.4556968959
 40
1.25
 41
0.0
 71
     1
 72
     1
  1
"
  7
SLDTEXTSTYLE0
 73
     1
 44
1.0
  0
ENDBLK
  5
257
330
255
100
AcDbEntity
  8
0
100
AcDbBlockEnd
  0
BLOCK
  5
265
330
264
100
AcDbEntity
  8
0
100
AcDbBlockBegin
  2
_D_8
 70
     0
 10
0.0
 20
0.0
 30
0.0
  3
_D_8
  1

  0
SOLID
  5
267
330
264
100
AcDbEntity
  8
DIM
100
AcDbTrace
 10
29.2407626599
 20
33.2908368179
 30
0.0
 11
30.2407626599
 21
33.0408368179
 31
0.0
 12
30.2407626599
 22
33.5408368179
 32
0.0
 13
30.2407626599
 23
33.5408368179
 33
0.0
  0
SOLID
  5
268
330
264
100
AcDbEntity
  8
DIM
100
AcDbTrace
 10
61.5059231802
 20
33.2908368179
 30
0.0
 11
60.5059231802
 21
33.5408368179
 31
0.0
 12
60.5059231802
 22
33.0408368179
 32
0.0
 13
60.5059231802
 23
33.0408368179
 33
0.0
  0
LINE
  5
269
330
264
100
AcDbEntity
  8
DIM
100
AcDbLine
 10
46.2813291322
 20
34.5408367845
 30
0.0
 11
44.7813290844
 21
32.0408367047
 31
0.0
  0
LINE
  5
26A
330
264
100
AcDbEntity
  8
DIM
100
AcDbLine
 10
29.2407626599
 20
41.4350624234
 30
0.0
 11
29.2407626599
 21
33.2514667392
 31
0.0
  0
LINE
  5
26B
330
264
100
AcDbEntity
  8
DIM
100
AcDbLine
 10
61.5059231802
 20
41.4350624234
 30
0.0
 11
61.5059231802
 21
33.2514667392
 31
0.0
  0
LINE
  5
26C
330
264
100
AcDbEntity
  8
DIM
100
AcDbLine
 10
29.2407626599
 20
33.2908368179
 30
0.0
 11
42.7604958772
 21
33.2908368179
 31
0.0
  0
LINE
  5
26D
330
264
100
AcDbEntity
  8
DIM
100
AcDbLine
 10
61.5059231802
 20
33.2908368179
 30
0.0
 11
47.9861899629
 21
33.2908368179
 31
0.0
  0
MTEXT
  5
26E
330
264
100
AcDbEntity
  8
DIM
100
AcDbMText
 10
42.7604958772
 20
34.0072062114
 30
0.4556968959
 40
1.25
 41
0.0
 71
     1
 72
     1
  1
32
  7
SLDTEXTSTYLE0
 73
     1
 44
1.0
  0
MTEXT
  5
26F
330
264
100
AcDbEntity
  8
DIM
100
AcDbMText
 10
44.6077180313
 20
34.902171346
 30
0.4556968959
 40
1.25
 41
0.0
 71
     1
 72
     1
  1
1
  7
SLDTEXTSTYLE0
 73
     1
 44
1.0
  0
MTEXT
  5
270
330
264
100
AcDbEntity
  8
DIM
100
AcDbMText
 10
45.5313291083
 20
33.2858519245
 30
0.4556968959
 40
1.25
 41
0.0
 71
     1
 72
     1
  1
4
  7
SLDTEXTSTYLE0
 73
     1
 44
1.0
  0
MTEXT
  5
271
330
264
100
AcDbEntity
  8
DIM
100
AcDbMText
 10
46.4549401853
 20
34.0072062114
 30
0.4556968959
 40
1.25
 41
0.0
 71
     1
 72
     1
  1
"
  7
SLDTEXTSTYLE0
 73
     1
 44
1.0
  0
ENDBLK
  5
266
330
264
100
AcDbEntity
  8
0
100
AcDbBlockEnd
  0
BLOCK
  5
348
330
347
100
AcDbEntity
  8
0
100
AcDbBlockBegin
  2
_D_9
 70
     0
 10
0.0
 20
0.0
 30
0.0
  3
_D_9
  1

  0
SOLID
  5
34A
330
347
100
AcDbEntity
  8
DIM
100
AcDbTrace
 10
78.0167463112
 20
29.0077049077
 30
0.0
 11
77.0167463112
 21
29.2577049077
 31
0.0
 12
77.0167463112
 22
28.7577049077
 32
0.0
 13
77.0167463112
 23
28.7577049077
 33
0.0
  0
SOLID
  5
34B
330
347
100
AcDbEntity
  8
DIM
100
AcDbTrace
 10
79.6751028133
 20
29.0077049077
 30
0.0
 11
80.6751028133
 21
28.7577049077
 31
0.0
 12
80.6751028133
 22
29.2577049077
 32
0.0
 13
80.6751028133
 23
29.2577049077
 33
0.0
  0
LINE
  5
34C
330
347
100
AcDbEntity
  8
DIM
100
AcDbLine
 10
72.6862997207
 20
30.2577048743
 30
0.0
 11
71.1862996728
 21
27.7577047945
 31
0.0
  0
LINE
  5
34D
330
347
100
AcDbEntity
  8
DIM
100
AcDbLine
 10
78.0167463112
 20
23.9450079368
 30
0.0
 11
78.0167463112
 21
29.0470749865
 31
0.0
  0
LINE
  5
34E
330
347
100
AcDbEntity
  8
DIM
100
AcDbLine
 10
79.6751028133
 20
26.0470749865
 30
0.0
 11
79.6751028133
 21
29.0470749865
 31
0.0
  0
LINE
  5
34F
330
347
100
AcDbEntity
  8
DIM
100
AcDbLine
 10
78.0167463112
 20
29.0077049077
 30
0.0
 11
75.3147714817
 21
29.0077049077
 31
0.0
  0
LINE
  5
350
330
347
100
AcDbEntity
  8
DIM
100
AcDbLine
 10
79.6751028133
 20
29.0077049077
 30
0.0
 11
81.1751028133
 21
29.0077049077
 31
0.0
  0
MTEXT
  5
351
330
347
100
AcDbEntity
  8
DIM
100
AcDbMText
 10
69.1654664656
 20
29.7240743011
 30
-1.6610086866
 40
1.25
 41
0.0
 71
     1
 72
     1
  1
1
  7
SLDTEXTSTYLE0
 73
     1
 44
1.0
  0
MTEXT
  5
352
330
347
100
AcDbEntity
  8
DIM
100
AcDbMText
 10
70.0890775427
 20
30.6190394358
 30
-1.6610086866
 40
1.25
 41
0.0
 71
     1
 72
     1
  1
11
  7
SLDTEXTSTYLE0
 73
     1
 44
1.0
  0
MTEXT
  5
353
330
347
100
AcDbEntity
  8
DIM
100
AcDbMText
 10
71.9362996967
 20
29.0027200143
 30
-1.6610086866
 40
1.25
 41
0.0
 71
     1
 72
     1
  1
16
  7
SLDTEXTSTYLE0
 73
     1
 44
1.0
  0
MTEXT
  5
354
330
347
100
AcDbEntity
  8
DIM
100
AcDbMText
 10
73.7835217041
 20
29.7240743011
 30
-1.6610086866
 40
1.25
 41
0.0
 71
     1
 72
     1
  1
"
  7
SLDTEXTSTYLE0
 73
     1
 44
1.0
  0
ENDBLK
  5
349
330
347
100
AcDbEntity
  8
0
100
AcDbBlockEnd
  0
BLOCK
  5
357
330
356
100
AcDbEntity
  8
0
100
AcDbBlockBegin
  2
_D_10
 70
     0
 10
0.0
 20
0.0
 30
0.0
  3
_D_10
  1

  0
SOLID
  5
359
330
356
100
AcDbEntity
  8
DIM
100
AcDbTrace
 10
79.7027028133
 20
29.0077049077
 30
0.0
 11
80.7027028133
 21
28.7577049077
 31
0.0
 12
80.7027028133
 22
29.2577049077
 32
0.0
 13
80.7027028133
 23
29.2577049077
 33
0.0
  0
SOLID
  5
35A
330
356
100
AcDbEntity
  8
DIM
100
AcDbTrace
 10
94.6903028133
 20
29.0077049077
 30
0.0
 11
93.6903028133
 21
29.2577049077
 31
0.0
 12
93.6903028133
 22
28.7577049077
 32
0.0
 13
93.6903028133
 23
28.7577049077
 33
0.0
  0
LINE
  5
35B
330
356
100
AcDbEntity
  8
DIM
100
AcDbLine
 10
79.7027028133
 20
26.0470749865
 30
0.0
 11
79.7027028133
 21
29.0470749865
 31
0.0
  0
LINE
  5
35C
330
356
100
AcDbEntity
  8
DIM
100
AcDbLine
 10
94.6903028133
 20
24.3644749865
 30
0.0
 11
94.6903028133
 21
29.0470749865
 31
0.0
  0
LINE
  5
35D
330
356
100
AcDbEntity
  8
DIM
100
AcDbLine
 10
79.7027028133
 20
29.0077049077
 30
0.0
 11
85.5072667009
 21
29.0077049077
 31
0.0
  0
LINE
  5
35E
330
356
100
AcDbEntity
  8
DIM
100
AcDbLine
 10
94.6903028133
 20
29.0077049077
 30
0.0
 11
88.8857389258
 21
29.0077049077
 31
0.0
  0
MTEXT
  5
35F
330
356
100
AcDbEntity
  8
DIM
100
AcDbMText
 10
85.5072667009
 20
29.6268521443
 30
-1.6610086866
 40
1.25
 41
0.0
 71
     1
 72
     1
  1
15"
  7
SLDTEXTSTYLE0
 73
     1
 44
1.0
  0
ENDBLK
  5
358
330
356
100
AcDbEntity
  8
0
100
AcDbBlockEnd
  0
BLOCK
  5
362
330
361
100
AcDbEntity
  8
0
100
AcDbBlockBegin
  2
_D_11
 70
     0
 10
0.0
 20
0.0
 30
0.0
  3
_D_11
  1

  0
SOLID
  5
364
330
361
100
AcDbEntity
  8
DIM
100
AcDbTrace
 10
98.5797399086
 20
25.3207049077
 30
0.0
 11
98.8297399086
 21
26.3207049077
 31
0.0
 12
98.3297399086
 22
26.3207049077
 32
0.0
 13
98.3297399086
 23
26.3207049077
 33
0.0
  0
SOLID
  5
365
330
361
100
AcDbEntity
  8
DIM
100
AcDbTrace
 10
98.5797399086
 20
24.3827049077
 30
0.0
 11
98.3297399086
 21
23.3827049077
 31
0.0
 12
98.8297399086
 22
23.3827049077
 32
0.0
 13
98.8297399086
 23
23.3827049077
 33
0.0
  0
LINE
  5
366
330
361
100
AcDbEntity
  8
DIM
100
AcDbLine
 10
102.1045929241
 20
28.6347765048
 30
0.0
 11
100.6045928762
 21
26.134776425
 31
0.0
  0
LINE
  5
367
330
361
100
AcDbEntity
  8
DIM
100
AcDbLine
 10
88.1080728921
 20
25.3207049077
 30
0.0
 11
98.6191099874
 21
25.3207049077
 31
0.0
  0
LINE
  5
368
330
361
100
AcDbEntity
  8
DIM
100
AcDbLine
 10
94.4402769284
 20
24.3827049077
 30
0.0
 11
98.6191099874
 21
24.3827049077
 31
0.0
  0
LINE
  5
369
330
361
100
AcDbEntity
  8
DIM
100
AcDbLine
 10
99.5073707461
 20
27.3847765382
 30
0.0
 11
98.5797399086
 21
27.3847765382
 31
0.0
  0
LINE
  5
36A
330
361
100
AcDbEntity
  8
DIM
100
AcDbLine
 10
98.5797399086
 20
27.3847765382
 30
0.0
 11
98.5797399086
 21
25.3207049077
 31
0.0
  0
LINE
  5
36B
330
361
100
AcDbEntity
  8
DIM
100
AcDbLine
 10
98.5797399086
 20
24.3827049077
 30
0.0
 11
98.5797399086
 21
22.8827049077
 31
0.0
  0
MTEXT
  5
36C
330
361
100
AcDbEntity
  8
DIM
100
AcDbMText
 10
99.5073707461
 20
28.9961110663
 30
-1.6610086866
 40
1.25
 41
0.0
 71
     1
 72
     1
  1
15
  7
SLDTEXTSTYLE0
 73
     1
 44
1.0
  0
MTEXT
  5
36D
330
361
100
AcDbEntity
  8
DIM
100
AcDbMText
 10
101.3545929002
 20
27.3797916448
 30
-1.6610086866
 40
1.25
 41
0.0
 71
     1
 72
     1
  1
16
  7
SLDTEXTSTYLE0
 73
     1
 44
1.0
  0
MTEXT
  5
36E
330
361
100
AcDbEntity
  8
DIM
100
AcDbMText
 10
103.2018150542
 20
28.1011459317
 30
-1.6610086866
 40
1.25
 41
0.0
 71
     1
 72
     1
  1
"
  7
SLDTEXTSTYLE0
 73
     1
 44
1.0
  0
ENDBLK
  5
363
330
361
100
AcDbEntity
  8
0
100
AcDbBlockEnd
  0
BLOCK
  5
371
330
370
100
AcDbEntity
  8
0
100
AcDbBlockBegin
  2
_D_12
 70
     0
 10
0.0
 20
0.0
 30
0.0
  3
_D_12
  1

  0
SOLID
  5
373
330
370
100
AcDbEntity
  8
DIM
100
AcDbTrace
 10
98.5797399086
 20
3.2675049077
 30
0.0
 11
98.8297399086
 21
4.2675049077
 31
0.0
 12
98.3297399086
 22
4.2675049077
 32
0.0
 13
98.3297399086
 23
4.2675049077
 33
0.0
  0
SOLID
  5
374
330
370
100
AcDbEntity
  8
DIM
100
AcDbTrace
 10
98.5797399086
 20
24.3827049077
 30
0.0
 11
98.3297399086
 21
23.3827049077
 31
0.0
 12
98.8297399086
 22
23.3827049077
 32
0.0
 13
98.8297399086
 23
23.3827049077
 33
0.0
  0
LINE
  5
375
330
370
100
AcDbEntity
  8
DIM
100
AcDbLine
 10
99.4877261208
 20
15.0751048743
 30
0.0
 11
97.987726073
 21
12.5751047945
 31
0.0
  0
LINE
  5
376
330
370
100
AcDbEntity
  8
DIM
100
AcDbLine
 10
94.6720728921
 20
3.2675049077
 30
0.0
 11
98.6191099874
 21
3.2675049077
 31
0.0
  0
LINE
  5
377
330
370
100
AcDbEntity
  8
DIM
100
AcDbLine
 10
94.6720728921
 20
24.3827049077
 30
0.0
 11
98.6191099874
 21
24.3827049077
 31
0.0
  0
LINE
  5
378
330
370
100
AcDbEntity
  8
DIM
100
AcDbLine
 10
98.5797399086
 20
3.2675049077
 30
0.0
 11
98.5797399086
 21
12.2087854862
 31
0.0
  0
LINE
  5
379
330
370
100
AcDbEntity
  8
DIM
100
AcDbLine
 10
98.5797399086
 20
24.3827049077
 30
0.0
 11
98.5797399086
 21
15.4414243292
 31
0.0
  0
MTEXT
  5
37A
330
370
100
AcDbEntity
  8
DIM
100
AcDbMText
 10
95.9668928658
 20
14.5414743011
 30
-1.6610086866
 40
1.25
 41
0.0
 71
     1
 72
     1
  1
21
  7
SLDTEXTSTYLE0
 73
     1
 44
1.0
  0
MTEXT
  5
37B
330
370
100
AcDbEntity
  8
DIM
100
AcDbMText
 10
97.8141150199
 20
15.4364394358
 30
-1.6610086866
 40
1.25
 41
0.0
 71
     1
 72
     1
  1
1
  7
SLDTEXTSTYLE0
 73
     1
 44
1.0
  0
MTEXT
  5
37C
330
370
100
AcDbEntity
  8
DIM
100
AcDbMText
 10
98.7377260969
 20
13.8201200143
 30
-1.6610086866
 40
1.25
 41
0.0
 71
     1
 72
     1
  1
8
  7
SLDTEXTSTYLE0
 73
     1
 44
1.0
  0
MTEXT
  5
37D
330
370
100
AcDbEntity
  8
DIM
100
AcDbMText
 10
99.6613371739
 20
14.5414743011
 30
-1.6610086866
 40
1.25
 41
0.0
 71
     1
 72
     1
  1
"
  7
SLDTEXTSTYLE0
 73
     1
 44
1.0
  0
ENDBLK
  5
372
330
370
100
AcDbEntity
  8
0
100
AcDbBlockEnd
  0
ENDSEC
  0
SECTION
  2
ENTITIES
  0
INSERT
  5
4D
330
1F
100
AcDbEntity
  8
NOTES
100
AcDbBlockReference
  2
SW_NOTE_0
 10
2.9480390227
 20
57.7913211017
 30
0.0
  0
MTEXT
  5
4E
330
1F
100
AcDbEntity
  8
NOTES
100
AcDbMText
 10
2.9480390227
 20
51.503619754
 30
0.0
 40
1.0
 41
0.0
 71
     1
 72
     1
  1
REQURES DECORATIVE SURROUND
  7
SLDTEXTSTYLE0
 73
     1
 44
1.0
  0
LINE
  5
4F
330
1F
100
AcDbEntity
  8
SLD-0
  6
Continuous
370
    15
100
AcDbLine
 10
60.373343164
 20
3.8616733353
 30
0.0
 11
30.3733433799
 21
3.8616733353
 31
0.0
  0
LINE
  5
50
330
1F
100
AcDbEntity
  8
SLD-0
  6
Continuous
370
    15
100
AcDbLine
 10
52.2638431923
 20
3.2675053725
 30
0.0
 11
52.2638431923
 21
3.2626044158
 31
0.0
  0
LINE
  5
51
330
1F
100
AcDbEntity
  8
SLD-0
  6
Continuous
370
    15
100
AcDbLine
 10
45.4828429003
 20
3.2626044158
 30
0.0
 11
52.2638431923
 21
3.2626044158
 31
0.0
  0
LINE
  5
52
330
1F
100
AcDbEntity
  8
SLD-0
  6
Continuous
370
    15
100
AcDbLine
 10
45.4828429003
 20
3.2626044158
 30
0.0
 11
45.4828429003
 21
3.2675053725
 31
0.0
  0
LINE
  5
53
330
1F
100
AcDbEntity
  8
SLD-0
  6
Continuous
370
    15
100
AcDbLine
 10
38.4828427649
 20
3.2626044158
 30
0.0
 11
45.2638429102
 21
3.2626044158
 31
0.0
  0
LINE
  5
54
330
1F
100
AcDbEntity
  8
SLD-0
  6
Continuous
370
    15
100
AcDbLine
 10
37.8733430326
 20
3.2626044158
 30
0.0
 11
38.2638426282
 21
3.2626044158
 31
0.0
  0
LINE
  5
55
330
1F
100
AcDbEntity
  8
SLD-0
  6
Continuous
370
    15
100
AcDbLine
 10
52.4828427424
 20
3.2626044158
 30
0.0
 11
52.4828427424
 21
3.2675053725
 31
0.0
  0
LINE
  5
56
330
1F
100
AcDbEntity
  8
SLD-0
  6
Continuous
370
    15
100
AcDbLine
 10
38.2638426282
 20
3.2675053725
 30
0.0
 11
38.2638426282
 21
3.2626044158
 31
0.0
  0
LINE
  5
57
330
1F
100
AcDbEntity
  8
SLD-0
  6
Continuous
370
    15
100
AcDbLine
 10
38.4828427649
 20
3.2626044158
 30
0.0
 11
38.4828427649
 21
3.2675053725
 31
0.0
  0
LINE
  5
58
330
1F
100
AcDbEntity
  8
SLD-0
  6
Continuous
370
    15
100
AcDbLine
 10
45.2638429102
 20
3.2675053725
 30
0.0
 11
45.2638429102
 21
3.2626044158
 31
0.0
  0
LINE
  5
59
330
1F
100
AcDbEntity
  8
SLD-0
  6
Continuous
370
    15
100
AcDbLine
 10
52.4828427424
 20
3.2626044158
 30
0.0
 11
52.8733429246
 21
3.2626044158
 31
0.0
  0
LINE
  5
5A
330
1F
100
AcDbEntity
  8
SLD-0
  6
Continuous
370
    15
100
AcDbLine
 10
52.8733429246
 20
3.2626044158
 30
0.0
 11
52.8733429246
 21
3.2675053725
 31
0.0
  0
LINE
  5
5B
330
1F
100
AcDbEntity
  8
SLD-0
  6
Continuous
370
    15
100
AcDbLine
 10
37.8733430326
 20
3.2675053725
 30
0.0
 11
37.8733430326
 21
3.2626044158
 31
0.0
  0
LINE
  5
5C
330
1F
100
AcDbEntity
  8
SLD-0
  6
Continuous
370
    15
100
AcDbLine
 10
30.6233426252
 20
23.905637679
 30
0.0
 11
30.7162261389
 21
23.472849292
 31
0.0
  0
LINE
  5
5D
330
1F
100
AcDbEntity
  8
SLD-0
  6
Continuous
370
    15
100
AcDbLine
 10
60.1233427454
 20
23.905637679
 30
0.0
 11
30.6233426252
 21
23.905637679
 31
0.0
  0
LINE
  5
5E
330
1F
100
AcDbEntity
  8
SLD-0
  6
Continuous
370
    15
100
AcDbLine
 10
60.0304592317
 20
23.472849292
 30
0.0
 11
60.1233427454
 21
23.905637679
 31
0.0
  0
LINE
  5
5F
330
1F
100
AcDbEntity
  8
SLD-0
  6
Continuous
370
    15
100
AcDbLine
 10
60.0304592317
 20
23.472849292
 30
0.0
 11
30.7162261389
 21
23.472849292
 31
0.0
  0
LINE
  5
60
330
1F
100
AcDbEntity
  8
SLD-0
  6
Continuous
370
    15
100
AcDbLine
 10
60.1233427454
 20
23.9293968179
 30
0.0
 11
30.6233426252
 21
23.9293968179
 31
0.0
  0
LINE
  5
61
330
1F
100
AcDbEntity
  8
SLD-0
  6
Continuous
370
    15
100
AcDbLine
 10
60.1233427454
 20
23.905637679
 30
0.0
 11
60.1233427454
 21
23.9293968179
 31
0.0
  0
LINE
  5
62
330
1F
100
AcDbEntity
  8
SLD-0
  6
Continuous
370
    15
100
AcDbLine
 10
30.6233426252
 20
23.905637679
 30
0.0
 11
30.6233426252
 21
23.9293968179
 31
0.0
  0
SPLINE
  5
63
330
1F
100
AcDbEntity
  8
SLD-0
  6
Continuous
370
    15
100
AcDbSpline
210
0.0
220
0.0
230
1.0
 70
     8
 71
     3
 72
    11
 73
     7
 74
     0
 42
0.00000001
 43
0.00000001
 12
1.0
 22
0.0
 32
0.0
 13
1.0
 23
0.0
 33
0.0
 40
0.0
 40
0.0
 40
0.0
 40
0.0
 40
0.2500036136227717
 40
0.5000079241417661
 40
0.7499963265452902
 40
1.0
 40
1.0
 40
1.0
 40
1.0
 10
60.03045923168611
 20
23.47284929197962
 30
0.0
 10
60.03003748339031
 20
23.47001603537332
 30
0.0
 10
60.02919398562307
 20
23.46434951426288
 30
0.0
 10
60.02793120217064
 20
23.45845608007587
 30
0.0
 10
60.02666573182082
 20
23.45457377292166
 30
0.0
 10
60.02582261926966
 20
23.45409459901001
 30
0.0
 10
60.02540105011865
 20
23.45385500473658
 30
0.0
  0
LINE
  5
64
330
1F
100
AcDbEntity
  8
SLD-0
  6
Continuous
370
    15
100
AcDbLine
 10
30.7212843204
 20
23.4538550047
 30
0.0
 11
60.0254010501
 21
23.4538550047
 31
0.0
  0
SPLINE
  5
65
330
1F
100
AcDbEntity
  8
SLD-0
  6
Continuous
370
    15
100
AcDbSpline
210
0.0
220
0.0
230
1.0
 70
     8
 71
     3
 72
    11
 73
     7
 74
     0
 42
0.00000001
 43
0.00000001
 12
1.0
 22
0.0
 32
0.0
 13
1.0
 23
0.0
 33
0.0
 40
0.0
 40
0.0
 40
0.0
 40
0.0
 40
0.2500014014190836
 40
0.4999898038292169
 40
0.7499963863706187
 40
1.0
 40
1.0
 40
1.0
 40
1.0
 10
30.7212843204424
 20
23.45385500473658
 30
0.0
 10
30.72086321155654
 20
23.45409460056529
 30
0.0
 10
30.7200210156807
 20
23.45457377976476
 30
0.0
 10
30.71875566979904
 20
23.4584561132484
 30
0.0
 10
30.7174910153243
 20
23.46434947228117
 30
0.0
 10
30.71664776268906
 20
23.47001602996225
 30
0.0
 10
30.71622613887494
 20
23.47284929197962
 30
0.0
  0
LINE
  5
66
330
1F
100
AcDbEntity
  8
SLD-0
  6
Continuous
370
    15
100
AcDbLine
 10
32.1233427904
 20
21.8890048687
 30
0.0
 11
32.1233427904
 21
21.9226046405
 31
0.0
  0
LINE
  5
67
330
1F
100
AcDbEntity
  8
SLD-0
  6
Continuous
370
    15
100
AcDbLine
 10
32.1233427904
 20
21.8890048687
 30
0.0
 11
31.9983431677
 21
21.8890048687
 31
0.0
  0
LINE
  5
68
330
1F
100
AcDbEntity
  8
SLD-0
  6
Continuous
370
    15
100
AcDbLine
 10
31.9983431677
 20
21.9226046405
 30
0.0
 11
31.9983431677
 21
21.8890048687
 31
0.0
  0
LINE
  5
69
330
1F
100
AcDbEntity
  8
SLD-0
  6
Continuous
370
    15
100
AcDbLine
 10
32.9983424957
 20
23.4226048057
 30
0.0
 11
32.9983424957
 21
22.6726047231
 31
0.0
  0
LINE
  5
6A
330
1F
100
AcDbEntity
  8
SLD-0
  6
Continuous
370
    15
100
AcDbLine
 10
31.7483427491
 20
22.6726047231
 30
0.0
 11
31.7483427491
 21
23.4226048057
 31
0.0
  0
LINE
  5
6B
330
1F
100
AcDbEntity
  8
SLD-0
  6
Continuous
370
    15
100
AcDbLine
 10
32.7483432504
 20
21.8890048687
 30
0.0
 11
32.6233424544
 21
21.8890048687
 31
0.0
  0
LINE
  5
6C
330
1F
100
AcDbEntity
  8
SLD-0
  6
Continuous
370
    15
100
AcDbLine
 10
32.6233424544
 20
21.9226046405
 30
0.0
 11
32.6233424544
 21
21.8890048687
 31
0.0
  0
LINE
  5
6D
330
1F
100
AcDbEntity
  8
SLD-0
  6
Continuous
370
    15
100
AcDbLine
 10
32.7483432504
 20
21.8890048687
 30
0.0
 11
32.7483432504
 21
21.9226046405
 31
0.0
  0
LINE
  5
6E
330
1F
100
AcDbEntity
  8
SLD-0
  6
Continuous
370
    15
100
AcDbLine
 10
45.9983428519
 20
23.4226048057
 30
0.0
 11
45.9983428519
 21
22.6726047231
 31
0.0
  0
LINE
  5
6F
330
1F
100
AcDbEntity
  8
SLD-0
  6
Continuous
370
    15
100
AcDbLine
 10
44.7483428853
 20
22.6726047231
 30
0.0
 11
44.7483428853
 21
23.4226048057
 31
0.0
  0
LINE
  5
70
330
1F
100
AcDbEntity
  8
SLD-0
  6
Continuous
370
    15
100
AcDbLine
 10
58.1233429162
 20
21.8890048687
 30
0.0
 11
58.1233429162
 21
21.9226046405
 31
0.0
  0
LINE
  5
71
330
1F
100
AcDbEntity
  8
SLD-0
  6
Continuous
370
    15
100
AcDbLine
 10
58.1233429162
 20
21.8890048687
 30
0.0
 11
57.9983432935
 21
21.8890048687
 31
0.0
  0
LINE
  5
72
330
1F
100
AcDbEntity
  8
SLD-0
  6
Continuous
370
    15
100
AcDbLine
 10
57.9983432935
 20
21.9226046405
 30
0.0
 11
57.9983432935
 21
21.8890048687
 31
0.0
  0
LINE
  5
73
330
1F
100
AcDbEntity
  8
SLD-0
  6
Continuous
370
    15
100
AcDbLine
 10
58.9983426215
 20
23.4226048057
 30
0.0
 11
58.9983426215
 21
22.6726047231
 31
0.0
  0
LINE
  5
74
330
1F
100
AcDbEntity
  8
SLD-0
  6
Continuous
370
    15
100
AcDbLine
 10
57.7483428749
 20
22.6726047231
 30
0.0
 11
57.7483428749
 21
23.4226048057
 31
0.0
  0
LINE
  5
75
330
1F
100
AcDbEntity
  8
SLD-0
  6
Continuous
370
    15
100
AcDbLine
 10
58.7483433761
 20
21.8890048687
 30
0.0
 11
58.6233425802
 21
21.8890048687
 31
0.0
  0
LINE
  5
76
330
1F
100
AcDbEntity
  8
SLD-0
  6
Continuous
370
    15
100
AcDbLine
 10
58.7483433761
 20
21.8890048687
 30
0.0
 11
58.7483433761
 21
21.9226046405
 31
0.0
  0
LINE
  5
77
330
1F
100
AcDbEntity
  8
SLD-0
  6
Continuous
370
    15
100
AcDbLine
 10
58.6233425802
 20
21.9226046405
 30
0.0
 11
58.6233425802
 21
21.8890048687
 31
0.0
  0
LINE
  5
78
330
1F
100
AcDbEntity
  8
SLD-0
  6
Continuous
370
    15
100
AcDbLine
 10
32.9983424957
 20
23.4226048057
 30
0.0
 11
32.9983424957
 21
23.4538550047
 31
0.0
  0
LINE
  5
79
330
1F
100
AcDbEntity
  8
SLD-0
  6
Continuous
370
    15
100
AcDbLine
 10
45.9983428519
 20
23.4226048057
 30
0.0
 11
45.9983428519
 21
23.4538550047
 31
0.0
  0
LINE
  5
7A
330
1F
100
AcDbEntity
  8
SLD-0
  6
Continuous
370
    15
100
AcDbLine
 10
44.7483428853
 20
23.4538550047
 30
0.0
 11
44.7483428853
 21
23.4226048057
 31
0.0
  0
LINE
  5
7B
330
1F
100
AcDbEntity
  8
SLD-0
  6
Continuous
370
    15
100
AcDbLine
 10
31.7483427491
 20
23.4538550047
 30
0.0
 11
31.7483427491
 21
23.4226048057
 31
0.0
  0
LINE
  5
7C
330
1F
100
AcDbEntity
  8
SLD-0
  6
Continuous
370
    15
100
AcDbLine
 10
58.9983426215
 20
23.4226048057
 30
0.0
 11
58.9983426215
 21
23.4538550047
 31
0.0
  0
LINE
  5
7D
330
1F
100
AcDbEntity
  8
SLD-0
  6
Continuous
370
    15
100
AcDbLine
 10
57.7483428749
 20
23.4538550047
 30
0.0
 11
57.7483428749
 21
23.4226048057
 31
0.0
  0
LINE
  5
7E
330
1F
100
AcDbEntity
  8
SLD-0
  6
Continuous
370
    15
100
AcDbLine
 10
32.1233427904
 20
21.8890048687
 30
0.0
 11
32.6233424544
 21
21.8890048687
 31
0.0
  0
LINE
  5
7F
330
1F
100
AcDbEntity
  8
SLD-0
  6
Continuous
370
    15
100
AcDbLine
 10
58.1233429162
 20
21.8890048687
 30
0.0
 11
58.6233425802
 21
21.8890048687
 31
0.0
  0
LINE
  5
80
330
1F
100
AcDbEntity
  8
SLD-0
  6
Continuous
370
    15
100
AcDbLine
 10
38.1233428646
 20
23.4226048057
 30
0.0
 11
38.1233428646
 21
23.4538550047
 31
0.0
  0
LINE
  5
81
330
1F
100
AcDbEntity
  8
SLD-0
  6
Continuous
370
    15
100
AcDbLine
 10
51.8733430101
 20
23.4226048057
 30
0.0
 11
51.8733430101
 21
23.4538550047
 31
0.0
  0
LINE
  5
82
330
1F
100
AcDbEntity
  8
SLD-0
  6
Continuous
370
    15
100
AcDbLine
 10
38.8733429472
 20
23.4538550047
 30
0.0
 11
38.8733429472
 21
23.4226048057
 31
0.0
  0
LINE
  5
83
330
1F
100
AcDbEntity
  8
SLD-0
  6
Continuous
370
    15
100
AcDbLine
 10
52.6233430927
 20
23.4538550047
 30
0.0
 11
52.6233430927
 21
23.4226048057
 31
0.0
  0
LINE
  5
84
330
1F
100
AcDbEntity
  8
SLD-0
  6
Continuous
370
    15
100
AcDbLine
 10
38.8733429472
 20
21.8926052004
 30
0.0
 11
38.8733429472
 21
21.9221664056
 31
0.0
  0
LINE
  5
85
330
1F
100
AcDbEntity
  8
SLD-0
  6
Continuous
370
    15
100
AcDbLine
 10
38.8733429472
 20
22.6726047231
 30
0.0
 11
38.8733429472
 21
23.4226048057
 31
0.0
  0
LINE
  5
86
330
1F
100
AcDbEntity
  8
SLD-0
  6
Continuous
370
    15
100
AcDbLine
 10
38.1233428646
 20
23.4226048057
 30
0.0
 11
38.1233428646
 21
22.6726047231
 31
0.0
  0
LINE
  5
87
330
1F
100
AcDbEntity
  8
SLD-0
  6
Continuous
370
    15
100
AcDbLine
 10
38.1233428646
 20
21.9221664056
 30
0.0
 11
38.1233428646
 21
21.8926052004
 31
0.0
  0
LINE
  5
88
330
1F
100
AcDbEntity
  8
SLD-0
  6
Continuous
370
    15
100
AcDbLine
 10
52.6233430927
 20
21.8926052004
 30
0.0
 11
52.6233430927
 21
21.9221664056
 31
0.0
  0
LINE
  5
89
330
1F
100
AcDbEntity
  8
SLD-0
  6
Continuous
370
    15
100
AcDbLine
 10
52.6233430927
 20
22.6726047231
 30
0.0
 11
52.6233430927
 21
23.4226048057
 31
0.0
  0
LINE
  5
8A
330
1F
100
AcDbEntity
  8
SLD-0
  6
Continuous
370
    15
100
AcDbLine
 10
51.8733430101
 20
23.4226048057
 30
0.0
 11
51.8733430101
 21
22.6726047231
 31
0.0
  0
LINE
  5
8B
330
1F
100
AcDbEntity
  8
SLD-0
  6
Continuous
370
    15
100
AcDbLine
 10
51.8733430101
 20
21.9221664056
 30
0.0
 11
51.8733430101
 21
21.8926052004
 31
0.0
  0
LINE
  5
8C
330
1F
100
AcDbEntity
  8
SLD-0
  6
Continuous
370
    15
100
AcDbLine
 10
31.1940348059
 20
6.540807079
 30
0.0
 11
59.55363498
 21
6.540807079
 31
0.0
  0
LINE
  5
8D
330
1F
100
AcDbEntity
  8
SLD-0
  6
Continuous
370
    15
100
AcDbLine
 10
30.4440347233
 20
6.540807079
 30
0.0
 11
30.4440347233
 21
6.537979965
 31
0.0
  0
LINE
  5
8E
330
1F
100
AcDbEntity
  8
SLD-0
  6
Continuous
370
    15
100
AcDbLine
 10
29.272034929
 20
6.540807079
 30
0.0
 11
30.4440347233
 21
6.540807079
 31
0.0
  0
LINE
  5
8F
330
1F
100
AcDbEntity
  8
SLD-0
  6
Continuous
370
    15
100
AcDbLine
 10
29.272034929
 20
7.1831820583
 30
0.0
 11
29.272034929
 21
6.540807079
 31
0.0
  0
LINE
  5
90
330
1F
100
AcDbEntity
  8
SLD-0
  6
Continuous
370
    15
100
AcDbLine
 10
29.272034929
 20
7.1831820583
 30
0.0
 11
31.1203925632
 21
7.1831820583
 31
0.0
  0
LINE
  5
91
330
1F
100
AcDbEntity
  8
SLD-0
  6
Continuous
370
    15
100
AcDbLine
 10
59.6272772226
 20
7.1831820583
 30
0.0
 11
31.1203925632
 21
7.1831820583
 31
0.0
  0
LINE
  5
92
330
1F
100
AcDbEntity
  8
SLD-0
  6
Continuous
370
    15
100
AcDbLine
 10
59.6272772226
 20
7.1831820583
 30
0.0
 11
61.4756360302
 21
7.1831820583
 31
0.0
  0
LINE
  5
93
330
1F
100
AcDbEntity
  8
SLD-0
  6
Continuous
370
    15
100
AcDbLine
 10
61.4756360302
 20
6.540807079
 30
0.0
 11
61.4756360302
 21
7.1831820583
 31
0.0
  0
LINE
  5
94
330
1F
100
AcDbEntity
  8
SLD-0
  6
Continuous
370
    15
100
AcDbLine
 10
60.3036350626
 20
6.540807079
 30
0.0
 11
61.4756360302
 21
6.540807079
 31
0.0
  0
LINE
  5
95
330
1F
100
AcDbEntity
  8
SLD-0
  6
Continuous
370
    15
100
AcDbLine
 10
60.3036350626
 20
6.537979965
 30
0.0
 11
30.4440347233
 21
6.537979965
 31
0.0
  0
LINE
  5
96
330
1F
100
AcDbEntity
  8
SLD-0
  6
Continuous
370
    15
100
AcDbLine
 10
59.5967826416
 20
7.2348075419
 30
0.0
 11
31.1508871443
 21
7.2348075419
 31
0.0
  0
SPLINE
  5
97
330
1F
100
AcDbEntity
  8
SLD-0
  6
Continuous
370
    15
100
AcDbSpline
210
0.0
220
0.0
230
1.0
 70
     8
 71
     3
 72
    11
 73
     7
 74
     0
 42
0.00000001
 43
0.00000001
 12
1.0
 22
0.0
 32
0.0
 13
1.0
 23
0.0
 33
0.0
 40
0.0
 40
0.0
 40
0.0
 40
0.0
 40
0.2499995861672294
 40
0.5000042711209407
 40
0.7500005969113461
 40
1.0
 40
1.0
 40
1.0
 40
1.0
 10
59.62727722261241
 20
7.18318205827222
 30
0.0
 10
59.62473632224662
 20
7.189946988528358
 30
0.0
 10
59.6196544696929
 20
7.203476987012599
 30
0.0
 10
59.61202960484118
 20
7.220541192691406
 30
0.0
 10
59.60440721511929
 20
7.232479095245371
 30
0.0
 10
59.59932417650459
 20
7.234031389823999
 30
0.0
 10
59.59678264155509
 20
7.234807541890227
 30
0.0
  0
SPLINE
  5
98
330
1F
100
AcDbEntity
  8
SLD-0
  6
Continuous
370
    15
100
AcDbSpline
210
0.0
220
0.0
230
1.0
 70
     8
 71
     3
 72
    11
 73
     7
 74
     0
 42
0.00000001
 43
0.00000001
 12
1.0
 22
0.0
 32
0.0
 13
1.0
 23
0.0
 33
0.0
 40
0.0
 40
0.0
 40
0.0
 40
0.0
 40
0.249999403088654
 40
0.4999957288790594
 40
0.7500004138327707
 40
1.0
 40
1.0
 40
1.0
 40
1.0
 10
31.15088714430058
 20
7.234807541890227
 30
0.0
 10
31.14834560935107
 20
7.234031389823997
 30
0.0
 10
31.14326257073637
 20
7.232479095245369
 30
0.0
 10
31.13564018101448
 20
7.220541192691405
 30
0.0
 10
31.12801531616277
 20
7.203476987012599
 30
0.0
 10
31.12293346360905
 20
7.189946988528357
 30
0.0
 10
31.12039256324325
 20
7.183182058272219
 30
0.0
  0
LINE
  5
99
330
1F
100
AcDbEntity
  8
SLD-0
  6
Continuous
370
    15
100
AcDbLine
 10
60.3036350626
 20
6.4863550681
 30
0.0
 11
30.4440347233
 21
6.4863550681
 31
0.0
  0
LINE
  5
9A
330
1F
100
AcDbEntity
  8
SLD-0
  6
Continuous
370
    15
100
AcDbLine
 10
30.4440347233
 20
6.537979965
 30
0.0
 11
30.4440347233
 21
6.4863550681
 31
0.0
  0
LINE
  5
9B
330
1F
100
AcDbEntity
  8
SLD-0
  6
Continuous
370
    15
100
AcDbLine
 10
60.3036350626
 20
6.4863550681
 30
0.0
 11
60.3036350626
 21
6.537979965
 31
0.0
  0
LINE
  5
9C
330
1F
100
AcDbEntity
  8
SLD-0
  6
Continuous
370
    15
100
AcDbLine
 10
61.4983432879
 20
22.5982051026
 30
0.0
 11
61.4983432879
 21
21.9772050765
 31
0.0
  0
LINE
  5
9D
330
1F
100
AcDbEntity
  8
SLD-0
  6
Continuous
370
    15
100
AcDbLine
 10
61.4983432879
 20
21.9772050765
 30
0.0
 11
60.3233433149
 21
21.9772050765
 31
0.0
  0
LINE
  5
9E
330
1F
100
AcDbEntity
  8
SLD-0
  6
Continuous
370
    15
100
AcDbLine
 10
30.4233432289
 20
21.9772050765
 30
0.0
 11
60.3233433149
 21
21.9772050765
 31
0.0
  0
LINE
  5
9F
330
1F
100
AcDbEntity
  8
SLD-0
  6
Continuous
370
    15
100
AcDbLine
 10
29.248343256
 20
21.9772050765
 30
0.0
 11
30.4233432289
 21
21.9772050765
 31
0.0
  0
LINE
  5
A0
330
1F
100
AcDbEntity
  8
SLD-0
  6
Continuous
370
    15
100
AcDbLine
 10
29.248343256
 20
22.5982051026
 30
0.0
 11
29.248343256
 21
21.9772050765
 31
0.0
  0
LINE
  5
A1
330
1F
100
AcDbEntity
  8
SLD-0
  6
Continuous
370
    15
100
AcDbLine
 10
30.4233432289
 20
22.5982051026
 30
0.0
 11
29.248343256
 21
22.5982051026
 31
0.0
  0
LINE
  5
A2
330
1F
100
AcDbEntity
  8
SLD-0
  6
Continuous
370
    15
100
AcDbLine
 10
30.4431430002
 20
22.6180048739
 30
0.0
 11
30.4233432289
 21
22.5982051026
 31
0.0
  0
LINE
  5
A3
330
1F
100
AcDbEntity
  8
SLD-0
  6
Continuous
370
    15
100
AcDbLine
 10
60.3035423703
 20
22.6180048739
 30
0.0
 11
30.4431430002
 21
22.6180048739
 31
0.0
  0
LINE
  5
A4
330
1F
100
AcDbEntity
  8
SLD-0
  6
Continuous
370
    15
100
AcDbLine
 10
60.3233433149
 20
22.5982051026
 30
0.0
 11
61.4983432879
 21
22.5982051026
 31
0.0
  0
LINE
  5
A5
330
1F
100
AcDbEntity
  8
SLD-0
  6
Continuous
370
    15
100
AcDbLine
 10
60.3233433149
 20
22.5982051026
 30
0.0
 11
60.3035423703
 21
22.6180048739
 31
0.0
  0
SPLINE
  5
A6
330
1F
100
AcDbEntity
  8
SLD-0
  6
Continuous
370
    15
100
AcDbSpline
210
0.0
220
0.0
230
1.0
 70
     8
 71
     3
 72
    15
 73
    11
 74
     0
 42
0.00000001
 43
0.00000001
 12
1.0
 22
0.0
 32
0.0
 13
1.0
 23
0.0
 33
0.0
 40
0.0
 40
0.0
 40
0.0
 40
0.0
 40
0.125002845138675
 40
0.2499996486096976
 40
0.3750033858804209
 40
0.5000002352409917
 40
0.625000211320939
 40
0.7500019503564332
 40
0.8750019988706522
 40
1.0
 40
1.0
 40
1.0
 40
1.0
 10
30.44314300022133
 20
22.61800487388195
 30
0.0
 10
30.4454209060363
 20
22.62157839978365
 30
0.0
 10
30.44997660756994
 20
22.62872527887054
 30
0.0
 10
30.45680841293408
 20
22.63903416041391
 30
0.0
 10
30.46364232361155
 20
22.64853513592078
 30
0.0
 10
30.47047401790316
 20
22.65686017574208
 30
0.0
 10
30.47730777714181
 20
22.66370225025136
 30
0.0
 10
30.48414147787537
 20
22.66874882980635
 30
0.0
 10
30.49097293021851
 20
22.67199525257025
 30
0.0
 10
30.49552885278135
 20
22.67240156739249
 30
0.0
 10
30.49780679540717
 20
22.67260472313983
 30
0.0
  0
LINE
  5
A7
330
1F
100
AcDbEntity
  8
SLD-0
  6
Continuous
370
    15
100
AcDbLine
 10
30.4978067954
 20
22.6726047231
 30
0.0
 11
60.2488797485
 21
22.6726047231
 31
0.0
  0
SPLINE
  5
A8
330
1F
100
AcDbEntity
  8
SLD-0
  6
Continuous
370
    15
100
AcDbSpline
210
0.0
220
0.0
230
1.0
 70
     8
 71
     3
 72
    15
 73
    11
 74
     0
 42
0.00000001
 43
0.00000001
 12
1.0
 22
0.0
 32
0.0
 13
1.0
 23
0.0
 33
0.0
 40
0.0
 40
0.0
 40
0.0
 40
0.0
 40
0.1249925630459091
 40
0.2499996030123998
 40
0.3749959041735416
 40
0.4999966571492073
 40
0.625000498101213
 40
0.7499987976093538
 40
0.8750025926738079
 40
0.9999999999999999
 40
0.9999999999999999
 40
0.9999999999999999
 40
0.9999999999999999
 10
60.24887974847366
 20
22.67260472313983
 30
0.0
 10
60.25115710830134
 20
22.6724015235059
 30
0.0
 10
60.25571209172562
 20
22.67199510070298
 30
0.0
 10
60.26254547273132
 20
22.66874909758687
 30
0.0
 10
60.26937741624133
 20
22.66370210181493
 30
0.0
 10
60.27621116082389
 20
22.65685986597765
 30
0.0
 10
60.28304467095408
 20
22.64853580621346
 30
0.0
 10
60.2898764477842
 20
22.63903340408323
 30
0.0
 10
60.29671031071854
 20
22.62872599241461
 30
0.0
 10
60.30126505592516
 20
22.62157851918488
 30
0.0
 10
60.30354237033972
 20
22.61800487388195
 30
0.0
  0
LINE
  5
A9
330
1F
100
AcDbEntity
  8
SLD-0
  6
Continuous
370
    15
100
AcDbLine
 10
60.3233433149
 20
21.9772050765
 30
0.0
 11
60.3233433149
 21
21.9226046405
 31
0.0
  0
LINE
  5
AA
330
1F
100
AcDbEntity
  8
SLD-0
  6
Continuous
370
    15
100
AcDbLine
 10
30.4233432289
 20
21.9226046405
 30
0.0
 11
60.3233433149
 21
21.9226046405
 31
0.0
  0
LINE
  5
AB
330
1F
100
AcDbEntity
  8
SLD-0
  6
Continuous
370
    15
100
AcDbLine
 10
30.4233432289
 20
21.9226046405
 30
0.0
 11
30.4233432289
 21
21.9772050765
 31
0.0
  0
LINE
  5
AC
330
1F
100
AcDbEntity
  8
SLD-0
  6
Continuous
370
    15
100
AcDbLine
 10
31.1769817762
 20
21.9076049205
 30
0.0
 11
31.213698472
 21
21.9076049205
 31
0.0
  0
SPLINE
  5
AD
330
1F
100
AcDbEntity
  8
SLD-0
  6
Continuous
370
    15
100
AcDbSpline
210
0.0
220
0.0
230
1.0
 70
     8
 71
     3
 72
     9
 73
     5
 74
     0
 42
0.00000001
 43
0.00000001
 12
1.0
 22
0.0
 32
0.0
 13
1.0
 23
0.0
 33
0.0
 40
0.0
 40
0.0
 40
0.0
 40
0.0
 40
0.7183236106860516
 40
1.0
 40
1.0
 40
1.0
 40
1.0
 10
31.1769817761865
 20
21.90760492048284
 30
0.0
 10
31.17519307611418
 20
21.91139262907767
 30
0.0
 10
31.17270297270437
 20
21.91666561264453
 30
0.0
 10
31.17145314453886
 20
21.9212994093994
 30
0.0
 10
31.17110109745394
 20
21.92260464053812
 30
0.0
  0
SPLINE
  5
AE
330
1F
100
AcDbEntity
  8
SLD-0
  6
Continuous
370
    15
100
AcDbSpline
210
0.0
220
0.0
230
1.0
 70
     8
 71
     3
 72
    11
 73
     7
 74
     0
 42
0.00000001
 43
0.00000001
 12
1.0
 22
0.0
 32
0.0
 13
1.0
 23
0.0
 33
0.0
 40
0.0
 40
0.0
 40
0.0
 40
0.0
 40
0.2362257000515017
 40
0.502748590787855
 40
0.769165271406986
 40
1.0
 40
1.0
 40
1.0
 40
1.0
 10
31.2136984720321
 20
21.90760492048284
 30
0.0
 10
31.20997874606701
 20
21.90968698770731
 30
0.0
 10
31.20206221968289
 20
21.91411815824805
 30
0.0
 10
31.19242860868847
 20
21.91875479894184
 30
0.0
 10
31.18384459248991
 20
21.92195110609206
 30
0.0
 10
31.17911751880315
 20
21.92239744191333
 30
0.0
 10
31.17692311019755
 20
21.92260464053812
 30
0.0
  0
SPLINE
  5
AF
330
1F
100
AcDbEntity
  8
SLD-0
  6
Continuous
370
    15
100
AcDbSpline
210
0.0
220
0.0
230
1.0
 70
     8
 71
     3
 72
     9
 73
     5
 74
     0
 42
0.00000001
 43
0.00000001
 12
1.0
 22
0.0
 32
0.0
 13
1.0
 23
0.0
 33
0.0
 40
0.0
 40
0.0
 40
0.0
 40
0.0
 40
0.1533140643395772
 40
1.0
 40
1.0
 40
1.0
 40
1.0
 10
59.57651471569189
 20
21.92260464053812
 30
0.0
 10
59.57631335208045
 20
21.92190119488931
 30
0.0
 10
59.57499994608406
 20
21.91731292928016
 30
0.0
 10
59.57213191551794
 20
21.91205593965899
 30
0.0
 10
59.56970359437454
 20
21.90760492048284
 30
0.0
  0
LINE
  5
B0
330
1F
100
AcDbEntity
  8
SLD-0
  6
Continuous
370
    15
100
AcDbLine
 10
59.5697035944
 20
21.9076049205
 30
0.0
 11
59.5329880718
 21
21.9076049205
 31
0.0
  0
SPLINE
  5
B1
330
1F
100
AcDbEntity
  8
SLD-0
  6
Continuous
370
    15
100
AcDbSpline
210
0.0
220
0.0
230
1.0
 70
     8
 71
     3
 72
    11
 73
     7
 74
     0
 42
0.00000001
 43
0.00000001
 12
1.0
 22
0.0
 32
0.0
 13
1.0
 23
0.0
 33
0.0
 40
0.0
 40
0.0
 40
0.0
 40
0.0
 40
0.2362256030679379
 40
0.5027490317992521
 40
0.7691686894769567
 40
1.0
 40
1.0
 40
1.0
 40
1.0
 10
59.56976343368328
 20
21.92260464053812
 30
0.0
 10
59.56771857910164
 20
21.92232865532437
 30
0.0
 10
59.56336660095984
 20
21.92174128758269
 30
0.0
 10
59.55464626885166
 20
21.91809160716666
 30
0.0
 10
59.54467668742038
 20
21.91340050817712
 30
0.0
 10
59.53669383221326
 20
21.90944235444026
 30
0.0
 10
59.53298807184873
 20
21.90760492048284
 30
0.0
  0
SPLINE
  5
B2
330
1F
100
AcDbEntity
  8
SLD-0
  6
Continuous
370
    15
100
AcDbSpline
210
0.0
220
0.0
230
1.0
 70
     8
 71
     3
 72
    11
 73
     7
 74
     0
 42
0.00000001
 43
0.00000001
 12
1.0
 22
0.0
 32
0.0
 13
1.0
 23
0.0
 33
0.0
 40
0.0
 40
0.0
 40
0.0
 40
0.0
 40
0.2499998400776156
 40
0.5000032442042632
 40
0.7500030692934854
 40
1.0
 40
1.0
 40
1.0
 40
1.0
 10
54.93647381117371
 20
21.90760492048284
 30
0.0
 10
54.9345585347406
 20
21.90957056670636
 30
0.0
 10
54.93072795456978
 20
21.91350188717607
 30
0.0
 10
54.92239187133652
 20
21.91846001270705
 30
0.0
 10
54.91267479855065
 20
21.92192831914516
 30
0.0
 10
54.90561725371802
 20
21.92237920094382
 30
0.0
 10
54.90208850172907
 20
21.92260464053812
 30
0.0
  0
SPLINE
  5
B3
330
1F
100
AcDbEntity
  8
SLD-0
  6
Continuous
370
    15
100
AcDbSpline
210
0.0
220
0.0
230
1.0
 70
     8
 71
     3
 72
    11
 73
     7
 74
     0
 42
0.00000001
 43
0.00000001
 12
1.0
 22
0.0
 32
0.0
 13
1.0
 23
0.0
 33
0.0
 40
0.0
 40
0.0
 40
0.0
 40
0.0
 40
0.2500040500144068
 40
0.4999976737431142
 40
0.7499958701298384
 40
1.0
 40
1.0
 40
1.0
 40
1.0
 10
35.84459745549187
 20
21.92260464053812
 30
0.0
 10
35.84106845565297
 20
21.92237921758956
 30
0.0
 10
35.83401060315022
 20
21.92192838109358
 30
0.0
 10
35.82429403726005
 20
21.91846001796274
 30
0.0
 10
35.81595873600346
 20
21.9135017639407
 30
0.0
 10
35.81212769118687
 20
21.90957055051924
 30
0.0
 10
35.81021214604723
 20
21.90760492048284
 30
0.0
  0
LINE
  5
B4
330
1F
100
AcDbEntity
  8
SLD-0
  6
Continuous
370
    15
100
AcDbLine
 10
59.5190795392
 20
21.8926052004
 30
0.0
 11
59.5329880718
 21
21.9076049205
 31
0.0
  0
LINE
  5
B5
330
1F
100
AcDbEntity
  8
SLD-0
  6
Continuous
370
    15
100
AcDbLine
 10
59.555796235
 20
21.8926052004
 30
0.0
 11
59.5697035944
 21
21.9076049205
 31
0.0
  0
LINE
  5
B6
330
1F
100
AcDbEntity
  8
SLD-0
  6
Continuous
370
    15
100
AcDbLine
 10
54.9364738112
 20
21.9076049205
 30
0.0
 11
54.9420928396
 21
21.8926052004
 31
0.0
  0
LINE
  5
B7
330
1F
100
AcDbEntity
  8
SLD-0
  6
Continuous
370
    15
100
AcDbLine
 10
31.1769817762
 20
21.9076049205
 30
0.0
 11
31.1908891355
 21
21.8926052004
 31
0.0
  0
LINE
  5
B8
330
1F
100
AcDbEntity
  8
SLD-0
  6
Continuous
370
    15
100
AcDbLine
 10
31.213698472
 20
21.9076049205
 30
0.0
 11
31.2276058314
 21
21.8926052004
 31
0.0
  0
LINE
  5
B9
330
1F
100
AcDbEntity
  8
SLD-0
  6
Continuous
370
    15
100
AcDbLine
 10
35.8045931176
 20
21.8926052004
 30
0.0
 11
35.810212146
 21
21.9076049205
 31
0.0
  0
SPLINE
  5
BA
330
1F
100
AcDbEntity
  8
SLD-0
  6
Continuous
370
    15
100
AcDbSpline
210
0.0
220
0.0
230
1.0
 70
     8
 71
     3
 72
    11
 73
     7
 74
     0
 42
0.00000001
 43
0.00000001
 12
1.0
 22
0.0
 32
0.0
 13
1.0
 23
0.0
 33
0.0
 40
0.0
 40
0.0
 40
0.0
 40
0.0
 40
0.2499966045407111
 40
0.5000020312098388
 40
0.7499962313249513
 40
1.0
 40
1.0
 40
1.0
 40
1.0
 10
37.02426078792039
 20
21.90760492048284
 30
0.0
 10
37.01970557848874
 20
21.909570578378
 30
0.0
 10
37.0105949988767
 20
21.91350196353441
 30
0.0
 10
36.99692909061053
 20
21.91845992307705
 30
0.0
 10
36.98326307747977
 20
21.92192839297515
 30
0.0
 10
36.97415241243382
 20
21.92237922180793
 30
0.0
 10
36.96959699273455
 20
21.92260464053812
 30
0.0
  0
SPLINE
  5
BB
330
1F
100
AcDbEntity
  8
SLD-0
  6
Continuous
370
    15
100
AcDbSpline
210
0.0
220
0.0
230
1.0
 70
     8
 71
     3
 72
    11
 73
     7
 74
     0
 42
0.00000001
 43
0.00000001
 12
1.0
 22
0.0
 32
0.0
 13
1.0
 23
0.0
 33
0.0
 40
0.0
 40
0.0
 40
0.0
 40
0.0
 40
0.2499946998592664
 40
0.4999888999788038
 40
0.7499852578922943
 40
1.0
 40
1.0
 40
1.0
 40
1.0
 10
53.7770883778265
 20
21.92260464053812
 30
0.0
 10
53.77253316558724
 20
21.92237920156033
 30
0.0
 10
53.7634227502146
 20
21.9219283240554
 30
0.0
 10
53.74975697989838
 20
21.91846006528618
 30
0.0
 10
53.7360911304571
 20
21.91350159842584
 30
0.0
 10
53.72698021024161
 20
21.90957052797581
 30
0.0
 10
53.72242458264066
 20
21.90760492048284
 30
0.0
  0
LINE
  5
BC
330
1F
100
AcDbEntity
  8
SLD-0
  6
Continuous
370
    15
100
AcDbLine
 10
37.0242607879
 20
21.9076049205
 30
0.0
 11
37.0392610946
 21
21.8926052004
 31
0.0
  0
LINE
  5
BD
330
1F
100
AcDbEntity
  8
SLD-0
  6
Continuous
370
    15
100
AcDbLine
 10
53.7074248626
 20
21.8926052004
 30
0.0
 11
53.7224245826
 21
21.9076049205
 31
0.0
  0
LINE
  5
BE
330
1F
100
AcDbEntity
  8
SLD-0
  6
Continuous
370
    15
100
AcDbLine
 10
30.0220350116
 20
9.3060589746
 30
0.0
 11
30.0220350116
 21
7.8060588094
 31
0.0
  0
LINE
  5
BF
330
1F
100
AcDbEntity
  8
SLD-0
  6
Continuous
370
    15
100
AcDbLine
 10
29.272034929
 20
9.3060589746
 30
0.0
 11
30.0220350116
 21
9.3060589746
 31
0.0
  0
LINE
  5
C0
330
1F
100
AcDbEntity
  8
SLD-0
  6
Continuous
370
    15
100
AcDbLine
 10
29.272034929
 20
21.8926052004
 30
0.0
 11
29.272034929
 21
9.3060589746
 31
0.0
  0
LINE
  5
C1
330
1F
100
AcDbEntity
  8
SLD-0
  6
Continuous
370
    15
100
AcDbLine
 10
31.0822925234
 20
21.8926052004
 30
0.0
 11
29.272034929
 21
21.8926052004
 31
0.0
  0
LINE
  5
C2
330
1F
100
AcDbEntity
  8
SLD-0
  6
Continuous
370
    15
100
AcDbLine
 10
30.4440347233
 20
6.5176046804
 30
0.0
 11
29.272034929
 21
6.5176046804
 31
0.0
  0
LINE
  5
C3
330
1F
100
AcDbEntity
  8
SLD-0
  6
Continuous
370
    15
100
AcDbLine
 10
29.272034929
 20
7.8060588094
 30
0.0
 11
29.272034929
 21
7.1831820583
 31
0.0
  0
LINE
  5
C4
330
1F
100
AcDbEntity
  8
SLD-0
  6
Continuous
370
    15
100
AcDbLine
 10
29.272034929
 20
6.540807079
 30
0.0
 11
29.272034929
 21
6.5176046804
 31
0.0
  0
LINE
  5
C5
330
1F
100
AcDbEntity
  8
SLD-0
  6
Continuous
370
    15
100
AcDbLine
 10
30.0220350116
 20
7.8060588094
 30
0.0
 11
29.272034929
 21
7.8060588094
 31
0.0
  0
LINE
  5
C6
330
1F
100
AcDbEntity
  8
SLD-0
  6
Continuous
370
    15
100
AcDbLine
 10
31.1424204688
 20
21.8926052004
 30
0.0
 11
31.0822925234
 21
21.8926052004
 31
0.0
  0
LINE
  5
C7
330
1F
100
AcDbEntity
  8
SLD-0
  6
Continuous
370
    15
100
AcDbLine
 10
61.4746516149
 20
6.5176046804
 30
0.0
 11
60.3036350626
 21
6.5176046804
 31
0.0
  0
LINE
  5
C8
330
1F
100
AcDbEntity
  8
SLD-0
  6
Continuous
370
    15
100
AcDbLine
 10
61.4746516149
 20
21.8926052004
 30
0.0
 11
59.6643928472
 21
21.8926052004
 31
0.0
  0
LINE
  5
C9
330
1F
100
AcDbEntity
  8
SLD-0
  6
Continuous
370
    15
100
AcDbLine
 10
60.7246515323
 20
7.8060588094
 30
0.0
 11
60.7246515323
 21
9.3060589746
 31
0.0
  0
LINE
  5
CA
330
1F
100
AcDbEntity
  8
SLD-0
  6
Continuous
370
    15
100
AcDbLine
 10
60.7246515323
 20
9.3060589746
 30
0.0
 11
61.4746516149
 21
9.3060589746
 31
0.0
  0
LINE
  5
CB
330
1F
100
AcDbEntity
  8
SLD-0
  6
Continuous
370
    15
100
AcDbLine
 10
61.4746516149
 20
21.8926052004
 30
0.0
 11
61.4746516149
 21
9.3060589746
 31
0.0
  0
LINE
  5
CC
330
1F
100
AcDbEntity
  8
SLD-0
  6
Continuous
370
    15
100
AcDbLine
 10
61.4746516149
 20
7.8060588094
 30
0.0
 11
60.7246515323
 21
7.8060588094
 31
0.0
  0
LINE
  5
CD
330
1F
100
AcDbEntity
  8
SLD-0
  6
Continuous
370
    15
100
AcDbLine
 10
61.4746516149
 20
7.8060588094
 30
0.0
 11
61.4746516149
 21
7.1831820583
 31
0.0
  0
LINE
  5
CE
330
1F
100
AcDbEntity
  8
SLD-0
  6
Continuous
370
    15
100
AcDbLine
 10
61.4746516149
 20
6.540807079
 30
0.0
 11
61.4746516149
 21
6.5176046804
 31
0.0
  0
LINE
  5
CF
330
1F
100
AcDbEntity
  8
SLD-0
  6
Continuous
370
    15
100
AcDbLine
 10
59.6643928472
 20
21.8926052004
 30
0.0
 11
59.6042649018
 21
21.8926052004
 31
0.0
  0
LINE
  5
D0
330
1F
100
AcDbEntity
  8
SLD-0
  6
Continuous
370
    15
100
AcDbLine
 10
35.8654467613
 20
21.8926052004
 30
0.0
 11
32.7483432504
 21
21.8926052004
 31
0.0
  0
LINE
  5
D1
330
1F
100
AcDbEntity
  8
SLD-0
  6
Continuous
370
    15
100
AcDbLine
 10
31.9983431677
 20
21.8926052004
 30
0.0
 11
31.1424204688
 21
21.8926052004
 31
0.0
  0
LINE
  5
D2
330
1F
100
AcDbEntity
  8
SLD-0
  6
Continuous
370
    15
100
AcDbLine
 10
59.6042649018
 20
21.8926052004
 30
0.0
 11
58.7483433761
 21
21.8926052004
 31
0.0
  0
LINE
  5
D3
330
1F
100
AcDbEntity
  8
SLD-0
  6
Continuous
370
    15
100
AcDbLine
 10
57.9983432935
 20
21.8926052004
 30
0.0
 11
54.8812386093
 21
21.8926052004
 31
0.0
  0
SPLINE
  5
D4
330
1F
100
AcDbEntity
  8
SLD-0
  6
Continuous
370
    15
100
AcDbSpline
210
0.0
220
0.0
230
1.0
 70
     8
 71
     3
 72
    13
 73
     9
 74
     0
 42
0.00000001
 43
0.00000001
 12
1.0
 22
0.0
 32
0.0
 13
1.0
 23
0.0
 33
0.0
 40
0.0
 40
0.0
 40
0.0
 40
0.0
 40
0.0785465196499139
 40
0.2628348249569193
 40
0.4471280243941779
 40
0.6314206780518863
 40
0.8157209659346029
 40
1.0
 40
1.0
 40
1.0
 40
1.0
 10
31.33951237861912
 20
6.486355068077073
 30
0.0
 10
31.34041599796846
 20
6.484737971984338
 30
0.0
 10
31.3434397173461
 20
6.479326794374343
 30
0.0
 10
31.35067517039479
 20
6.471499723729738
 30
0.0
 10
31.36081310663874
 20
6.463316713920372
 30
0.0
 10
31.3723645563376
 20
6.457338414369915
 30
0.0
 10
31.38477316229525
 20
6.453478022626135
 30
0.0
 10
31.39335344152463
 20
6.452995804649556
 30
0.0
 10
31.39764333375203
 20
6.452754709564616
 30
0.0
  0
LINE
  5
D5
330
1F
100
AcDbEntity
  8
SLD-0
  6
Continuous
370
    15
100
AcDbLine
 10
31.3976433338
 20
6.4863550681
 30
0.0
 11
31.3976433338
 21
6.4527547096
 31
0.0
  0
SPLINE
  5
D6
330
1F
100
AcDbEntity
  8
SLD-0
  6
Continuous
370
    15
100
AcDbSpline
210
0.0
220
0.0
230
1.0
 70
     8
 71
     3
 72
    13
 73
     9
 74
     0
 42
0.00000001
 43
0.00000001
 12
1.0
 22
0.0
 32
0.0
 13
1.0
 23
0.0
 33
0.0
 40
0.0
 40
0.0
 40
0.0
 40
0.0
 40
0.1842936779259969
 40
0.3685765756942387
 40
0.5528675688732044
 40
0.7371591078268028
 40
0.9214457526942442
 40
1.0
 40
1.0
 40
1.0
 40
1.0
 10
59.34904203680902
 20
6.452754709564616
 30
0.0
 10
59.35333234097128
 20
6.452995729164819
 30
0.0
 10
59.36191269833679
 20
6.453477754266917
 30
0.0
 10
59.37432112044231
 20
6.457338668085668
 30
0.0
 10
59.38587221586774
 20
6.463316723456906
 30
0.0
 10
59.39601041480459
 20
6.471499601950897
 30
0.0
 10
59.40324517529017
 20
6.479327304981543
 30
0.0
 10
59.40627011358026
 20
6.484737995727844
 30
0.0
 10
59.40717416526171
 20
6.486355068077073
 30
0.0
  0
LINE
  5
D7
330
1F
100
AcDbEntity
  8
SLD-0
  6
Continuous
370
    15
100
AcDbLine
 10
59.3490420368
 20
6.4863550681
 30
0.0
 11
59.3490420368
 21
6.4527547096
 31
0.0
  0
LINE
  5
D8
330
1F
100
AcDbEntity
  8
SLD-0
  6
Continuous
370
    15
100
AcDbLine
 10
32.8593533813
 20
6.4527547096
 30
0.0
 11
32.8593533813
 21
6.4863550681
 31
0.0
  0
LINE
  5
D9
330
1F
100
AcDbEntity
  8
SLD-0
  6
Continuous
370
    15
100
AcDbLine
 10
32.8593533813
 20
6.4527547096
 30
0.0
 11
31.3976433338
 21
6.4527547096
 31
0.0
  0
LINE
  5
DA
330
1F
100
AcDbEntity
  8
SLD-0
  6
Continuous
370
    15
100
AcDbLine
 10
57.8873331626
 20
6.4527547096
 30
0.0
 11
57.8873331626
 21
6.4863550681
 31
0.0
  0
LINE
  5
DB
330
1F
100
AcDbEntity
  8
SLD-0
  6
Continuous
370
    15
100
AcDbLine
 10
57.8873331626
 20
6.4527547096
 30
0.0
 11
59.3490420368
 21
6.4527547096
 31
0.0
  0
LINE
  5
DC
330
1F
100
AcDbEntity
  8
SLD-0
  6
Continuous
370
    15
100
AcDbLine
 10
36.5984612801
 20
6.4527547096
 30
0.0
 11
36.5984612801
 21
6.4863550681
 31
0.0
  0
LINE
  5
DD
330
1F
100
AcDbEntity
  8
SLD-0
  6
Continuous
370
    15
100
AcDbLine
 10
36.5984612801
 20
6.4527547096
 30
0.0
 11
32.8593533813
 21
6.4527547096
 31
0.0
  0
LINE
  5
DE
330
1F
100
AcDbEntity
  8
SLD-0
  6
Continuous
370
    15
100
AcDbLine
 10
54.1482246771
 20
6.4527547096
 30
0.0
 11
54.1482246771
 21
6.4863550681
 31
0.0
  0
LINE
  5
DF
330
1F
100
AcDbEntity
  8
SLD-0
  6
Continuous
370
    15
100
AcDbLine
 10
54.1482246771
 20
6.4527547096
 30
0.0
 11
57.8873331626
 21
6.4527547096
 31
0.0
  0
LINE
  5
E0
330
1F
100
AcDbEntity
  8
SLD-0
  6
Continuous
370
    15
100
AcDbLine
 10
53.0545985374
 20
6.4527547096
 30
0.0
 11
53.0545985374
 21
6.4863550681
 31
0.0
  0
LINE
  5
E1
330
1F
100
AcDbEntity
  8
SLD-0
  6
Continuous
370
    15
100
AcDbLine
 10
37.6920868331
 20
6.4527547096
 30
0.0
 11
37.6920868331
 21
6.4863550681
 31
0.0
  0
LINE
  5
E2
330
1F
100
AcDbEntity
  8
SLD-0
  6
Continuous
370
    15
100
AcDbLine
 10
53.0545985374
 20
6.4527547096
 30
0.0
 11
37.6920868331
 21
6.4527547096
 31
0.0
  0
LINE
  5
E3
330
1F
100
AcDbEntity
  8
SLD-0
  6
Continuous
370
    15
100
AcDbLine
 10
37.0976630866
 20
6.4863550681
 30
0.0
 11
37.0976630866
 21
6.4527547096
 31
0.0
  0
LINE
  5
E4
330
1F
100
AcDbEntity
  8
SLD-0
  6
Continuous
370
    15
100
AcDbLine
 10
37.6920868331
 20
6.4527547096
 30
0.0
 11
37.0976630866
 21
6.4527547096
 31
0.0
  0
LINE
  5
E5
330
1F
100
AcDbEntity
  8
SLD-0
  6
Continuous
370
    15
100
AcDbLine
 10
53.6490228706
 20
6.4863550681
 30
0.0
 11
53.6490228706
 21
6.4527547096
 31
0.0
  0
LINE
  5
E6
330
1F
100
AcDbEntity
  8
SLD-0
  6
Continuous
370
    15
100
AcDbLine
 10
53.6490228706
 20
6.4527547096
 30
0.0
 11
53.0545985374
 21
6.4527547096
 31
0.0
  0
SPLINE
  5
E7
330
1F
100
AcDbEntity
  8
SLD-0
  6
Continuous
370
    15
100
AcDbSpline
210
0.0
220
0.0
230
1.0
 70
     8
 71
     3
 72
    13
 73
     9
 74
     0
 42
0.00000001
 43
0.00000001
 12
1.0
 22
0.0
 32
0.0
 13
1.0
 23
0.0
 33
0.0
 40
0.0
 40
0.0
 40
0.0
 40
0.0
 40
0.0785516505744861
 40
0.2628407095282878
 40
0.4471285219731547
 40
0.6314213515411679
 40
0.8157097595573487
 40
1.0
 40
1.0
 40
1.0
 40
1.0
 10
37.08732496606429
 20
6.486355068077073
 30
0.0
 10
37.08759559307055
 20
6.484737983511191
 30
0.0
 10
37.08850113475967
 20
6.479327076782233
 30
0.0
 10
37.09004265854946
 20
6.471499856492136
 30
0.0
 10
37.09194700740672
 20
6.463316555754652
 30
0.0
 10
37.09385296931116
 20
6.457338636804894
 30
0.0
 10
37.09575741622927
 20
6.453477820587918
 30
0.0
 10
37.09702786106266
 20
6.452995747371273
 30
0.0
 10
37.09766308663744
 20
6.452754709564616
 30
0.0
  0
SPLINE
  5
E8
330
1F
100
AcDbEntity
  8
SLD-0
  6
Continuous
370
    15
100
AcDbSpline
210
0.0
220
0.0
230
1.0
 70
     8
 71
     3
 72
    13
 73
     9
 74
     0
 42
0.00000001
 43
0.00000001
 12
1.0
 22
0.0
 32
0.0
 13
1.0
 23
0.0
 33
0.0
 40
0.0
 40
0.0
 40
0.0
 40
0.0
 40
0.1842902403648107
 40
0.3685798948080574
 40
0.5528702317067695
 40
0.7371592905827311
 40
0.9214483494586926
 40
1.0
 40
1.0
 40
1.0
 40
1.0
 10
53.6490228705835
 20
6.452754709564616
 30
0.0
 10
53.64965799164204
 20
6.452995754037071
 30
0.0
 10
53.65092823173987
 20
6.453477842215617
 30
0.0
 10
53.65283424210053
 20
6.457338560355703
 30
0.0
 10
53.65473768925121
 20
6.46331665616781
 30
0.0
 10
53.65664363978696
 20
6.47149980761673
 30
0.0
 10
53.65818479058964
 20
6.479327079278597
 30
0.0
 10
53.65909035681698
 20
6.484737984085581
 30
0.0
 10
53.65936099115665
 20
6.486355068077073
 30
0.0
  0
LINE
  5
E9
330
1F
100
AcDbEntity
  8
SLD-0
  6
Continuous
370
    15
100
AcDbLine
 10
35.8944213066
 20
21.8926052004
 30
0.0
 11
35.8654467613
 21
21.8926052004
 31
0.0
  0
LINE
  5
EA
330
1F
100
AcDbEntity
  8
SLD-0
  6
Continuous
370
    15
100
AcDbLine
 10
54.8812386093
 20
21.8926052004
 30
0.0
 11
54.8522646506
 21
21.8926052004
 31
0.0
  0
LINE
  5
EB
330
1F
100
AcDbEntity
  8
SLD-0
  6
Continuous
370
    15
100
AcDbLine
 10
54.8522646506
 20
21.8926052004
 30
0.0
 11
35.8944213066
 21
21.8926052004
 31
0.0
  0
LINE
  5
EC
330
1F
100
AcDbEntity
  8
SLD-0
  6
Continuous
370
    15
100
AcDbLine
 10
60.373343164
 20
3.8616733353
 30
0.0
 11
60.373343164
 21
3.8321045035
 31
0.0
  0
LINE
  5
ED
330
1F
100
AcDbEntity
  8
SLD-0
  6
Continuous
370
    15
100
AcDbLine
 10
30.3733433799
 20
3.8321045035
 30
0.0
 11
60.373343164
 21
3.8321045035
 31
0.0
  0
LINE
  5
EE
330
1F
100
AcDbEntity
  8
SLD-0
  6
Continuous
370
    15
100
AcDbLine
 10
30.3733433799
 20
3.8321045035
 30
0.0
 11
30.3733433799
 21
3.8616733353
 31
0.0
  0
LINE
  5
EF
330
1F
100
AcDbEntity
  8
SLD-0
  6
Continuous
370
    15
100
AcDbLine
 10
30.3733433799
 20
3.3756737229
 30
0.0
 11
30.3733433799
 21
3.8321045035
 31
0.0
  0
LINE
  5
F0
330
1F
100
AcDbEntity
  8
SLD-0
  6
Continuous
370
    15
100
AcDbLine
 10
60.373343164
 20
3.8321045035
 30
0.0
 11
60.373343164
 21
3.3756737229
 31
0.0
  0
LINE
  5
F1
330
1F
100
AcDbEntity
  8
SLD-0
  6
Continuous
370
    15
100
AcDbLine
 10
60.373343164
 20
3.3756737229
 30
0.0
 11
30.3733433799
 21
3.3756737229
 31
0.0
  0
LINE
  5
F2
330
1F
100
AcDbEntity
  8
SLD-0
  6
Continuous
370
    15
100
AcDbLine
 10
30.3733433799
 20
3.2675053725
 30
0.0
 11
30.3733433799
 21
3.3251048138
 31
0.0
  0
LINE
  5
F3
330
1F
100
AcDbEntity
  8
SLD-0
  6
Continuous
370
    15
100
AcDbLine
 10
60.373343164
 20
3.3251048138
 30
0.0
 11
30.3733433799
 21
3.3251048138
 31
0.0
  0
LINE
  5
F4
330
1F
100
AcDbEntity
  8
SLD-0
  6
Continuous
370
    15
100
AcDbLine
 10
60.373343164
 20
3.3251048138
 30
0.0
 11
60.373343164
 21
3.2675053725
 31
0.0
  0
LINE
  5
F5
330
1F
100
AcDbEntity
  8
SLD-0
  6
Continuous
370
    15
100
AcDbLine
 10
30.3733433799
 20
3.2675053725
 30
0.0
 11
60.373343164
 21
3.2675053725
 31
0.0
  0
LINE
  5
F6
330
1F
100
AcDbEntity
  8
SLD-0
  6
Continuous
370
    15
100
AcDbLine
 10
30.3733433799
 20
3.3756737229
 30
0.0
 11
30.3733433799
 21
3.3251048138
 31
0.0
  0
LINE
  5
F7
330
1F
100
AcDbEntity
  8
SLD-0
  6
Continuous
370
    15
100
AcDbLine
 10
60.373343164
 20
3.3251048138
 30
0.0
 11
60.373343164
 21
3.3756737229
 31
0.0
  0
SPLINE
  5
F8
330
1F
100
AcDbEntity
  8
SLD-0
  6
Continuous
370
    15
100
AcDbSpline
210
0.0
220
0.0
230
1.0
 70
     8
 71
     3
 72
    15
 73
    11
 74
     0
 42
0.00000001
 43
0.00000001
 12
1.0
 22
0.0
 32
0.0
 13
1.0
 23
0.0
 33
0.0
 40
0.0
 40
0.0
 40
0.0
 40
0.0
 40
0.1348228134604607
 40
0.2696470083315702
 40
0.4044698866876485
 40
0.5392918762036674
 40
0.6741153677197231
 40
0.8089393730803018
 40
0.9437629499049383
 40
1.0
 40
1.0
 40
1.0
 40
1.0
 10
60.373343163995
 20
3.267505372503432
 30
0.0
 10
60.37446550797186
 20
3.267719700084096
 30
0.0
 10
60.37671020742525
 20
3.268148357441448
 30
0.0
 10
60.37967130759302
 20
3.271572113529951
 30
0.0
 10
60.38184834340448
 20
3.276896459958898
 30
0.0
 10
60.38286505877254
 20
3.284115441848593
 30
0.0
 10
60.38245728710712
 20
3.29289416158107
 30
0.0
 10
60.38020639538694
 20
3.302930158189386
 30
0.0
 10
60.37722773452694
 20
3.311657522387567
 30
0.0
 10
60.37422653981251
 20
3.316986734948401
 30
0.0
 10
60.373343163995
 20
3.318555342769817
 30
0.0
  0
SPLINE
  5
F9
330
1F
100
AcDbEntity
  8
SLD-0
  6
Continuous
370
    15
100
AcDbSpline
210
0.0
220
0.0
230
1.0
 70
     8
 71
     3
 72
    13
 73
     9
 74
     0
 42
0.00000001
 43
0.00000001
 12
1.0
 22
0.0
 32
0.0
 13
1.0
 23
0.0
 33
0.0
 40
0.0
 40
0.0
 40
0.0
 40
0.0
 40
0.0898494503792416
 40
0.2652527492448347
 40
0.4904626329488724
 40
0.7221375775484546
 40
0.8603364227986274
 40
1.0
 40
1.0
 40
1.0
 40
1.0
 10
30.37334337988583
 20
3.318267879423954
 30
0.0
 10
30.37197305308867
 20
3.31577315987708
 30
0.0
 10
30.36792758649121
 20
3.30840827099229
 30
0.0
 10
30.36448837532766
 20
3.295671769970172
 30
0.0
 10
30.36346760812976
 20
3.281608708753868
 30
0.0
 10
30.36619925819256
 20
3.272589837667258
 30
0.0
 10
30.36988174389806
 20
3.268188201302721
 30
0.0
 10
30.37218545327665
 20
3.267733780585333
 30
0.0
 10
30.37334337988583
 20
3.267505372503432
 30
0.0
  0
LINE
  5
FA
330
1F
100
AcDbEntity
  8
SLD-0
  6
Continuous
370
    15
100
AcDbLine
 10
60.2880932688
 20
24.4127048347
 30
0.0
 11
30.4585921018
 21
24.4127048347
 31
0.0
  0
LINE
  5
FB
330
1F
100
AcDbEntity
  8
SLD-0
  6
Continuous
370
    15
100
AcDbLine
 10
60.2880932688
 20
24.4127048347
 30
0.0
 11
60.2880932688
 21
24.3551048068
 31
0.0
  0
LINE
  5
FC
330
1F
100
AcDbEntity
  8
SLD-0
  6
Continuous
370
    15
100
AcDbLine
 10
30.4585921018
 20
24.3551048068
 30
0.0
 11
60.2880932688
 21
24.3551048068
 31
0.0
  0
LINE
  5
FD
330
1F
100
AcDbEntity
  8
SLD-0
  6
Continuous
370
    15
100
AcDbLine
 10
30.4585921018
 20
24.3551048068
 30
0.0
 11
30.4585921018
 21
24.4127048347
 31
0.0
  0
LINE
  5
FE
330
1F
100
AcDbEntity
  8
SLD-0
  6
Continuous
370
    15
100
AcDbLine
 10
29.248343256
 20
24.4127048347
 30
0.0
 11
29.248343256
 21
25.6327051411
 31
0.0
  0
LINE
  5
FF
330
1F
100
AcDbEntity
  8
SLD-0
  6
Continuous
370
    15
100
AcDbLine
 10
29.6233432973
 20
26.0077051824
 30
0.0
 11
29.248343256
 21
25.6327051411
 31
0.0
  0
LINE
  5
100
330
1F
100
AcDbEntity
  8
SLD-0
  6
Continuous
370
    15
100
AcDbLine
 10
29.248343256
 20
24.4127048347
 30
0.0
 11
30.4585921018
 21
24.4127048347
 31
0.0
  0
LINE
  5
101
330
1F
100
AcDbEntity
  8
SLD-0
  6
Continuous
370
    15
100
AcDbLine
 10
61.4983432879
 20
24.4127048347
 30
0.0
 11
60.2880932688
 21
24.4127048347
 31
0.0
  0
LINE
  5
102
330
1F
100
AcDbEntity
  8
SLD-0
  6
Continuous
370
    15
100
AcDbLine
 10
61.1233432466
 20
26.0077051824
 30
0.0
 11
29.6233432973
 21
26.0077051824
 31
0.0
  0
LINE
  5
103
330
1F
100
AcDbEntity
  8
SLD-0
  6
Continuous
370
    15
100
AcDbLine
 10
61.4983432879
 20
24.4127048347
 30
0.0
 11
61.4983432879
 21
25.6327051411
 31
0.0
  0
LINE
  5
104
330
1F
100
AcDbEntity
  8
SLD-0
  6
Continuous
370
    15
100
AcDbLine
 10
61.4983432879
 20
25.6327051411
 30
0.0
 11
61.1233432466
 21
26.0077051824
 31
0.0
  0
SPLINE
  5
105
330
1F
100
AcDbEntity
  8
SLD-0
  6
Continuous
370
    15
100
AcDbSpline
210
0.0
220
0.0
230
1.0
 70
     8
 71
     3
 72
    14
 73
    10
 74
     0
 42
0.00000001
 43
0.00000001
 12
1.0
 22
0.0
 32
0.0
 13
1.0
 23
0.0
 33
0.0
 40
0.0
 40
0.0
 40
0.0
 40
0.0
 40
0.1503702117492235
 40
0.3148963723848912
 40
0.4936234959113165
 40
0.6288442136773987
 40
0.7582504017322523
 40
0.881935138771154
 40
1.0
 40
1.0
 40
1.0
 40
1.0
 10
30.46214374072315
 20
24.32510477998483
 30
0.0
 10
30.45960556375594
 20
24.32970586119323
 30
0.0
 10
30.45429026420194
 20
24.3393411723677
 30
0.0
 10
30.44993249483317
 20
24.3529831709016
 30
0.0
 10
30.44806189184538
 20
24.3640972970742
 30
0.0
 10
30.44843845923526
 20
24.37248382564652
 30
0.0
 10
30.45059850979409
 20
24.37823293498493
 30
0.0
 10
30.45401023332619
 20
24.38196811990595
 30
0.0
 10
30.45708866672991
 20
24.38246308064528
 30
0.0
 10
30.45859210175199
 20
24.38270480791773
 30
0.0
  0
SPLINE
  5
106
330
1F
100
AcDbEntity
  8
SLD-0
  6
Continuous
370
    15
100
AcDbSpline
210
0.0
220
0.0
230
1.0
 70
     8
 71
     3
 72
    11
 73
     7
 74
     0
 42
0.00000001
 43
0.00000001
 12
1.0
 22
0.0
 32
0.0
 13
1.0
 23
0.0
 33
0.0
 40
0.0
 40
0.0
 40
0.0
 40
0.0
 40
0.2309801499946729
 40
0.4965344265563766
 40
0.7624917763372177
 40
1.0
 40
1.0
 40
1.0
 40
1.0
 10
30.48773501842387
 20
24.32510477998483
 30
0.0
 10
30.48373767349555
 20
24.32877971344525
 30
0.0
 10
30.47514464343746
 20
24.33667966059847
 30
0.0
 10
30.46650844861156
 20
24.34609462154554
 30
0.0
 10
30.46047201338273
 20
24.35339669645858
 30
0.0
 10
30.45919467970252
 20
24.35455729718886
 30
0.0
 10
30.45859210175199
 20
24.3551048067553
 30
0.0
  0
SPLINE
  5
107
330
1F
100
AcDbEntity
  8
SLD-0
  6
Continuous
370
    15
100
AcDbSpline
210
0.0
220
0.0
230
1.0
 70
     8
 71
     3
 72
    14
 73
    10
 74
     0
 42
0.00000001
 43
0.00000001
 12
1.0
 22
0.0
 32
0.0
 13
1.0
 23
0.0
 33
0.0
 40
0.0
 40
0.0
 40
0.0
 40
0.0
 40
0.1503703823043359
 40
0.3148963298400089
 40
0.49362544560851
 40
0.6288442387128025
 40
0.7582510788819029
 40
0.88193569465375
 40
1.0
 40
1.0
 40
1.0
 40
1.0
 10
60.28809326880906
 20
24.38270480791773
 30
0.0
 10
60.28951743774456
 20
24.38237746250385
 30
0.0
 10
60.29249984401361
 20
24.3816919560375
 30
0.0
 10
60.29568777727268
 20
24.37618892563997
 30
0.0
 10
60.29672408082674
 20
24.3682095271161
 30
0.0
 10
60.29593478180257
 20
24.35856374532719
 30
0.0
 10
60.29389587342048
 20
24.34828749486296
 30
0.0
 10
60.29041448990199
 20
24.33711821726366
 30
0.0
 10
60.28646867168312
 20
24.32904670880463
 30
0.0
 10
60.2845416298379
 20
24.32510477998483
 30
0.0
  0
SPLINE
  5
108
330
1F
100
AcDbEntity
  8
SLD-0
  6
Continuous
370
    15
100
AcDbSpline
210
0.0
220
0.0
230
1.0
 70
     8
 71
     3
 72
    11
 73
     7
 74
     0
 42
0.00000001
 43
0.00000001
 12
1.0
 22
0.0
 32
0.0
 13
1.0
 23
0.0
 33
0.0
 40
0.0
 40
0.0
 40
0.0
 40
0.0
 40
0.2309761339275015
 40
0.4965305072399584
 40
0.762487412331673
 40
1.0
 40
1.0
 40
1.0
 40
1.0
 10
60.28809326880906
 20
24.3551048067553
 30
0.0
 10
60.28712026210846
 20
24.3546912485683
 30
0.0
 10
60.2850285849192
 20
24.35380222054247
 30
0.0
 10
60.27918396199754
 20
24.3473987006519
 30
0.0
 10
60.27127358758321
 20
24.338076449311
 30
0.0
 10
60.2629012091785
 20
24.32926268721284
 30
0.0
 10
60.25895152545696
 20
24.32510477998483
 30
0.0
  0
SPLINE
  5
109
330
1F
100
AcDbEntity
  8
SLD-0
  6
Continuous
370
    15
100
AcDbSpline
210
0.0
220
0.0
230
1.0
 70
     8
 71
     3
 72
    11
 73
     7
 74
     0
 42
0.00000001
 43
0.00000001
 12
1.0
 22
0.0
 32
0.0
 13
1.0
 23
0.0
 33
0.0
 40
0.0
 40
0.0
 40
0.0
 40
0.0
 40
0.2308522477241838
 40
0.4962466113684417
 40
0.7622129002077007
 40
1.0
 40
1.0
 40
1.0
 40
1.0
 10
36.29968185165143
 20
24.3551048067553
 30
0.0
 10
36.29211008085591
 20
24.35469175879255
 30
0.0
 10
36.27583358523424
 20
24.35380385904773
 30
0.0
 10
36.25322251402355
 20
24.34740269998486
 30
0.0
 10
36.23246876634429
 20
24.33807213283403
 30
0.0
 10
36.22240372735873
 20
24.32926297400677
 30
0.0
 10
36.21765271925896
 20
24.32510477998483
 30
0.0
  0
LINE
  5
10A
330
1F
100
AcDbEntity
  8
SLD-0
  6
Continuous
370
    15
100
AcDbLine
 10
45.6858429153
 20
24.32510478
 30
0.0
 11
45.6858429153
 21
24.3551048068
 31
0.0
  0
LINE
  5
10B
330
1F
100
AcDbEntity
  8
SLD-0
  6
Continuous
370
    15
100
AcDbLine
 10
45.0608428953
 20
24.3551048068
 30
0.0
 11
45.0608428953
 21
24.32510478
 31
0.0
  0
SPLINE
  5
10C
330
1F
100
AcDbEntity
  8
SLD-0
  6
Continuous
370
    15
100
AcDbSpline
210
0.0
220
0.0
230
1.0
 70
     8
 71
     3
 72
    11
 73
     7
 74
     0
 42
0.00000001
 43
0.00000001
 12
1.0
 22
0.0
 32
0.0
 13
1.0
 23
0.0
 33
0.0
 40
0.0
 40
0.0
 40
0.0
 40
0.0
 40
0.2499990300825129
 40
0.5000023632752174
 40
0.7500018681387798
 40
1.0
 40
1.0
 40
1.0
 40
1.0
 10
36.45476422012668
 20
24.32510477998483
 30
0.0
 10
36.449644997232
 20
24.32903577836472
 30
0.0
 10
36.43940646332799
 20
24.33689784278685
 30
0.0
 10
36.42404921339169
 20
24.34681499838968
 30
0.0
 10
36.40869150155191
 20
24.35375231628
 30
0.0
 10
36.39845308432907
 20
24.35465397742219
 30
0.0
 10
36.39333388977509
 20
24.3551048067553
 30
0.0
  0
LINE
  5
10D
330
1F
100
AcDbEntity
  8
SLD-0
  6
Continuous
370
    15
100
AcDbLine
 10
61.5059229337
 20
24.32510478
 30
0.0
 11
61.5059229337
 21
9.3251048879
 31
0.0
  0
LINE
  5
10E
330
1F
100
AcDbEntity
  8
SLD-0
  6
Continuous
370
    15
100
AcDbLine
 10
61.5059229337
 20
9.3251048879
 30
0.0
 11
61.4746516149
 21
9.3251048879
 31
0.0
  0
LINE
  5
10F
330
1F
100
AcDbEntity
  8
SLD-0
  6
Continuous
370
    15
100
AcDbLine
 10
60.7559228511
 20
9.3060589746
 30
0.0
 11
60.7559228511
 21
7.8251047227
 31
0.0
  0
LINE
  5
110
330
1F
100
AcDbEntity
  8
SLD-0
  6
Continuous
370
    15
100
AcDbLine
 10
60.7559228511
 20
7.8251047227
 30
0.0
 11
61.5059229337
 21
7.8251047227
 31
0.0
  0
LINE
  5
111
330
1F
100
AcDbEntity
  8
SLD-0
  6
Continuous
370
    15
100
AcDbLine
 10
61.5059229337
 20
7.8251047227
 30
0.0
 11
61.5059229337
 21
3.7001048551
 31
0.0
  0
LINE
  5
112
330
1F
100
AcDbEntity
  8
SLD-0
  6
Continuous
370
    15
100
AcDbLine
 10
61.5059229337
 20
3.7001048551
 30
0.0
 11
61.1309228924
 21
3.3251048138
 31
0.0
  0
LINE
  5
113
330
1F
100
AcDbEntity
  8
SLD-0
  6
Continuous
370
    15
100
AcDbLine
 10
61.1309228924
 20
3.3251048138
 30
0.0
 11
60.4011578827
 21
3.3251048138
 31
0.0
  0
LINE
  5
114
330
1F
100
AcDbEntity
  8
SLD-0
  6
Continuous
370
    15
100
AcDbLine
 10
60.4011578827
 20
24.32510478
 30
0.0
 11
61.5059229337
 21
24.32510478
 31
0.0
  0
LINE
  5
115
330
1F
100
AcDbEntity
  8
SLD-0
  6
Continuous
370
    15
100
AcDbLine
 10
60.4011578827
 20
24.32510478
 30
0.0
 11
60.3421891772
 21
24.32510478
 31
0.0
  0
LINE
  5
116
330
1F
100
AcDbEntity
  8
SLD-0
  6
Continuous
370
    15
100
AcDbLine
 10
60.373343164
 20
3.3251048138
 30
0.0
 11
60.4011578827
 21
3.3251048138
 31
0.0
  0
LINE
  5
117
330
1F
100
AcDbEntity
  8
SLD-0
  6
Continuous
370
    15
100
AcDbLine
 10
60.3421891772
 20
24.32510478
 30
0.0
 11
54.334228715
 21
24.32510478
 31
0.0
  0
LINE
  5
118
330
1F
100
AcDbEntity
  8
SLD-0
  6
Continuous
370
    15
100
AcDbLine
 10
54.334228715
 20
24.32510478
 30
0.0
 11
54.306412823
 21
24.32510478
 31
0.0
  0
LINE
  5
119
330
1F
100
AcDbEntity
  8
SLD-0
  6
Continuous
370
    15
100
AcDbLine
 10
54.306412823
 20
24.32510478
 30
0.0
 11
45.1233428533
 21
24.32510478
 31
0.0
  0
LINE
  5
11A
330
1F
100
AcDbEntity
  8
SLD-0
  6
Continuous
370
    15
100
AcDbLine
 10
29.6157624782
 20
3.3251048138
 30
0.0
 11
30.3455274879
 21
3.3251048138
 31
0.0
  0
LINE
  5
11B
330
1F
100
AcDbEntity
  8
SLD-0
  6
Continuous
370
    15
100
AcDbLine
 10
29.2407624369
 20
7.8251047227
 30
0.0
 11
29.2407624369
 21
3.7001048551
 31
0.0
  0
LINE
  5
11C
330
1F
100
AcDbEntity
  8
SLD-0
  6
Continuous
370
    15
100
AcDbLine
 10
29.9907625195
 20
7.8251047227
 30
0.0
 11
29.2407624369
 21
7.8251047227
 31
0.0
  0
LINE
  5
11D
330
1F
100
AcDbEntity
  8
SLD-0
  6
Continuous
370
    15
100
AcDbLine
 10
29.9907625195
 20
9.3060589746
 30
0.0
 11
29.9907625195
 21
7.8251047227
 31
0.0
  0
LINE
  5
11E
330
1F
100
AcDbEntity
  8
SLD-0
  6
Continuous
370
    15
100
AcDbLine
 10
29.2407624369
 20
3.7001048551
 30
0.0
 11
29.6157624782
 21
3.3251048138
 31
0.0
  0
LINE
  5
11F
330
1F
100
AcDbEntity
  8
SLD-0
  6
Continuous
370
    15
100
AcDbLine
 10
29.2407624369
 20
9.3251048879
 30
0.0
 11
29.272034929
 21
9.3251048879
 31
0.0
  0
LINE
  5
120
330
1F
100
AcDbEntity
  8
SLD-0
  6
Continuous
370
    15
100
AcDbLine
 10
29.2407624369
 20
24.32510478
 30
0.0
 11
29.2407624369
 21
9.3251048879
 31
0.0
  0
LINE
  5
121
330
1F
100
AcDbEntity
  8
SLD-0
  6
Continuous
370
    15
100
AcDbLine
 10
30.3455274879
 20
24.32510478
 30
0.0
 11
29.2407624369
 21
24.32510478
 31
0.0
  0
LINE
  5
122
330
1F
100
AcDbEntity
  8
SLD-0
  6
Continuous
370
    15
100
AcDbLine
 10
30.3455274879
 20
24.32510478
 30
0.0
 11
30.4044961933
 21
24.32510478
 31
0.0
  0
LINE
  5
123
330
1F
100
AcDbEntity
  8
SLD-0
  6
Continuous
370
    15
100
AcDbLine
 10
30.3733433799
 20
3.3251048138
 30
0.0
 11
30.3455274879
 21
3.3251048138
 31
0.0
  0
LINE
  5
124
330
1F
100
AcDbEntity
  8
SLD-0
  6
Continuous
370
    15
100
AcDbLine
 10
30.4044961933
 20
24.32510478
 30
0.0
 11
36.4124572422
 21
24.32510478
 31
0.0
  0
LINE
  5
125
330
1F
100
AcDbEntity
  8
SLD-0
  6
Continuous
370
    15
100
AcDbLine
 10
36.4124572422
 20
24.32510478
 30
0.0
 11
36.4402725475
 21
24.32510478
 31
0.0
  0
LINE
  5
126
330
1F
100
AcDbEntity
  8
SLD-0
  6
Continuous
370
    15
100
AcDbLine
 10
36.4402725475
 20
24.32510478
 30
0.0
 11
45.6233429573
 21
24.32510478
 31
0.0
  0
LINE
  5
127
330
1F
100
AcDbEntity
  8
SLD-0
  6
Continuous
370
    15
100
AcDbLine
 10
54.9364738112
 20
21.9076049205
 30
0.0
 11
57.9983432935
 21
21.9076049205
 31
0.0
  0
LINE
  5
128
330
1F
100
AcDbEntity
  8
SLD-0
  6
Continuous
370
    15
100
AcDbLine
 10
58.7483433761
 20
21.9076049205
 30
0.0
 11
59.5329880718
 21
21.9076049205
 31
0.0
  0
LINE
  5
129
330
1F
100
AcDbEntity
  8
SLD-0
  6
Continuous
370
    15
100
AcDbLine
 10
31.213698472
 20
21.9076049205
 30
0.0
 11
31.9983431677
 21
21.9076049205
 31
0.0
  0
LINE
  5
12A
330
1F
100
AcDbEntity
  8
SLD-0
  6
Continuous
370
    15
100
AcDbLine
 10
32.7483432504
 20
21.9076049205
 30
0.0
 11
35.810212146
 21
21.9076049205
 31
0.0
  0
LINE
  5
12B
330
1F
100
AcDbEntity
  8
SLD-0
  6
Continuous
370
    15
100
AcDbLine
 10
37.0242607879
 20
21.9076049205
 30
0.0
 11
38.1233428646
 21
21.9076049205
 31
0.0
  0
LINE
  5
12C
330
1F
100
AcDbEntity
  8
SLD-0
  6
Continuous
370
    15
100
AcDbLine
 10
38.8733429472
 20
21.9076049205
 30
0.0
 11
51.8733430101
 21
21.9076049205
 31
0.0
  0
LINE
  5
12D
330
1F
100
AcDbEntity
  8
SLD-0
  6
Continuous
370
    15
100
AcDbLine
 10
52.6233430927
 20
21.9076049205
 30
0.0
 11
53.7224245826
 21
21.9076049205
 31
0.0
  0
LINE
  5
12E
330
1F
100
AcDbEntity
  8
SLD-0
  6
Continuous
370
    15
100
AcDbLine
 10
31.0822925234
 20
21.8926052004
 30
0.0
 11
31.0822925234
 21
7.1831820583
 31
0.0
  0
LINE
  5
12F
330
1F
100
AcDbEntity
  8
SLD-0
  6
Continuous
370
    15
100
AcDbLine
 10
31.1424204688
 20
21.8926052004
 30
0.0
 11
31.1424204688
 21
7.2296408282
 31
0.0
  0
LINE
  5
130
330
1F
100
AcDbEntity
  8
SLD-0
  6
Continuous
370
    15
100
AcDbLine
 10
59.6643928472
 20
21.8926052004
 30
0.0
 11
59.6643928472
 21
7.1831820583
 31
0.0
  0
LINE
  5
131
330
1F
100
AcDbEntity
  8
SLD-0
  6
Continuous
370
    15
100
AcDbLine
 10
59.6042649018
 20
21.8926052004
 30
0.0
 11
59.6042649018
 21
7.2309508398
 31
0.0
  0
LINE
  5
132
330
1F
100
AcDbEntity
  8
SLD-0
  6
Continuous
370
    15
100
AcDbLine
 10
60.4011578827
 20
24.32510478
 30
0.0
 11
60.4011578827
 21
22.5982051026
 31
0.0
  0
LINE
  5
133
330
1F
100
AcDbEntity
  8
SLD-0
  6
Continuous
370
    15
100
AcDbLine
 10
60.4011578827
 20
21.9772050765
 30
0.0
 11
60.4011578827
 21
21.8926052004
 31
0.0
  0
LINE
  5
134
330
1F
100
AcDbEntity
  8
SLD-0
  6
Continuous
370
    15
100
AcDbLine
 10
60.4011578827
 20
6.5176046804
 30
0.0
 11
60.4011578827
 21
3.3251048138
 31
0.0
  0
LINE
  5
135
330
1F
100
AcDbEntity
  8
SLD-0
  6
Continuous
370
    15
100
AcDbLine
 10
60.3421891772
 20
24.32510478
 30
0.0
 11
60.3421891772
 21
22.5982051026
 31
0.0
  0
LINE
  5
136
330
1F
100
AcDbEntity
  8
SLD-0
  6
Continuous
370
    15
100
AcDbLine
 10
60.3421891772
 20
21.9772050765
 30
0.0
 11
60.3421891772
 21
21.8926052004
 31
0.0
  0
LINE
  5
137
330
1F
100
AcDbEntity
  8
SLD-0
  6
Continuous
370
    15
100
AcDbLine
 10
60.3421891772
 20
6.5176046804
 30
0.0
 11
60.3421891772
 21
3.8616733353
 31
0.0
  0
LINE
  5
138
330
1F
100
AcDbEntity
  8
SLD-0
  6
Continuous
370
    15
100
AcDbLine
 10
54.334228715
 20
24.32510478
 30
0.0
 11
54.334228715
 21
23.9293968179
 31
0.0
  0
LINE
  5
139
330
1F
100
AcDbEntity
  8
SLD-0
  6
Continuous
370
    15
100
AcDbLine
 10
54.334228715
 20
23.4538550047
 30
0.0
 11
54.334228715
 21
22.6726047231
 31
0.0
  0
LINE
  5
13A
330
1F
100
AcDbEntity
  8
SLD-0
  6
Continuous
370
    15
100
AcDbLine
 10
54.334228715
 20
21.9226046405
 30
0.0
 11
54.334228715
 21
21.8926052004
 31
0.0
  0
LINE
  5
13B
330
1F
100
AcDbEntity
  8
SLD-0
  6
Continuous
370
    15
100
AcDbLine
 10
54.334228715
 20
6.4527547096
 30
0.0
 11
54.334228715
 21
3.8616733353
 31
0.0
  0
LINE
  5
13C
330
1F
100
AcDbEntity
  8
SLD-0
  6
Continuous
370
    15
100
AcDbLine
 10
54.306412823
 20
24.32510478
 30
0.0
 11
54.306412823
 21
23.9293968179
 31
0.0
  0
LINE
  5
13D
330
1F
100
AcDbEntity
  8
SLD-0
  6
Continuous
370
    15
100
AcDbLine
 10
54.306412823
 20
23.4538550047
 30
0.0
 11
54.306412823
 21
22.6726047231
 31
0.0
  0
LINE
  5
13E
330
1F
100
AcDbEntity
  8
SLD-0
  6
Continuous
370
    15
100
AcDbLine
 10
54.306412823
 20
21.9226046405
 30
0.0
 11
54.306412823
 21
21.8926052004
 31
0.0
  0
LINE
  5
13F
330
1F
100
AcDbEntity
  8
SLD-0
  6
Continuous
370
    15
100
AcDbLine
 10
54.306412823
 20
6.4527547096
 30
0.0
 11
54.306412823
 21
3.8616733353
 31
0.0
  0
LINE
  5
140
330
1F
100
AcDbEntity
  8
SLD-0
  6
Continuous
370
    15
100
AcDbLine
 10
30.3455274879
 20
6.5176046804
 30
0.0
 11
30.3455274879
 21
3.3251048138
 31
0.0
  0
LINE
  5
141
330
1F
100
AcDbEntity
  8
SLD-0
  6
Continuous
370
    15
100
AcDbLine
 10
30.3455274879
 20
24.32510478
 30
0.0
 11
30.3455274879
 21
22.5982051026
 31
0.0
  0
LINE
  5
142
330
1F
100
AcDbEntity
  8
SLD-0
  6
Continuous
370
    15
100
AcDbLine
 10
30.3455274879
 20
21.9772050765
 30
0.0
 11
30.3455274879
 21
21.8926052004
 31
0.0
  0
LINE
  5
143
330
1F
100
AcDbEntity
  8
SLD-0
  6
Continuous
370
    15
100
AcDbLine
 10
30.4044961933
 20
24.32510478
 30
0.0
 11
30.4044961933
 21
22.5982051026
 31
0.0
  0
LINE
  5
144
330
1F
100
AcDbEntity
  8
SLD-0
  6
Continuous
370
    15
100
AcDbLine
 10
30.4044961933
 20
21.9772050765
 30
0.0
 11
30.4044961933
 21
21.8926052004
 31
0.0
  0
LINE
  5
145
330
1F
100
AcDbEntity
  8
SLD-0
  6
Continuous
370
    15
100
AcDbLine
 10
30.4044961933
 20
6.5176046804
 30
0.0
 11
30.4044961933
 21
3.8616733353
 31
0.0
  0
LINE
  5
146
330
1F
100
AcDbEntity
  8
SLD-0
  6
Continuous
370
    15
100
AcDbLine
 10
36.4124572422
 20
24.32510478
 30
0.0
 11
36.4124572422
 21
23.9293968179
 31
0.0
  0
LINE
  5
147
330
1F
100
AcDbEntity
  8
SLD-0
  6
Continuous
370
    15
100
AcDbLine
 10
36.4124572422
 20
23.4538550047
 30
0.0
 11
36.4124572422
 21
22.6726047231
 31
0.0
  0
LINE
  5
148
330
1F
100
AcDbEntity
  8
SLD-0
  6
Continuous
370
    15
100
AcDbLine
 10
36.4124572422
 20
21.9226046405
 30
0.0
 11
36.4124572422
 21
21.8926052004
 31
0.0
  0
LINE
  5
149
330
1F
100
AcDbEntity
  8
SLD-0
  6
Continuous
370
    15
100
AcDbLine
 10
36.4124572422
 20
6.4527547096
 30
0.0
 11
36.4124572422
 21
3.8616733353
 31
0.0
  0
LINE
  5
14A
330
1F
100
AcDbEntity
  8
SLD-0
  6
Continuous
370
    15
100
AcDbLine
 10
36.4402725475
 20
24.32510478
 30
0.0
 11
36.4402725475
 21
23.9293968179
 31
0.0
  0
LINE
  5
14B
330
1F
100
AcDbEntity
  8
SLD-0
  6
Continuous
370
    15
100
AcDbLine
 10
36.4402725475
 20
23.4538550047
 30
0.0
 11
36.4402725475
 21
22.6726047231
 31
0.0
  0
LINE
  5
14C
330
1F
100
AcDbEntity
  8
SLD-0
  6
Continuous
370
    15
100
AcDbLine
 10
36.4402725475
 20
21.9226046405
 30
0.0
 11
36.4402725475
 21
21.8926052004
 31
0.0
  0
LINE
  5
14D
330
1F
100
AcDbEntity
  8
SLD-0
  6
Continuous
370
    15
100
AcDbLine
 10
36.4402725475
 20
6.4527547096
 30
0.0
 11
36.4402725475
 21
3.8616733353
 31
0.0
  0
DIMENSION
  5
14E
330
1F
100
AcDbEntity
  8
DIM
100
AcDbDimension
  2
_D
 10
25.4217755561
 20
26.0077049077
 30
0.0
 11
25.4217755561
 21
14.6376049077
 31
0.0
 70
   160
  1
<>
 71
     2
 42
-1.0
  3
SLDDIMSTYLE0
100
AcDbAlignedDimension
 13
30.37334292
 23
3.2675049077
 33
0.0
 14
29.62334292
 24
26.0077049077
 34
0.0
 50
90.0
100
AcDbRotatedDimension
  0
DIMENSION
  5
15E
330
1F
100
AcDbEntity
  8
DIM
100
AcDbDimension
  2
_D_1
 10
65.428859088
 20
7.1831823412
 30
0.0
 11
65.428859088
 21
14.5378936245
 31
0.0
 70
   160
  1
<>
 71
     2
 42
-1.0
  3
SLDDIMSTYLE0
100
AcDbAlignedDimension
 13
61.4746510736
 23
21.8926049077
 33
0.0
 14
61.4756355278
 24
7.1831823412
 34
0.0
 50
90.0
100
AcDbRotatedDimension
  0
DIMENSION
  5
16D
330
1F
100
AcDbEntity
  8
DIM
100
AcDbDimension
  2
_D_2
 10
59.604265078
 20
14.5637061245
 30
0.0
 11
45.37334292
 21
14.5637061245
 31
0.0
 70
   160
  1
<>
 71
     2
 42
-1.0
  3
SLDDIMSTYLE0
100
AcDbAlignedDimension
 13
31.1424207621
 23
21.8926049077
 33
0.0
 14
59.604265078
 24
21.8926049077
 34
0.0
100
AcDbRotatedDimension
  0
DIMENSION
  5
17A
330
1F
100
AcDbEntity
  8
DIM
100
AcDbDimension
  2
_D_3
 10
65.428859088
 20
26.0077049077
 30
0.0
 11
65.428859088
 21
23.9501549077
 31
0.0
 70
   160
  1
<>
 71
     2
 42
-1.0
  3
SLDDIMSTYLE1
100
AcDbAlignedDimension
 13
61.4746510736
 23
21.8926049077
 33
0.0
 14
61.12334292
 24
26.0077049077
 34
0.0
 50
90.0
100
AcDbRotatedDimension
  0
DIMENSION
  5
18A
330
1F
100
AcDbEntity
  8
DIM
100
AcDbDimension
  2
_D_4
 10
65.428859088
 20
7.1831823412
 30
0.0
 11
65.428859088
 21
5.2253436245
 31
0.0
 70
   160
  1
<>
 71
     2
 42
-1.0
  3
SLDDIMSTYLE1
100
AcDbAlignedDimension
 13
60.37334292
 23
3.2675049077
 33
0.0
 14
61.4756355278
 24
7.1831823412
 34
0.0
 50
90.0
100
AcDbRotatedDimension
  0
LINE
  5
199
330
1F
100
AcDbEntity
  8
SLD-0
  6
Continuous
370
    15
100
AcDbLine
 10
45.6858429153
 20
56.4643943142
 30
0.0
 11
45.0608428953
 21
56.4643943142
 31
0.0
  0
LINE
  5
19A
330
1F
100
AcDbEntity
  8
SLD-0
  6
Continuous
370
    15
100
AcDbLine
 10
60.1233427454
 20
39.8145965207
 30
0.0
 11
30.6233426252
 21
39.8145965207
 31
0.0
  0
LINE
  5
19B
330
1F
100
AcDbEntity
  8
SLD-0
  6
Continuous
370
    15
100
AcDbLine
 10
30.7162261389
 20
40.2473854945
 30
0.0
 11
60.0304592317
 21
40.2473854945
 31
0.0
  0
LINE
  5
19C
330
1F
100
AcDbEntity
  8
SLD-0
  6
Continuous
370
    15
100
AcDbLine
 10
60.0304592317
 20
40.2473854945
 30
0.0
 11
60.1233427454
 21
39.8145965207
 31
0.0
  0
LINE
  5
19D
330
1F
100
AcDbEntity
  8
SLD-0
  6
Continuous
370
    15
100
AcDbLine
 10
30.6233426252
 20
39.8145965207
 30
0.0
 11
30.7162261389
 21
40.2473854945
 31
0.0
  0
LINE
  5
19E
330
1F
100
AcDbEntity
  8
SLD-0
  6
Continuous
370
    15
100
AcDbLine
 10
60.1233427454
 20
39.7908379685
 30
0.0
 11
30.6233426252
 21
39.7908379685
 31
0.0
  0
LINE
  5
19F
330
1F
100
AcDbEntity
  8
SLD-0
  6
Continuous
370
    15
100
AcDbLine
 10
60.1233427454
 20
39.7908379685
 30
0.0
 11
60.1233427454
 21
39.8145965207
 31
0.0
  0
LINE
  5
1A0
330
1F
100
AcDbEntity
  8
SLD-0
  6
Continuous
370
    15
100
AcDbLine
 10
30.6233426252
 20
39.7908379685
 30
0.0
 11
30.6233426252
 21
39.8145965207
 31
0.0
  0
LINE
  5
1A1
330
1F
100
AcDbEntity
  8
SLD-0
  6
Continuous
370
    15
100
AcDbLine
 10
30.7212843204
 20
40.2694826259
 30
0.0
 11
60.0254010501
 21
40.2694826259
 31
0.0
  0
SPLINE
  5
1A2
330
1F
100
AcDbEntity
  8
SLD-0
  6
Continuous
370
    15
100
AcDbSpline
210
0.0
220
0.0
230
1.0
 70
     8
 71
     3
 72
    11
 73
     7
 74
     0
 42
0.00000001
 43
0.00000001
 12
1.0
 22
0.0
 32
0.0
 13
1.0
 23
0.0
 33
0.0
 40
0.0
 40
0.0
 40
0.0
 40
0.0
 40
0.24999292916923
 40
0.5000005805814475
 40
0.7499914701183923
 40
1.0
 40
1.0
 40
1.0
 40
1.0
 10
30.7212843204424
 20
40.26948262585868
 30
0.0
 10
30.72086319419936
 20
40.26743647537761
 30
0.0
 10
30.7200209169129
 20
40.26334405391638
 30
0.0
 10
30.71875579670196
 20
40.25745680154479
 30
0.0
 10
30.71749093750712
 20
40.25197076901308
 30
0.0
 10
30.71664774833511
 20
40.24891395525987
 30
0.0
 10
30.71622613887494
 20
40.24738549445996
 30
0.0
  0
SPLINE
  5
1A3
330
1F
100
AcDbEntity
  8
SLD-0
  6
Continuous
370
    15
100
AcDbSpline
210
0.0
220
0.0
230
1.0
 70
     8
 71
     3
 72
    11
 73
     7
 74
     0
 42
0.00000001
 43
0.00000001
 12
1.0
 22
0.0
 32
0.0
 13
1.0
 23
0.0
 33
0.0
 40
0.0
 40
0.0
 40
0.0
 40
0.0
 40
0.2500085299907783
 40
0.4999899414507237
 40
0.7499975929721115
 40
1.0
 40
1.0
 40
1.0
 40
1.0
 10
60.03045923168611
 20
40.24738549445996
 30
0.0
 10
60.03003750163346
 20
40.24891393249901
 30
0.0
 10
60.0291940872734
 20
40.25197064278678
 30
0.0
 10
60.02793105276634
 20
40.25745693029204
 30
0.0
 10
60.02666581195262
 20
40.26334417330702
 30
0.0
 10
60.02582263444867
 20
40.26743648931592
 30
0.0
 10
60.02540105011865
 20
40.26948262585868
 30
0.0
  0
LINE
  5
1A4
330
1F
100
AcDbEntity
  8
SLD-0
  6
Continuous
370
    15
100
AcDbLine
 10
59.846371225
 20
41.4491940644
 30
0.0
 11
60.0254010501
 21
40.2694826259
 31
0.0
  0
LINE
  5
1A5
330
1F
100
AcDbEntity
  8
SLD-0
  6
Continuous
370
    15
100
AcDbLine
 10
30.7212843204
 20
40.2694826259
 30
0.0
 11
30.9003141456
 21
41.4491940644
 31
0.0
  0
LINE
  5
1A6
330
1F
100
AcDbEntity
  8
SLD-0
  6
Continuous
370
    15
100
AcDbLine
 10
39.3108427998
 20
49.8427942808
 30
0.0
 11
39.3108427998
 21
41.8427941575
 31
0.0
  0
LINE
  5
1A7
330
1F
100
AcDbEntity
  8
SLD-0
  6
Continuous
370
    15
100
AcDbLine
 10
39.3108427998
 20
41.8427941575
 30
0.0
 11
39.2788428495
 21
41.8427941575
 31
0.0
  0
LINE
  5
1A8
330
1F
100
AcDbEntity
  8
SLD-0
  6
Continuous
370
    15
100
AcDbLine
 10
39.2788428495
 20
49.8427942808
 30
0.0
 11
39.2788428495
 21
41.8427941575
 31
0.0
  0
LINE
  5
1A9
330
1F
100
AcDbEntity
  8
SLD-0
  6
Continuous
370
    15
100
AcDbLine
 10
39.3108427998
 20
49.8427942808
 30
0.0
 11
39.2788428495
 21
49.8427942808
 31
0.0
  0
LINE
  5
1AA
330
1F
100
AcDbEntity
  8
SLD-0
  6
Continuous
370
    15
100
AcDbLine
 10
38.1858426759
 20
41.8427941575
 30
0.0
 11
38.2178432129
 21
41.8427941575
 31
0.0
  0
LINE
  5
1AB
330
1F
100
AcDbEntity
  8
SLD-0
  6
Continuous
370
    15
100
AcDbLine
 10
38.1858426759
 20
49.8427942808
 30
0.0
 11
38.2178432129
 21
49.8427942808
 31
0.0
  0
LINE
  5
1AC
330
1F
100
AcDbEntity
  8
SLD-0
  6
Continuous
370
    15
100
AcDbLine
 10
38.2178432129
 20
41.8427941575
 30
0.0
 11
38.2178432129
 21
49.8427942808
 31
0.0
  0
LINE
  5
1AD
330
1F
100
AcDbEntity
  8
SLD-0
  6
Continuous
370
    15
100
AcDbLine
 10
38.1858426759
 20
41.8427941575
 30
0.0
 11
38.1858426759
 21
49.8427942808
 31
0.0
  0
LINE
  5
1AE
330
1F
100
AcDbEntity
  8
SLD-0
  6
Continuous
370
    15
100
AcDbLine
 10
38.2178432129
 20
41.8427941575
 30
0.0
 11
38.247842653
 21
41.8427941575
 31
0.0
  0
LINE
  5
1AF
330
1F
100
AcDbEntity
  8
SLD-0
  6
Continuous
370
    15
100
AcDbLine
 10
38.247842653
 20
49.8427942808
 30
0.0
 11
38.2178432129
 21
49.8427942808
 31
0.0
  0
LINE
  5
1B0
330
1F
100
AcDbEntity
  8
SLD-0
  6
Continuous
370
    15
100
AcDbLine
 10
38.247842653
 20
41.8427941575
 30
0.0
 11
38.247842653
 21
49.8427942808
 31
0.0
  0
LINE
  5
1B1
330
1F
100
AcDbEntity
  8
SLD-0
  6
Continuous
370
    15
100
AcDbLine
 10
39.2788428495
 20
49.8427942808
 30
0.0
 11
39.2488428227
 21
49.8427942808
 31
0.0
  0
LINE
  5
1B2
330
1F
100
AcDbEntity
  8
SLD-0
  6
Continuous
370
    15
100
AcDbLine
 10
39.2488428227
 20
41.8427941575
 30
0.0
 11
39.2788428495
 21
41.8427941575
 31
0.0
  0
LINE
  5
1B3
330
1F
100
AcDbEntity
  8
SLD-0
  6
Continuous
370
    15
100
AcDbLine
 10
39.2488428227
 20
49.8427942808
 30
0.0
 11
39.2488428227
 21
41.8427941575
 31
0.0
  0
LINE
  5
1B4
330
1F
100
AcDbEntity
  8
SLD-0
  6
Continuous
370
    15
100
AcDbLine
 10
38.247842653
 20
41.8427941575
 30
0.0
 11
39.2488428227
 21
41.8427941575
 31
0.0
  0
LINE
  5
1B5
330
1F
100
AcDbEntity
  8
SLD-0
  6
Continuous
370
    15
100
AcDbLine
 10
39.2488428227
 20
49.8427942808
 30
0.0
 11
38.247842653
 21
49.8427942808
 31
0.0
  0
LINE
  5
1B6
330
1F
100
AcDbEntity
  8
SLD-0
  6
Continuous
370
    15
100
AcDbLine
 10
51.4358431574
 20
41.8427941575
 30
0.0
 11
51.4678431078
 21
41.8427941575
 31
0.0
  0
LINE
  5
1B7
330
1F
100
AcDbEntity
  8
SLD-0
  6
Continuous
370
    15
100
AcDbLine
 10
51.4358431574
 20
41.8427941575
 30
0.0
 11
51.4358431574
 21
49.8427942808
 31
0.0
  0
LINE
  5
1B8
330
1F
100
AcDbEntity
  8
SLD-0
  6
Continuous
370
    15
100
AcDbLine
 10
51.4358431574
 20
49.8427942808
 30
0.0
 11
51.4678431078
 21
49.8427942808
 31
0.0
  0
LINE
  5
1B9
330
1F
100
AcDbEntity
  8
SLD-0
  6
Continuous
370
    15
100
AcDbLine
 10
51.4678431078
 20
41.8427941575
 30
0.0
 11
51.4678431078
 21
49.8427942808
 31
0.0
  0
LINE
  5
1BA
330
1F
100
AcDbEntity
  8
SLD-0
  6
Continuous
370
    15
100
AcDbLine
 10
52.5608426947
 20
49.8427942808
 30
0.0
 11
52.5288427443
 21
49.8427942808
 31
0.0
  0
LINE
  5
1BB
330
1F
100
AcDbEntity
  8
SLD-0
  6
Continuous
370
    15
100
AcDbLine
 10
52.5608426947
 20
41.8427941575
 30
0.0
 11
52.5288427443
 21
41.8427941575
 31
0.0
  0
LINE
  5
1BC
330
1F
100
AcDbEntity
  8
SLD-0
  6
Continuous
370
    15
100
AcDbLine
 10
52.5288427443
 20
49.8427942808
 30
0.0
 11
52.5288427443
 21
41.8427941575
 31
0.0
  0
LINE
  5
1BD
330
1F
100
AcDbEntity
  8
SLD-0
  6
Continuous
370
    15
100
AcDbLine
 10
52.5608426947
 20
49.8427942808
 30
0.0
 11
52.5608426947
 21
41.8427941575
 31
0.0
  0
LINE
  5
1BE
330
1F
100
AcDbEntity
  8
SLD-0
  6
Continuous
370
    15
100
AcDbLine
 10
51.4678431078
 20
41.8427941575
 30
0.0
 11
51.4978431345
 21
41.8427941575
 31
0.0
  0
LINE
  5
1BF
330
1F
100
AcDbEntity
  8
SLD-0
  6
Continuous
370
    15
100
AcDbLine
 10
51.4978431345
 20
49.8427942808
 30
0.0
 11
51.4678431078
 21
49.8427942808
 31
0.0
  0
LINE
  5
1C0
330
1F
100
AcDbEntity
  8
SLD-0
  6
Continuous
370
    15
100
AcDbLine
 10
51.4978431345
 20
41.8427941575
 30
0.0
 11
51.4978431345
 21
49.8427942808
 31
0.0
  0
LINE
  5
1C1
330
1F
100
AcDbEntity
  8
SLD-0
  6
Continuous
370
    15
100
AcDbLine
 10
52.5288427443
 20
49.8427942808
 30
0.0
 11
52.4988427176
 21
49.8427942808
 31
0.0
  0
LINE
  5
1C2
330
1F
100
AcDbEntity
  8
SLD-0
  6
Continuous
370
    15
100
AcDbLine
 10
52.4988427176
 20
41.8427941575
 30
0.0
 11
52.5288427443
 21
41.8427941575
 31
0.0
  0
LINE
  5
1C3
330
1F
100
AcDbEntity
  8
SLD-0
  6
Continuous
370
    15
100
AcDbLine
 10
52.4988427176
 20
49.8427942808
 30
0.0
 11
52.4988427176
 21
41.8427941575
 31
0.0
  0
LINE
  5
1C4
330
1F
100
AcDbEntity
  8
SLD-0
  6
Continuous
370
    15
100
AcDbLine
 10
51.4978431345
 20
41.8427941575
 30
0.0
 11
52.4988427176
 21
41.8427941575
 31
0.0
  0
LINE
  5
1C5
330
1F
100
AcDbEntity
  8
SLD-0
  6
Continuous
370
    15
100
AcDbLine
 10
52.4988427176
 20
49.8427942808
 30
0.0
 11
51.4978431345
 21
49.8427942808
 31
0.0
  0
LINE
  5
1C6
330
1F
100
AcDbEntity
  8
SLD-0
  6
Continuous
370
    15
100
AcDbLine
 10
29.272034929
 20
41.4048326035
 30
0.0
 11
29.272034929
 21
41.440832401
 31
0.0
  0
LINE
  5
1C7
330
1F
100
AcDbEntity
  8
SLD-0
  6
Continuous
370
    15
100
AcDbLine
 10
29.272034929
 20
41.4048326035
 30
0.0
 11
30.8935816367
 21
41.4048326035
 31
0.0
  0
LINE
  5
1C8
330
1F
100
AcDbEntity
  8
SLD-0
  6
Continuous
370
    15
100
AcDbLine
 10
61.4756360302
 20
41.4048326035
 30
0.0
 11
61.4756360302
 21
41.440832401
 31
0.0
  0
LINE
  5
1C9
330
1F
100
AcDbEntity
  8
SLD-0
  6
Continuous
370
    15
100
AcDbLine
 10
59.8531037338
 20
41.4048326035
 30
0.0
 11
61.4756360302
 21
41.4048326035
 31
0.0
  0
LINE
  5
1CA
330
1F
100
AcDbEntity
  8
SLD-0
  6
Continuous
370
    15
100
AcDbLine
 10
30.4431430002
 20
41.440832401
 30
0.0
 11
30.4431430002
 21
41.4491940644
 31
0.0
  0
LINE
  5
1CB
330
1F
100
AcDbEntity
  8
SLD-0
  6
Continuous
370
    15
100
AcDbLine
 10
30.4431430002
 20
41.4767940656
 30
0.0
 11
30.4431430002
 21
41.4804325302
 31
0.0
  0
SPLINE
  5
1CC
330
1F
100
AcDbEntity
  8
SLD-0
  6
Continuous
370
    15
100
AcDbSpline
210
0.0
220
0.0
230
1.0
 70
     8
 71
     3
 72
     9
 73
     5
 74
     0
 42
0.00000001
 43
0.00000001
 12
1.0
 22
0.0
 32
0.0
 13
1.0
 23
0.0
 33
0.0
 40
0.0
 40
0.0
 40
0.0
 40
0.0
 40
0.8845613905964169
 40
1.0
 40
1.0
 40
1.0
 40
1.0
 10
30.44314300022133
 20
41.48043253019538
 30
0.0
 10
30.44769818899595
 20
41.48050156511351
 30
0.0
 10
30.45284784714636
 20
41.48057960934974
 30
0.0
 10
30.45799761922454
 20
41.48185202608223
 30
0.0
 10
30.45859210175199
 20
41.48199891210041
 30
0.0
  0
SPLINE
  5
1CD
330
1F
100
AcDbEntity
  8
SLD-0
  6
Continuous
370
    15
100
AcDbSpline
210
0.0
220
0.0
230
1.0
 70
     8
 71
     3
 72
    10
 73
     6
 74
     0
 42
0.00000001
 43
0.00000001
 12
1.0
 22
0.0
 32
0.0
 13
1.0
 23
0.0
 33
0.0
 40
0.0
 40
0.0
 40
0.0
 40
0.0
 40
0.3529271586733993
 40
0.7058372595862668
 40
1.0
 40
1.0
 40
1.0
 40
1.0
 10
30.44314300022133
 20
41.44083240099279
 30
0.0
 10
30.44542089170186
 20
41.44104518556711
 30
0.0
 10
30.44997656456731
 20
41.44147074443141
 30
0.0
 10
30.45642937314345
 20
41.44440039442563
 30
0.0
 10
30.46060547285211
 20
41.44769590695158
 30
0.0
 10
30.46250394989532
 20
41.44919406439814
 30
0.0
  0
SPLINE
  5
1CE
330
1F
100
AcDbEntity
  8
SLD-0
  6
Continuous
370
    15
100
AcDbSpline
210
0.0
220
0.0
230
1.0
 70
     8
 71
     3
 72
     9
 73
     5
 74
     0
 42
0.00000001
 43
0.00000001
 12
1.0
 22
0.0
 32
0.0
 13
1.0
 23
0.0
 33
0.0
 40
0.0
 40
0.0
 40
0.0
 40
0.0
 40
0.1154386094035832
 40
1.0
 40
1.0
 40
1.0
 40
1.0
 10
60.28809326880906
 20
41.48199891210041
 30
0.0
 10
60.28868775133651
 20
41.48185202608223
 30
0.0
 10
60.29383752341469
 20
41.48057960934974
 30
0.0
 10
60.2989871815651
 20
41.48050156511351
 30
0.0
 10
60.30354237033972
 20
41.48043253019538
 30
0.0
  0
LINE
  5
1CF
330
1F
100
AcDbEntity
  8
SLD-0
  6
Continuous
370
    15
100
AcDbLine
 10
60.3035423703
 20
41.4804325302
 30
0.0
 11
60.3035423703
 21
41.4767940656
 31
0.0
  0
LINE
  5
1D0
330
1F
100
AcDbEntity
  8
SLD-0
  6
Continuous
370
    15
100
AcDbLine
 10
60.3035423703
 20
41.4491940644
 30
0.0
 11
60.3035423703
 21
41.440832401
 31
0.0
  0
SPLINE
  5
1D1
330
1F
100
AcDbEntity
  8
SLD-0
  6
Continuous
370
    15
100
AcDbSpline
210
0.0
220
0.0
230
1.0
 70
     8
 71
     3
 72
    10
 73
     6
 74
     0
 42
0.00000001
 43
0.00000001
 12
1.0
 22
0.0
 32
0.0
 13
1.0
 23
0.0
 33
0.0
 40
0.0
 40
0.0
 40
0.0
 40
0.0
 40
0.2941627404208774
 40
0.6470903875744086
 40
1.0
 40
1.0
 40
1.0
 40
1.0
 10
60.28418142066573
 20
41.44919406439814
 30
0.0
 10
60.28607981296476
 20
41.44769589681824
 30
0.0
 10
60.29025583949616
 20
41.44440027263912
 30
0.0
 10
60.29671026112752
 20
41.4414708741912
 30
0.0
 10
60.3012650393951
 20
41.44104522176701
 30
0.0
 10
60.30354237033972
 20
41.44083240099279
 30
0.0
  0
LINE
  5
1D2
330
1F
100
AcDbEntity
  8
SLD-0
  6
Continuous
370
    15
100
AcDbLine
 10
60.3035423703
 20
41.440832401
 30
0.0
 11
59.847640757
 21
41.440832401
 31
0.0
  0
LINE
  5
1D3
330
1F
100
AcDbEntity
  8
SLD-0
  6
Continuous
370
    15
100
AcDbLine
 10
30.8990446136
 20
41.440832401
 30
0.0
 11
30.4431430002
 21
41.440832401
 31
0.0
  0
LINE
  5
1D4
330
1F
100
AcDbEntity
  8
SLD-0
  6
Continuous
370
    15
100
AcDbLine
 10
30.4233432289
 20
41.4804325302
 30
0.0
 11
30.4233432289
 21
41.4767940656
 31
0.0
  0
LINE
  5
1D5
330
1F
100
AcDbEntity
  8
SLD-0
  6
Continuous
370
    15
100
AcDbLine
 10
30.4233432289
 20
41.4491940644
 30
0.0
 11
30.4233432289
 21
41.440832401
 31
0.0
  0
LINE
  5
1D6
330
1F
100
AcDbEntity
  8
SLD-0
  6
Continuous
370
    15
100
AcDbLine
 10
30.4431430002
 20
41.4804325302
 30
0.0
 11
30.4233432289
 21
41.4804325302
 31
0.0
  0
LINE
  5
1D7
330
1F
100
AcDbEntity
  8
SLD-0
  6
Continuous
370
    15
100
AcDbLine
 10
30.4431430002
 20
41.440832401
 30
0.0
 11
30.4233432289
 21
41.440832401
 31
0.0
  0
LINE
  5
1D8
330
1F
100
AcDbEntity
  8
SLD-0
  6
Continuous
370
    15
100
AcDbLine
 10
60.3233433149
 20
41.4804325302
 30
0.0
 11
60.3035423703
 21
41.4804325302
 31
0.0
  0
LINE
  5
1D9
330
1F
100
AcDbEntity
  8
SLD-0
  6
Continuous
370
    15
100
AcDbLine
 10
60.3233433149
 20
41.4804325302
 30
0.0
 11
60.3233433149
 21
41.4767940656
 31
0.0
  0
LINE
  5
1DA
330
1F
100
AcDbEntity
  8
SLD-0
  6
Continuous
370
    15
100
AcDbLine
 10
60.3233433149
 20
41.4491940644
 30
0.0
 11
60.3233433149
 21
41.440832401
 31
0.0
  0
LINE
  5
1DB
330
1F
100
AcDbEntity
  8
SLD-0
  6
Continuous
370
    15
100
AcDbLine
 10
60.3233433149
 20
41.440832401
 30
0.0
 11
60.3035423703
 21
41.440832401
 31
0.0
  0
LINE
  5
1DC
330
1F
100
AcDbEntity
  8
SLD-0
  6
Continuous
370
    15
100
AcDbLine
 10
61.4983432879
 20
41.4491940644
 30
0.0
 11
61.4983432879
 21
41.440832401
 31
0.0
  0
LINE
  5
1DD
330
1F
100
AcDbEntity
  8
SLD-0
  6
Continuous
370
    15
100
AcDbLine
 10
60.3233433149
 20
41.4804325302
 30
0.0
 11
60.3741914742
 21
41.4804325302
 31
0.0
  0
LINE
  5
1DE
330
1F
100
AcDbEntity
  8
SLD-0
  6
Continuous
370
    15
100
AcDbLine
 10
60.3233433149
 20
41.440832401
 30
0.0
 11
61.4983432879
 21
41.440832401
 31
0.0
  0
LINE
  5
1DF
330
1F
100
AcDbEntity
  8
SLD-0
  6
Continuous
370
    15
100
AcDbLine
 10
29.248343256
 20
41.4491940644
 30
0.0
 11
29.248343256
 21
41.440832401
 31
0.0
  0
LINE
  5
1E0
330
1F
100
AcDbEntity
  8
SLD-0
  6
Continuous
370
    15
100
AcDbLine
 10
30.4233432289
 20
41.4804325302
 30
0.0
 11
30.3724938964
 21
41.4804325302
 31
0.0
  0
LINE
  5
1E1
330
1F
100
AcDbEntity
  8
SLD-0
  6
Continuous
370
    15
100
AcDbLine
 10
30.4233432289
 20
41.440832401
 30
0.0
 11
29.248343256
 21
41.440832401
 31
0.0
  0
LINE
  5
1E2
330
1F
100
AcDbEntity
  8
SLD-0
  6
Continuous
370
    15
100
AcDbLine
 10
60.3233433149
 20
41.4804325302
 30
0.0
 11
60.3233433149
 21
41.4954322503
 31
0.0
  0
LINE
  5
1E3
330
1F
100
AcDbEntity
  8
SLD-0
  6
Continuous
370
    15
100
AcDbLine
 10
30.4233432289
 20
41.4954322503
 30
0.0
 11
30.4233432289
 21
41.4804325302
 31
0.0
  0
LINE
  5
1E4
330
1F
100
AcDbEntity
  8
SLD-0
  6
Continuous
370
    15
100
AcDbLine
 10
60.3233433149
 20
41.5429323415
 30
0.0
 11
60.3233433149
 21
41.4954322503
 31
0.0
  0
LINE
  5
1E5
330
1F
100
AcDbEntity
  8
SLD-0
  6
Continuous
370
    15
100
AcDbLine
 10
30.4233432289
 20
41.5429323415
 30
0.0
 11
30.4233432289
 21
41.4954322503
 31
0.0
  0
LINE
  5
1E6
330
1F
100
AcDbEntity
  8
SLD-0
  6
Continuous
370
    15
100
AcDbLine
 10
30.4233432289
 20
41.5429323415
 30
0.0
 11
30.4585921018
 21
41.578181801
 31
0.0
  0
LINE
  5
1E7
330
1F
100
AcDbEntity
  8
SLD-0
  6
Continuous
370
    15
100
AcDbLine
 10
60.2880932688
 20
41.578181801
 30
0.0
 11
60.3233433149
 21
41.5429323415
 31
0.0
  0
LINE
  5
1E8
330
1F
100
AcDbEntity
  8
SLD-0
  6
Continuous
370
    15
100
AcDbLine
 10
30.3768950189
 20
41.6693464012
 30
0.0
 11
30.4024851232
 21
41.6590071073
 31
0.0
  0
LINE
  5
1E9
330
1F
100
AcDbEntity
  8
SLD-0
  6
Continuous
370
    15
100
AcDbLine
 10
30.4024851232
 20
41.6590071073
 30
0.0
 11
30.4493874081
 21
41.7750959529
 31
0.0
  0
LINE
  5
1EA
330
1F
100
AcDbEntity
  8
SLD-0
  6
Continuous
370
    15
100
AcDbLine
 10
30.3768950189
 20
41.6693464012
 30
0.0
 11
30.4621437407
 21
41.880346257
 31
0.0
  0
LINE
  5
1EB
330
1F
100
AcDbEntity
  8
SLD-0
  6
Continuous
370
    15
100
AcDbLine
 10
60.3442014206
 20
41.6590071073
 30
0.0
 11
60.369791525
 21
41.6693464012
 31
0.0
  0
LINE
  5
1EC
330
1F
100
AcDbEntity
  8
SLD-0
  6
Continuous
370
    15
100
AcDbLine
 10
60.295523903
 20
41.7794859288
 30
0.0
 11
60.3442014206
 21
41.6590071073
 31
0.0
  0
LINE
  5
1ED
330
1F
100
AcDbEntity
  8
SLD-0
  6
Continuous
370
    15
100
AcDbLine
 10
60.2845416298
 20
41.880346257
 30
0.0
 11
60.369791525
 21
41.6693464012
 31
0.0
  0
SPLINE
  5
1EE
330
1F
100
AcDbEntity
  8
SLD-0
  6
Continuous
370
    15
100
AcDbSpline
210
0.0
220
0.0
230
1.0
 70
     8
 71
     3
 72
    13
 73
     9
 74
     0
 42
0.00000001
 43
0.00000001
 12
1.0
 22
0.0
 32
0.0
 13
1.0
 23
0.0
 33
0.0
 40
0.0
 40
0.0
 40
0.0
 40
0.0
 40
0.1756960670061219
 40
0.3543139030128449
 40
0.5836511066726545
 40
0.8195718534829194
 40
0.960303406634204
 40
1.0
 40
1.0
 40
1.0
 40
1.0
 10
30.376895018857
 20
41.66934640117956
 30
0.0
 10
30.37419405029296
 20
41.66172810997808
 30
0.0
 10
30.36874719692766
 20
41.64636483784637
 30
0.0
 10
30.36440413947311
 20
41.61918907317428
 30
0.0
 10
30.36348757035962
 20
41.58762474596178
 30
0.0
 10
30.3662159899258
 20
41.55645457212908
 30
0.0
 10
30.36912290786763
 20
41.53465281790714
 30
0.0
 10
30.3705732256537
 20
41.52512402039549
 30
0.0
 10
30.37089231486741
 20
41.52302755813398
 30
0.0
  0
SPLINE
  5
1EF
330
1F
100
AcDbEntity
  8
SLD-0
  6
Continuous
370
    15
100
AcDbSpline
210
0.0
220
0.0
230
1.0
 70
     8
 71
     3
 72
    11
 73
     7
 74
     0
 42
0.00000001
 43
0.00000001
 12
1.0
 22
0.0
 32
0.0
 13
1.0
 23
0.0
 33
0.0
 40
0.0
 40
0.0
 40
0.0
 40
0.0
 40
0.2100443649600386
 40
0.421468399699459
 40
0.8062158321073043
 40
0.9999999999999999
 40
0.9999999999999999
 40
0.9999999999999999
 40
0.9999999999999999
 10
30.40248512323793
 20
41.65900710728663
 30
0.0
 10
30.39936369779458
 20
41.65069881644646
 30
0.0
 10
30.39310034392343
 20
41.63402766202006
 30
0.0
 10
30.3844901201564
 20
41.60078265266025
 30
0.0
 10
30.37883745345377
 20
41.56704372151781
 30
0.0
 10
30.37661071081489
 20
41.5415694052689
 30
0.0
 10
30.375864844091
 20
41.53303656250911
 30
0.0
  0
SPLINE
  5
1F0
330
1F
100
AcDbEntity
  8
SLD-0
  6
Continuous
370
    15
100
AcDbSpline
210
0.0
220
0.0
230
1.0
 70
     8
 71
     3
 72
    11
 73
     7
 74
     0
 42
0.00000001
 43
0.00000001
 12
1.0
 22
0.0
 32
0.0
 13
1.0
 23
0.0
 33
0.0
 40
0.0
 40
0.0
 40
0.0
 40
0.0
 40
0.1037824782287765
 40
0.4025215780479968
 40
0.7012621358595593
 40
1.0
 40
1.0
 40
1.0
 40
1.0
 10
60.37099652443691
 20
41.5326006742112
 30
0.0
 10
60.37059834939947
 20
41.53718719469452
 30
0.0
 10
60.36905402277378
 20
41.55497606902289
 30
0.0
 10
60.36495130530943
 20
41.58539743731818
 30
0.0
 10
60.35719635084842
 20
41.62326093211903
 30
0.0
 10
60.34853305102553
 20
41.64709175137704
 30
0.0
 10
60.3442014206429
 20
41.65900710728663
 30
0.0
  0
SPLINE
  5
1F1
330
1F
100
AcDbEntity
  8
SLD-0
  6
Continuous
370
    15
100
AcDbSpline
210
0.0
220
0.0
230
1.0
 70
     8
 71
     3
 72
    15
 73
    11
 74
     0
 42
0.00000001
 43
0.00000001
 12
1.0
 22
0.0
 32
0.0
 13
1.0
 23
0.0
 33
0.0
 40
0.0
 40
0.0
 40
0.0
 40
0.0
 40
0.0353583826103395
 40
0.1731656492154936
 40
0.3109715701768777
 40
0.4487765826320461
 40
0.5865831303199651
 40
0.7243902032215466
 40
0.8621968381055531
 40
1.0
 40
1.0
 40
1.0
 40
1.0
 10
60.3757954023332
 20
41.52302403817465
 30
0.0
 10
60.37608026882278
 20
41.52489216447037
 30
0.0
 10
60.37747538610382
 20
41.5340412057707
 30
0.0
 10
60.37965931279886
 20
41.55034401653051
 30
0.0
 10
60.3818506239876
 20
41.5717261737291
 30
0.0
 10
60.38286793107561
 20
41.59263647014523
 30
0.0
 10
60.38244351708065
 20
41.61296323231439
 30
0.0
 10
60.38025860327736
 20
41.63257843625748
 30
0.0
 10
60.37631440786399
 20
41.65148370966919
 30
0.0
 10
60.37196580103813
 20
41.66339222069626
 30
0.0
 10
60.36979152502384
 20
41.66934640117956
 30
0.0
  0
LINE
  5
1F2
330
1F
100
AcDbEntity
  8
SLD-0
  6
Continuous
370
    15
100
AcDbLine
 10
60.373343164
 20
41.4804325302
 30
0.0
 11
60.373343164
 21
41.4808373255
 31
0.0
  0
LINE
  5
1F3
330
1F
100
AcDbEntity
  8
SLD-0
  6
Continuous
370
    15
100
AcDbLine
 10
30.3733433799
 20
41.4808373255
 30
0.0
 11
30.3733433799
 21
41.4804325302
 31
0.0
  0
LINE
  5
1F4
330
1F
100
AcDbEntity
  8
SLD-0
  6
Continuous
370
    15
100
AcDbLine
 10
29.6233432973
 20
41.4767940656
 30
0.0
 11
29.6233432973
 21
41.4491940644
 31
0.0
  0
LINE
  5
1F5
330
1F
100
AcDbEntity
  8
SLD-0
  6
Continuous
370
    15
100
AcDbLine
 10
29.248343256
 20
41.4767940656
 30
0.0
 11
29.248343256
 21
41.4491940644
 31
0.0
  0
LINE
  5
1F6
330
1F
100
AcDbEntity
  8
SLD-0
  6
Continuous
370
    15
100
AcDbLine
 10
29.6233432973
 20
41.4767940656
 30
0.0
 11
29.248343256
 21
41.4767940656
 31
0.0
  0
LINE
  5
1F7
330
1F
100
AcDbEntity
  8
SLD-0
  6
Continuous
370
    15
100
AcDbLine
 10
29.6233432973
 20
41.4491940644
 30
0.0
 11
29.248343256
 21
41.4491940644
 31
0.0
  0
LINE
  5
1F8
330
1F
100
AcDbEntity
  8
SLD-0
  6
Continuous
370
    15
100
AcDbLine
 10
61.1233432466
 20
41.4767940656
 30
0.0
 11
29.6233432973
 21
41.4767940656
 31
0.0
  0
LINE
  5
1F9
330
1F
100
AcDbEntity
  8
SLD-0
  6
Continuous
370
    15
100
AcDbLine
 10
61.1233432466
 20
41.4767940656
 30
0.0
 11
61.1233432466
 21
41.4491940644
 31
0.0
  0
LINE
  5
1FA
330
1F
100
AcDbEntity
  8
SLD-0
  6
Continuous
370
    15
100
AcDbLine
 10
61.1233432466
 20
41.4491940644
 30
0.0
 11
29.6233432973
 21
41.4491940644
 31
0.0
  0
LINE
  5
1FB
330
1F
100
AcDbEntity
  8
SLD-0
  6
Continuous
370
    15
100
AcDbLine
 10
61.4983432879
 20
41.4767940656
 30
0.0
 11
61.4983432879
 21
41.4491940644
 31
0.0
  0
LINE
  5
1FC
330
1F
100
AcDbEntity
  8
SLD-0
  6
Continuous
370
    15
100
AcDbLine
 10
61.4983432879
 20
41.4767940656
 30
0.0
 11
61.1233432466
 21
41.4767940656
 31
0.0
  0
LINE
  5
1FD
330
1F
100
AcDbEntity
  8
SLD-0
  6
Continuous
370
    15
100
AcDbLine
 10
61.4983432879
 20
41.4491940644
 30
0.0
 11
61.1233432466
 21
41.4491940644
 31
0.0
  0
LINE
  5
1FE
330
1F
100
AcDbEntity
  8
SLD-0
  6
Continuous
370
    15
100
AcDbLine
 10
30.4585921018
 20
41.5067940923
 30
0.0
 11
60.2880932688
 21
41.5067940923
 31
0.0
  0
LINE
  5
1FF
330
1F
100
AcDbEntity
  8
SLD-0
  6
Continuous
370
    15
100
AcDbLine
 10
60.2880932688
 20
41.4767940656
 30
0.0
 11
60.2880932688
 21
41.5067940923
 31
0.0
  0
LINE
  5
200
330
1F
100
AcDbEntity
  8
SLD-0
  6
Continuous
370
    15
100
AcDbLine
 10
30.4585921018
 20
41.5067940923
 30
0.0
 11
30.4585921018
 21
41.4767940656
 31
0.0
  0
SPLINE
  5
201
330
1F
100
AcDbEntity
  8
SLD-0
  6
Continuous
370
    15
100
AcDbSpline
210
0.0
220
0.0
230
1.0
 70
     8
 71
     3
 72
    15
 73
    11
 74
     0
 42
0.00000001
 43
0.00000001
 12
1.0
 22
0.0
 32
0.0
 13
1.0
 23
0.0
 33
0.0
 40
0.0
 40
0.0
 40
0.0
 40
0.0
 40
0.1250021471489848
 40
0.2499999681489645
 40
0.3750015569596218
 40
0.4999995730381022
 40
0.6249975891165825
 40
0.7499991779272399
 40
0.8749982881009063
 40
1.0
 40
1.0
 40
1.0
 40
1.0
 10
36.45476422012668
 20
56.46439431419022
 30
0.0
 10
36.45220465358819
 20
56.46417983929517
 30
0.0
 10
36.44708560909424
 20
56.46375089692773
 30
0.0
 10
36.43940645944011
 20
56.46032594982907
 30
0.0
 10
36.43172800005272
 20
56.45500279540045
 30
0.0
 10
36.42404905277195
 20
56.44778435128328
 30
0.0
 10
36.41637011856489
 20
56.43900219905196
 30
0.0
 10
36.40869159355834
 20
56.4289787511419
 30
0.0
 10
36.40101257022784
 20
56.41810425860686
 30
0.0
 10
36.39589346768395
 20
56.41056430319627
 30
0.0
 10
36.39333388977509
 20
56.40679428625733
 30
0.0
  0
LINE
  5
202
330
1F
100
AcDbEntity
  8
SLD-0
  6
Continuous
370
    15
100
AcDbLine
 10
45.0608428953
 20
56.4643943142
 30
0.0
 11
36.4547642201
 21
56.4643943142
 31
0.0
  0
LINE
  5
203
330
1F
100
AcDbEntity
  8
SLD-0
  6
Continuous
370
    15
100
AcDbLine
 10
45.0608428953
 20
56.4067942863
 30
0.0
 11
45.0608428953
 21
56.4643943142
 31
0.0
  0
LINE
  5
204
330
1F
100
AcDbEntity
  8
SLD-0
  6
Continuous
370
    15
100
AcDbLine
 10
45.0608428953
 20
56.4067942863
 30
0.0
 11
36.3933338898
 21
56.4067942863
 31
0.0
  0
LINE
  5
205
330
1F
100
AcDbEntity
  8
SLD-0
  6
Continuous
370
    15
100
AcDbLine
 10
54.3533526541
 20
56.4067942863
 30
0.0
 11
45.6858429153
 21
56.4067942863
 31
0.0
  0
LINE
  5
206
330
1F
100
AcDbEntity
  8
SLD-0
  6
Continuous
370
    15
100
AcDbLine
 10
45.6858429153
 20
56.4643943142
 30
0.0
 11
45.6858429153
 21
56.4067942863
 31
0.0
  0
LINE
  5
207
330
1F
100
AcDbEntity
  8
SLD-0
  6
Continuous
370
    15
100
AcDbLine
 10
54.2919211504
 20
56.4643943142
 30
0.0
 11
45.6858429153
 21
56.4643943142
 31
0.0
  0
SPLINE
  5
208
330
1F
100
AcDbEntity
  8
SLD-0
  6
Continuous
370
    15
100
AcDbSpline
210
0.0
220
0.0
230
1.0
 70
     8
 71
     3
 72
    15
 73
    11
 74
     0
 42
0.00000001
 43
0.00000001
 12
1.0
 22
0.0
 32
0.0
 13
1.0
 23
0.0
 33
0.0
 40
0.0
 40
0.0
 40
0.0
 40
0.0
 40
0.1250039767871466
 40
0.2500053519274364
 40
0.3750031659087547
 40
0.5000034469869001
 40
0.6249976881713073
 40
0.7500015418737347
 40
0.8749955879761064
 40
1.0
 40
1.0
 40
1.0
 40
1.0
 10
54.35335265410574
 20
56.40679428625733
 30
0.0
 10
54.35079290686202
 20
56.4105643181283
 30
0.0
 10
54.34567346564935
 20
56.41810430340642
 30
0.0
 10
54.33799358608231
 20
56.42897839683327
 30
0.0
 10
54.33031609241919
 20
56.43900255488332
 30
0.0
 10
54.32263604860392
 20
56.44778403949228
 30
0.0
 10
54.3149582252589
 20
56.45500304245731
 30
0.0
 10
54.3072786628986
 20
56.46032577840491
 30
0.0
 10
54.29960051799966
 20
56.4637509833309
 30
0.0
 10
54.29448101038113
 20
56.46417986464274
 30
0.0
 10
54.29192115043438
 20
56.46439431419022
 30
0.0
  0
LINE
  5
209
330
1F
100
AcDbEntity
  8
SLD-0
  6
Continuous
370
    15
100
AcDbLine
 10
30.4585921018
 20
41.5067940923
 30
0.0
 11
30.4585921018
 21
41.7177945348
 31
0.0
  0
LINE
  5
20A
330
1F
100
AcDbEntity
  8
SLD-0
  6
Continuous
370
    15
100
AcDbLine
 10
36.2996818517
 20
56.1749985106
 30
0.0
 11
30.4585921018
 21
41.7177945348
 31
0.0
  0
LINE
  5
20B
330
1F
100
AcDbEntity
  8
SLD-0
  6
Continuous
370
    15
100
AcDbLine
 10
45.0608428953
 20
56.4067942863
 30
0.0
 11
45.6858429153
 21
56.4067942863
 31
0.0
  0
LINE
  5
20C
330
1F
100
AcDbEntity
  8
SLD-0
  6
Continuous
370
    15
100
AcDbLine
 10
60.2880932688
 20
41.7177945348
 30
0.0
 11
54.4470035189
 21
56.1749985106
 31
0.0
  0
LINE
  5
20D
330
1F
100
AcDbEntity
  8
SLD-0
  6
Continuous
370
    15
100
AcDbLine
 10
60.2880932688
 20
41.7177945348
 30
0.0
 11
60.2880932688
 21
41.5067940923
 31
0.0
  0
LINE
  5
20E
330
1F
100
AcDbEntity
  8
SLD-0
  6
Continuous
370
    15
100
AcDbLine
 10
36.3933338898
 20
56.4067942863
 30
0.0
 11
36.2996818517
 21
56.1749985106
 31
0.0
  0
LINE
  5
20F
330
1F
100
AcDbEntity
  8
SLD-0
  6
Continuous
370
    15
100
AcDbLine
 10
54.4470035189
 20
56.1749985106
 30
0.0
 11
54.3533526541
 21
56.4067942863
 31
0.0
  0
SPLINE
  5
210
330
1F
100
AcDbEntity
  8
SLD-0
  6
Continuous
370
    15
100
AcDbSpline
210
0.0
220
0.0
230
1.0
 70
     8
 71
     3
 72
    14
 73
    10
 74
     0
 42
0.00000001
 43
0.00000001
 12
1.0
 22
0.0
 32
0.0
 13
1.0
 23
0.0
 33
0.0
 40
0.0
 40
0.0
 40
0.0
 40
0.0
 40
0.1503067002763376
 40
0.31467493912524
 40
0.493151636955032
 40
0.6282591874637444
 40
0.7577048920069573
 40
0.8815784667776814
 40
1.0
 40
1.0
 40
1.0
 40
1.0
 10
54.55462275568301
 20
56.06239207815436
 30
0.0
 10
54.55161756808052
 20
56.0689589498925
 30
0.0
 10
54.54532605064225
 20
56.08270703936981
 30
0.0
 10
54.5312253272421
 20
56.10293107440931
 30
0.0
 10
54.51500016419951
 20
56.12178768325075
 30
0.0
 10
54.49789532548026
 20
56.1383626425182
 30
0.0
 10
54.48134715025298
 20
56.15187807364398
 30
0.0
 10
54.46437465707249
 20
56.16405724671472
 30
0.0
 10
54.45270637977053
 20
56.17140654647949
 30
0.0
 10
54.44700351890963
 20
56.17499851064857
 30
0.0
  0
LINE
  5
211
330
1F
100
AcDbEntity
  8
SLD-0
  6
Continuous
370
    15
100
AcDbLine
 10
60.2845416298
 20
41.880346257
 30
0.0
 11
54.5546227557
 21
56.0623920782
 31
0.0
  0
SPLINE
  5
212
330
1F
100
AcDbEntity
  8
SLD-0
  6
Continuous
370
    15
100
AcDbSpline
210
0.0
220
0.0
230
1.0
 70
     8
 71
     3
 72
    14
 73
    10
 74
     0
 42
0.00000001
 43
0.00000001
 12
1.0
 22
0.0
 32
0.0
 13
1.0
 23
0.0
 33
0.0
 40
0.0
 40
0.0
 40
0.0
 40
0.0
 40
0.1503703823043359
 40
0.3148963298400089
 40
0.49362544560851
 40
0.6288442387128025
 40
0.7582510788819029
 40
0.88193569465375
 40
1.0
 40
1.0
 40
1.0
 40
1.0
 10
60.28809326880906
 20
41.71779453483592
 30
0.0
 10
60.28951743774456
 20
41.72655147241546
 30
0.0
 10
60.29249984401361
 20
41.74488970805853
 30
0.0
 10
60.29568777727268
 20
41.77341733585019
 30
0.0
 10
60.29672408082674
 20
41.80052282999668
 30
0.0
 10
60.29593478180257
 20
41.82486358155011
 30
0.0
 10
60.29389587342048
 20
41.84525893795654
 30
0.0
 10
60.29041448990199
 20
41.86384275413587
 30
0.0
 10
60.28646867168312
 20
41.87493101805883
 30
0.0
 10
60.2845416298379
 20
41.88034625702455
 30
0.0
  0
SPLINE
  5
213
330
1F
100
AcDbEntity
  8
SLD-0
  6
Continuous
370
    15
100
AcDbSpline
210
0.0
220
0.0
230
1.0
 70
     8
 71
     3
 72
    14
 73
    10
 74
     0
 42
0.00000001
 43
0.00000001
 12
1.0
 22
0.0
 32
0.0
 13
1.0
 23
0.0
 33
0.0
 40
0.0
 40
0.0
 40
0.0
 40
0.0
 40
0.1503702117492235
 40
0.3148963723848912
 40
0.4936234959113165
 40
0.6288442136773987
 40
0.7582504017322523
 40
0.881935138771154
 40
1.0
 40
1.0
 40
1.0
 40
1.0
 10
30.46214374072315
 20
41.88034625702455
 30
0.0
 10
30.45960556375594
 20
41.87319036545647
 30
0.0
 10
30.45429026420194
 20
41.85820492206475
 30
0.0
 10
30.44993249483317
 20
41.83272606633536
 30
0.0
 10
30.44806189184538
 20
41.80679500453355
 30
0.0
 10
30.44843845923526
 20
41.78198249675797
 30
0.0
 10
30.45059850979409
 20
41.75989150256443
 30
0.0
 10
30.45401023332619
 20
41.73852244610463
 30
0.0
 10
30.45708866672991
 20
41.72459592344862
 30
0.0
 10
30.45859210175199
 20
41.71779453483592
 30
0.0
  0
LINE
  5
214
330
1F
100
AcDbEntity
  8
SLD-0
  6
Continuous
370
    15
100
AcDbLine
 10
36.1920626149
 20
56.0623920782
 30
0.0
 11
30.4621437407
 21
41.880346257
 31
0.0
  0
SPLINE
  5
215
330
1F
100
AcDbEntity
  8
SLD-0
  6
Continuous
370
    15
100
AcDbSpline
210
0.0
220
0.0
230
1.0
 70
     8
 71
     3
 72
    14
 73
    10
 74
     0
 42
0.00000001
 43
0.00000001
 12
1.0
 22
0.0
 32
0.0
 13
1.0
 23
0.0
 33
0.0
 40
0.0
 40
0.0
 40
0.0
 40
0.0
 40
0.1503080877669374
 40
0.3146768916328123
 40
0.4931536625692699
 40
0.6282627862583807
 40
0.7577050797071646
 40
0.8815817388321678
 40
1.0
 40
1.0
 40
1.0
 40
1.0
 10
36.29968185165143
 20
56.17499851064857
 30
0.0
 10
36.29271628590397
 20
56.17003164555852
 30
0.0
 10
36.27813355379395
 20
56.1596332851581
 30
0.0
 10
36.25648385511082
 20
56.14245891356978
 30
0.0
 10
36.23734484877765
 20
56.1247797606561
 30
0.0
 10
36.22140730383143
 20
56.10773361077545
 30
0.0
 10
36.20905729816673
 20
56.09252099886488
 30
0.0
 10
36.19898246855772
 20
56.07755601904222
 30
0.0
 10
36.19433432847876
 20
56.06737023699269
 30
0.0
 10
36.19206261487803
 20
56.06239207815436
 30
0.0
  0
LINE
  5
216
330
1F
100
AcDbEntity
  8
SLD-0
  6
Continuous
370
    15
100
AcDbLine
 10
45.1233428533
 20
56.436794313
 30
0.0
 11
45.1233428533
 21
56.4067942863
 31
0.0
  0
LINE
  5
217
330
1F
100
AcDbEntity
  8
SLD-0
  6
Continuous
370
    15
100
AcDbLine
 10
45.6858429153
 20
56.436794313
 30
0.0
 11
45.1233428533
 21
56.436794313
 31
0.0
  0
LINE
  5
218
330
1F
100
AcDbEntity
  8
SLD-0
  6
Continuous
370
    15
100
AcDbLine
 10
60.3421891772
 20
41.5142077134
 30
0.0
 11
60.373343164
 21
41.5267945013
 31
0.0
  0
LINE
  5
219
330
1F
100
AcDbEntity
  8
SLD-0
  6
Continuous
370
    15
100
AcDbLine
 10
60.3421891772
 20
41.5142077134
 30
0.0
 11
60.2880932688
 21
41.6480999266
 31
0.0
  0
LINE
  5
21A
330
1F
100
AcDbEntity
  8
SLD-0
  6
Continuous
370
    15
100
AcDbLine
 10
60.373343164
 20
41.5267945013
 30
0.0
 11
60.2903296163
 21
41.7322592211
 31
0.0
  0
LINE
  5
21B
330
1F
100
AcDbEntity
  8
SLD-0
  6
Continuous
370
    15
100
AcDbLine
 10
54.4579236061
 20
56.1679709118
 30
0.0
 11
54.3653815285
 21
56.3970193592
 31
0.0
  0
ARC
  5
21C
330
1F
100
AcDbEntity
  8
SLD-0
  6
Continuous
370
    15
100
AcDbCircle
 10
54.3064131512
 20
56.3731943043
 30
0.0
 40
0.0636000000000075
100
AcDbArc
 50
22.0
 51
58.0215023943
  0
ARC
  5
21D
330
1F
100
AcDbEntity
  8
SLD-0
  6
Continuous
370
    15
100
AcDbCircle
 10
60.4011584357
 20
41.5380325021
 30
0.0
 40
0.0636000000000101
100
AcDbArc
 50
202.0
 51
254.3366717993
  0
ARC
  5
21E
330
1F
100
AcDbEntity
  8
SLD-0
  6
Continuous
370
    15
100
AcDbCircle
 10
60.4011584357
 20
41.5380325021
 30
0.0
 40
0.0300000000000049
100
AcDbArc
 50
202.0
 51
270.0
  0
LINE
  5
21F
330
1F
100
AcDbEntity
  8
SLD-0
  6
Continuous
370
    15
100
AcDbLine
 10
60.4011578827
 20
41.5080325314
 30
0.0
 11
61.5059229337
 21
41.5080325314
 31
0.0
  0
LINE
  5
220
330
1F
100
AcDbEntity
  8
SLD-0
  6
Continuous
370
    15
100
AcDbLine
 10
61.4983432879
 20
41.4744327595
 30
0.0
 11
61.5059229337
 21
41.4744327595
 31
0.0
  0
LINE
  5
221
330
1F
100
AcDbEntity
  8
SLD-0
  6
Continuous
370
    15
100
AcDbLine
 10
61.5059229337
 20
41.4744327595
 30
0.0
 11
61.5059229337
 21
41.5080325314
 31
0.0
  0
LINE
  5
222
330
1F
100
AcDbEntity
  8
SLD-0
  6
Continuous
370
    15
100
AcDbLine
 10
45.6233429573
 20
56.436794313
 30
0.0
 11
45.6233429573
 21
56.4067942863
 31
0.0
  0
LINE
  5
223
330
1F
100
AcDbEntity
  8
SLD-0
  6
Continuous
370
    15
100
AcDbLine
 10
45.0608428953
 20
56.436794313
 30
0.0
 11
45.6233429573
 21
56.436794313
 31
0.0
  0
ARC
  5
224
330
1F
100
AcDbEntity
  8
SLD-0
  6
Continuous
370
    15
100
AcDbCircle
 10
36.4402726889
 20
56.3731943043
 30
0.0
 40
0.0636000000000028
100
AcDbArc
 50
121.9784976058
 51
158.0
  0
LINE
  5
225
330
1F
100
AcDbEntity
  8
SLD-0
  6
Continuous
370
    15
100
AcDbLine
 10
30.4044961933
 20
41.5142077134
 30
0.0
 11
30.3733433799
 21
41.5267945013
 31
0.0
  0
LINE
  5
226
330
1F
100
AcDbEntity
  8
SLD-0
  6
Continuous
370
    15
100
AcDbLine
 10
30.3733433799
 20
41.5267945013
 30
0.0
 11
30.4558195471
 21
41.7309316097
 31
0.0
  0
LINE
  5
227
330
1F
100
AcDbEntity
  8
SLD-0
  6
Continuous
370
    15
100
AcDbLine
 10
36.2882525437
 20
56.1667090064
 30
0.0
 11
36.3813038421
 21
56.3970193592
 31
0.0
  0
LINE
  5
228
330
1F
100
AcDbEntity
  8
SLD-0
  6
Continuous
370
    15
100
AcDbLine
 10
30.4044961933
 20
41.5142077134
 30
0.0
 11
30.4585921018
 21
41.6480999266
 31
0.0
  0
LINE
  5
229
330
1F
100
AcDbEntity
  8
SLD-0
  6
Continuous
370
    15
100
AcDbLine
 10
29.248343256
 20
41.4744327595
 30
0.0
 11
29.2407624369
 21
41.4744327595
 31
0.0
  0
LINE
  5
22A
330
1F
100
AcDbEntity
  8
SLD-0
  6
Continuous
370
    15
100
AcDbLine
 10
29.2407624369
 20
41.4744327595
 30
0.0
 11
29.2407624369
 21
41.5080325314
 31
0.0
  0
LINE
  5
22B
330
1F
100
AcDbEntity
  8
SLD-0
  6
Continuous
370
    15
100
AcDbLine
 10
30.3455274879
 20
41.5080325314
 30
0.0
 11
29.2407624369
 21
41.5080325314
 31
0.0
  0
ARC
  5
22C
330
1F
100
AcDbEntity
  8
SLD-0
  6
Continuous
370
    15
100
AcDbCircle
 10
30.3455274044
 20
41.5380325021
 30
0.0
 40
0.0636000000000003
100
AcDbArc
 50
285.6633282007
 51
338.0
  0
ARC
  5
22D
330
1F
100
AcDbEntity
  8
SLD-0
  6
Continuous
370
    15
100
AcDbCircle
 10
30.3455274044
 20
41.5380325021
 30
0.0
 40
0.0300000000000016
100
AcDbArc
 50
270.0
 51
338.0
  0
LINE
  5
22E
330
1F
100
AcDbEntity
  8
SLD-0
  6
Continuous
370
    15
100
AcDbLine
 10
30.4233432289
 20
41.4954322503
 30
0.0
 11
30.4585921018
 21
41.4954322503
 31
0.0
  0
LINE
  5
22F
330
1F
100
AcDbEntity
  8
SLD-0
  6
Continuous
370
    15
100
AcDbLine
 10
60.2880932688
 20
41.4954322503
 30
0.0
 11
60.3233433149
 21
41.4954322503
 31
0.0
  0
LINE
  5
230
330
1F
100
AcDbEntity
  8
SLD-0
  6
Continuous
370
    15
100
AcDbLine
 10
30.4009269546
 20
41.5067940923
 30
0.0
 11
30.4233432289
 21
41.5067940923
 31
0.0
  0
LINE
  5
231
330
1F
100
AcDbEntity
  8
SLD-0
  6
Continuous
370
    15
100
AcDbLine
 10
60.3233433149
 20
41.5067940923
 30
0.0
 11
60.345758416
 21
41.5067940923
 31
0.0
  0
LINE
  5
232
330
1F
100
AcDbEntity
  8
SLD-0
  6
Continuous
370
    15
100
AcDbLine
 10
54.3584354754
 20
56.3942127783
 30
0.0
 11
54.3653815285
 21
56.3970193592
 31
0.0
  0
LINE
  5
233
330
1F
100
AcDbEntity
  8
SLD-0
  6
Continuous
370
    15
100
AcDbLine
 10
60.4011578827
 20
41.5080325314
 30
0.0
 11
60.4011578827
 21
41.4767940656
 31
0.0
  0
LINE
  5
234
330
1F
100
AcDbEntity
  8
SLD-0
  6
Continuous
370
    15
100
AcDbLine
 10
36.3882504818
 20
56.3942127783
 30
0.0
 11
36.3813038421
 21
56.3970193592
 31
0.0
  0
LINE
  5
235
330
1F
100
AcDbEntity
  8
SLD-0
  6
Continuous
370
    15
100
AcDbLine
 10
30.3455274879
 20
41.5080325314
 30
0.0
 11
30.3455274879
 21
41.4767940656
 31
0.0
  0
DIMENSION
  5
236
330
1F
100
AcDbEntity
  8
DIM
100
AcDbDimension
  2
_D_5
 10
54.3533521551
 20
60.3538313996
 30
0.0
 11
45.37334292
 21
60.3538313996
 31
0.0
 70
   160
  1
<>
 71
     2
 42
-1.0
  3
SLDDIMSTYLE0
100
AcDbAlignedDimension
 13
36.393333685
 23
56.4067943043
 33
0.0
 14
54.3533521551
 24
56.4067943043
 34
0.0
100
AcDbRotatedDimension
  0
DIMENSION
  5
245
330
1F
100
AcDbEntity
  8
DIM
100
AcDbDimension
  2
_D_6
 10
64.5059231802
 20
41.4048325021
 30
0.0
 11
64.5059231802
 21
48.9346134032
 31
0.0
 70
   160
  1
<>
 71
     2
 42
-1.0
  3
SLDDIMSTYLE0
100
AcDbAlignedDimension
 13
54.2919214523
 23
56.4643943043
 33
0.0
 14
61.4756355278
 24
41.4048325021
 34
0.0
 50
90.0
100
AcDbRotatedDimension
  0
DIMENSION
  5
254
330
1F
100
AcDbEntity
  8
DIM
100
AcDbDimension
  2
_D_7
 10
60.4011584357
 20
36.7908368179
 30
0.0
 11
45.37334292
 21
36.7908368179
 31
0.0
 70
   160
  1
<>
 71
     2
 42
-1.0
  3
SLDDIMSTYLE0
100
AcDbAlignedDimension
 13
30.3455274044
 23
41.4744325021
 33
0.0
 14
60.4011584357
 24
41.5080325021
 34
0.0
 50
0.0
100
AcDbRotatedDimension
  0
DIMENSION
  5
263
330
1F
100
AcDbEntity
  8
DIM
100
AcDbDimension
  2
_D_8
 10
61.5059231802
 20
33.2908368179
 30
0.0
 11
45.37334292
 21
33.2908368179
 31
0.0
 70
   160
  1
<>
 71
     2
 42
-1.0
  3
SLDDIMSTYLE0
100
AcDbAlignedDimension
 13
29.2407626599
 23
41.4744325021
 33
0.0
 14
61.5059231802
 24
41.4744325021
 34
0.0
100
AcDbRotatedDimension
  0
LINE
  5
272
330
1F
100
AcDbEntity
  8
SLD-0
  6
Continuous
370
    15
100
AcDbLine
 10
94.6903028232
 20
8.5751048053
 30
0.0
 11
94.662702822
 21
8.5751048053
 31
0.0
  0
LINE
  5
273
330
1F
100
AcDbEntity
  8
SLD-0
  6
Continuous
370
    15
100
AcDbLine
 10
94.6903028232
 20
3.2626044158
 30
0.0
 11
94.6903028232
 21
3.3251048138
 31
0.0
  0
LINE
  5
274
330
1F
100
AcDbEntity
  8
SLD-0
  6
Continuous
370
    15
100
AcDbLine
 10
94.6903028232
 20
3.7951050376
 30
0.0
 11
94.6903028232
 21
8.5751048053
 31
0.0
  0
LINE
  5
275
330
1F
100
AcDbEntity
  8
SLD-0
  6
Continuous
370
    15
100
AcDbLine
 10
94.6903028232
 20
3.2626044158
 30
0.0
 11
94.662702822
 21
3.2626044158
 31
0.0
  0
LINE
  5
276
330
1F
100
AcDbEntity
  8
SLD-0
  6
Continuous
370
    15
100
AcDbLine
 10
94.662702822
 20
3.2626044158
 30
0.0
 11
94.662702822
 21
3.2761433527
 31
0.0
  0
LINE
  5
277
330
1F
100
AcDbEntity
  8
SLD-0
  6
Continuous
370
    15
100
AcDbLine
 10
78.4495348646
 20
23.472849292
 30
0.0
 11
78.0167464776
 21
23.905637679
 31
0.0
  0
LINE
  5
278
330
1F
100
AcDbEntity
  8
SLD-0
  6
Continuous
370
    15
100
AcDbLine
 10
78.0167464776
 20
23.905637679
 30
0.0
 11
78.0405050298
 21
23.9293968179
 31
0.0
  0
LINE
  5
279
330
1F
100
AcDbEntity
  8
SLD-0
  6
Continuous
370
    15
100
AcDbLine
 10
78.4732940035
 20
23.4966078442
 30
0.0
 11
78.0405050298
 21
23.9293968179
 31
0.0
  0
LINE
  5
27A
330
1F
100
AcDbEntity
  8
SLD-0
  6
Continuous
370
    15
100
AcDbLine
 10
78.4732940035
 20
23.4966078442
 30
0.0
 11
78.4495348646
 21
23.472849292
 31
0.0
  0
LINE
  5
27B
330
1F
100
AcDbEntity
  8
SLD-0
  6
Continuous
370
    15
100
AcDbLine
 10
78.4953911349
 20
23.4538550047
 30
0.0
 11
78.4953911349
 21
23.4874547766
 31
0.0
  0
SPLINE
  5
27C
330
1F
100
AcDbEntity
  8
SLD-0
  6
Continuous
370
    15
100
AcDbSpline
210
0.0
220
0.0
230
1.0
 70
     8
 71
     3
 72
    11
 73
     7
 74
     0
 42
0.00000001
 43
0.00000001
 12
1.0
 22
0.0
 32
0.0
 13
1.0
 23
0.0
 33
0.0
 40
0.0
 40
0.0
 40
0.0
 40
0.0
 40
0.2500036136227717
 40
0.5000079241417661
 40
0.7499963265452902
 40
1.0
 40
1.0
 40
1.0
 40
1.0
 10
78.44953486460979
 20
23.47284929197962
 30
0.0
 10
78.45270671983118
 20
23.47001603537332
 30
0.0
 10
78.45905043911569
 20
23.46434951426288
 30
0.0
 10
78.47043523193192
 20
23.45845608007587
 30
0.0
 10
78.48265262968035
 20
23.45457377292166
 30
0.0
 10
78.49114488001784
 20
23.45409459901001
 30
0.0
 10
78.49539113487424
 20
23.45385500473658
 30
0.0
  0
SPLINE
  5
27D
330
1F
100
AcDbEntity
  8
SLD-0
  6
Continuous
370
    15
100
AcDbSpline
210
0.0
220
0.0
230
1.0
 70
     8
 71
     3
 72
    11
 73
     7
 74
     0
 42
0.00000001
 43
0.00000001
 12
1.0
 22
0.0
 32
0.0
 13
1.0
 23
0.0
 33
0.0
 40
0.0
 40
0.0
 40
0.0
 40
0.0
 40
0.2500085299907783
 40
0.4999899414507237
 40
0.7499975929721115
 40
1.0
 40
1.0
 40
1.0
 40
1.0
 10
78.47329400347552
 20
23.49660784418547
 30
0.0
 10
78.47482244151456
 20
23.49524253608187
 30
0.0
 10
78.47787915180233
 20
23.49251206797023
 30
0.0
 10
78.48336543930759
 20
23.48967199682454
 30
0.0
 10
78.48925268232257
 20
23.48780157832674
 30
0.0
 10
78.49334499833148
 20
23.48757037636
 30
0.0
 10
78.49539113487424
 20
23.48745477658915
 30
0.0
  0
LINE
  5
27E
330
1F
100
AcDbEntity
  8
SLD-0
  6
Continuous
370
    15
100
AcDbLine
 10
79.7003412685
 20
23.4874547766
 30
0.0
 11
78.4953911349
 21
23.4874547766
 31
0.0
  0
LINE
  5
27F
330
1F
100
AcDbEntity
  8
SLD-0
  6
Continuous
370
    15
100
AcDbLine
 10
79.7003412685
 20
23.4538550047
 30
0.0
 11
78.4953911349
 21
23.4538550047
 31
0.0
  0
LINE
  5
280
330
1F
100
AcDbEntity
  8
SLD-0
  6
Continuous
370
    15
100
AcDbLine
 10
80.0687026665
 20
25.3207053321
 30
0.0
 11
80.0687026665
 21
24.444704785
 31
0.0
  0
LINE
  5
281
330
1F
100
AcDbEntity
  8
SLD-0
  6
Continuous
370
    15
100
AcDbLine
 10
88.0687027898
 20
25.3207053321
 30
0.0
 11
80.0687026665
 21
25.3207053321
 31
0.0
  0
LINE
  5
282
330
1F
100
AcDbEntity
  8
SLD-0
  6
Continuous
370
    15
100
AcDbLine
 10
88.0687027898
 20
24.444704785
 30
0.0
 11
80.0687026665
 21
24.444704785
 31
0.0
  0
LINE
  5
283
330
1F
100
AcDbEntity
  8
SLD-0
  6
Continuous
370
    15
100
AcDbLine
 10
88.0687027898
 20
24.444704785
 30
0.0
 11
88.0687027898
 21
25.3207053321
 31
0.0
  0
LINE
  5
284
330
1F
100
AcDbEntity
  8
SLD-0
  6
Continuous
370
    15
100
AcDbLine
 10
80.0687026665
 20
24.3827048079
 30
0.0
 11
80.0687026665
 21
24.444704785
 31
0.0
  0
LINE
  5
285
330
1F
100
AcDbEntity
  8
SLD-0
  6
Continuous
370
    15
100
AcDbLine
 10
88.0687027898
 20
24.444704785
 30
0.0
 11
88.0687027898
 21
24.3827048079
 31
0.0
  0
LINE
  5
286
330
1F
100
AcDbEntity
  8
SLD-0
  6
Continuous
370
    15
100
AcDbLine
 10
79.6307411125
 20
6.540807079
 30
0.0
 11
79.66674091
 21
6.540807079
 31
0.0
  0
LINE
  5
287
330
1F
100
AcDbEntity
  8
SLD-0
  6
Continuous
370
    15
100
AcDbLine
 10
79.6307411125
 20
7.1831820583
 30
0.0
 11
79.66674091
 21
7.1831820583
 31
0.0
  0
LINE
  5
288
330
1F
100
AcDbEntity
  8
SLD-0
  6
Continuous
370
    15
100
AcDbLine
 10
79.6307411125
 20
6.540807079
 30
0.0
 11
79.6307411125
 21
7.1831820583
 31
0.0
  0
LINE
  5
289
330
1F
100
AcDbEntity
  8
SLD-0
  6
Continuous
370
    15
100
AcDbLine
 10
79.66674091
 20
7.1831820583
 30
0.0
 11
79.66674091
 21
6.540807079
 31
0.0
  0
LINE
  5
28A
330
1F
100
AcDbEntity
  8
SLD-0
  6
Continuous
370
    15
100
AcDbLine
 10
79.6892205437
 20
6.4863550681
 30
0.0
 11
79.6892205437
 21
6.5176046804
 31
0.0
  0
LINE
  5
28B
330
1F
100
AcDbEntity
  8
SLD-0
  6
Continuous
370
    15
100
AcDbLine
 10
79.7003412685
 20
6.4863550681
 30
0.0
 11
79.6892205437
 21
6.4863550681
 31
0.0
  0
LINE
  5
28C
330
1F
100
AcDbEntity
  8
SLD-0
  6
Continuous
370
    15
100
AcDbLine
 10
79.66674091
 20
6.537979965
 30
0.0
 11
79.6307411125
 21
6.537979965
 31
0.0
  0
LINE
  5
28D
330
1F
100
AcDbEntity
  8
SLD-0
  6
Continuous
370
    15
100
AcDbLine
 10
79.6307411125
 20
6.537979965
 30
0.0
 11
79.6307411125
 21
6.540807079
 31
0.0
  0
ARC
  5
28E
330
1F
100
AcDbEntity
  8
SLD-0
  6
Continuous
370
    15
100
AcDbCircle
 10
79.6823660111
 20
6.5379799077
 30
0.0
 40
0.0516250000000014
100
AcDbArc
 50
180.0
 51
270.0
  0
LINE
  5
28F
330
1F
100
AcDbEntity
  8
SLD-0
  6
Continuous
370
    15
100
AcDbLine
 10
79.6892205437
 20
6.4863550681
 30
0.0
 11
79.6823660095
 21
6.4863550681
 31
0.0
  0
SPLINE
  5
290
330
1F
100
AcDbEntity
  8
SLD-0
  6
Continuous
370
    15
100
AcDbSpline
210
0.0
220
0.0
230
1.0
 70
     8
 71
     3
 72
    11
 73
     7
 74
     0
 42
0.00000001
 43
0.00000001
 12
1.0
 22
0.0
 32
0.0
 13
1.0
 23
0.0
 33
0.0
 40
0.0
 40
0.0
 40
0.0
 40
0.0
 40
0.3116136047789236
 40
0.6232335649733103
 40
0.9348431058344066
 40
1.0
 40
1.0
 40
1.0
 40
1.0
 10
79.63074111254775
 20
7.18318205827222
 30
0.0
 10
79.63150823898643
 20
7.189973147194469
 30
0.0
 10
79.6330425075095
 20
7.203555463544443
 30
0.0
 10
79.6451124277694
 20
7.220227283468167
 30
0.0
 10
79.65730995583831
 20
7.230115891292205
 30
0.0
 10
79.66535041613271
 20
7.231465943656546
 30
0.0
 10
79.66674091000834
 20
7.231699417795543
 30
0.0
  0
LINE
  5
291
330
1F
100
AcDbEntity
  8
SLD-0
  6
Continuous
370
    15
100
AcDbLine
 10
79.7003412685
 20
22.5982051026
 30
0.0
 11
79.66674091
 21
22.5982051026
 31
0.0
  0
LINE
  5
292
330
1F
100
AcDbEntity
  8
SLD-0
  6
Continuous
370
    15
100
AcDbLine
 10
79.66674091
 20
22.5982051026
 30
0.0
 11
79.66674091
 21
21.9772050765
 31
0.0
  0
LINE
  5
293
330
1F
100
AcDbEntity
  8
SLD-0
  6
Continuous
370
    15
100
AcDbLine
 10
79.7003412685
 20
21.9772050765
 30
0.0
 11
79.66674091
 21
21.9772050765
 31
0.0
  0
LINE
  5
294
330
1F
100
AcDbEntity
  8
SLD-0
  6
Continuous
370
    15
100
AcDbLine
 10
79.7003412685
 20
22.6180048739
 30
0.0
 11
79.66674091
 21
22.6180048739
 31
0.0
  0
LINE
  5
295
330
1F
100
AcDbEntity
  8
SLD-0
  6
Continuous
370
    15
100
AcDbLine
 10
79.66674091
 20
22.5982051026
 30
0.0
 11
79.66674091
 21
22.6180048739
 31
0.0
  0
ARC
  5
296
330
1F
100
AcDbEntity
  8
SLD-0
  6
Continuous
370
    15
100
AcDbCircle
 10
79.7213410111
 20
21.9772049077
 30
0.0
 40
0.0545999999999968
100
AcDbArc
 50
180.0
 51
247.3801350521
  0
SPLINE
  5
297
330
1F
100
AcDbEntity
  8
SLD-0
  6
Continuous
370
    15
100
AcDbSpline
210
0.0
220
0.0
230
1.0
 70
     8
 71
     3
 72
    13
 73
     9
 74
     0
 42
0.00000001
 43
0.00000001
 12
1.0
 22
0.0
 32
0.0
 13
1.0
 23
0.0
 33
0.0
 40
0.0
 40
0.0
 40
0.0
 40
0.0
 40
0.1651113589443107
 40
0.332088998738481
 40
0.4990707634918113
 40
0.666045125911991
 40
0.8330268293681299
 40
1.0
 40
1.0
 40
1.0
 40
1.0
 10
79.7003412685208
 20
22.66839250513307
 30
0.0
 10
79.69715366795172
 20
22.6668538113674
 30
0.0
 10
79.69074243684
 20
22.66375903172734
 30
0.0
 10
79.68249637858226
 20
22.65683769815504
 30
0.0
 10
79.67564042935183
 20
22.648541743784
 30
0.0
 10
79.67059841127596
 20
22.6390318206803
 30
0.0
 10
79.66735000210856
 20
22.62872638824899
 30
0.0
 10
79.66694393724998
 20
22.62157865112743
 30
0.0
 10
79.66674091000834
 20
22.61800487388195
 30
0.0
  0
LINE
  5
298
330
1F
100
AcDbEntity
  8
SLD-0
  6
Continuous
370
    15
100
AcDbLine
 10
79.66674091
 20
21.8926052004
 30
0.0
 11
79.66674091
 21
9.3060589746
 31
0.0
  0
LINE
  5
299
330
1F
100
AcDbEntity
  8
SLD-0
  6
Continuous
370
    15
100
AcDbLine
 10
79.66674091
 20
9.3060589746
 30
0.0
 11
79.7003412685
 21
9.3060589746
 31
0.0
  0
LINE
  5
29A
330
1F
100
AcDbEntity
  8
SLD-0
  6
Continuous
370
    15
100
AcDbLine
 10
79.7003412685
 20
21.8926052004
 30
0.0
 11
79.66674091
 21
21.8926052004
 31
0.0
  0
LINE
  5
29B
330
1F
100
AcDbEntity
  8
SLD-0
  6
Continuous
370
    15
100
AcDbLine
 10
79.7003412685
 20
9.3251048879
 30
0.0
 11
79.7003412685
 21
9.3060589746
 31
0.0
  0
LINE
  5
29C
330
1F
100
AcDbEntity
  8
SLD-0
  6
Continuous
370
    15
100
AcDbLine
 10
79.66674091
 20
7.8060588094
 30
0.0
 11
79.7003412685
 21
7.8060588094
 31
0.0
  0
LINE
  5
29D
330
1F
100
AcDbEntity
  8
SLD-0
  6
Continuous
370
    15
100
AcDbLine
 10
79.66674091
 20
7.8060588094
 30
0.0
 11
79.66674091
 21
7.1831820583
 31
0.0
  0
LINE
  5
29E
330
1F
100
AcDbEntity
  8
SLD-0
  6
Continuous
370
    15
100
AcDbLine
 10
79.66674091
 20
6.540807079
 30
0.0
 11
79.66674091
 21
6.5176046804
 31
0.0
  0
LINE
  5
29F
330
1F
100
AcDbEntity
  8
SLD-0
  6
Continuous
370
    15
100
AcDbLine
 10
79.7003412685
 20
6.5176046804
 30
0.0
 11
79.66674091
 21
6.5176046804
 31
0.0
  0
LINE
  5
2A0
330
1F
100
AcDbEntity
  8
SLD-0
  6
Continuous
370
    15
100
AcDbLine
 10
79.66674091
 20
7.8060588094
 30
0.0
 11
79.66674091
 21
9.3060589746
 31
0.0
  0
SPLINE
  5
2A1
330
1F
100
AcDbEntity
  8
SLD-0
  6
Continuous
370
    15
100
AcDbSpline
210
0.0
220
0.0
230
1.0
 70
     8
 71
     3
 72
    15
 73
    11
 74
     0
 42
0.00000001
 43
0.00000001
 12
1.0
 22
0.0
 32
0.0
 13
1.0
 23
0.0
 33
0.0
 40
0.0
 40
0.0
 40
0.0
 40
0.0
 40
0.1249999280033389
 40
0.2500011367708692
 40
0.3750011249416777
 40
0.5000002890313046
 40
0.6250008456886404
 40
0.7500018787529489
 40
0.8750025145034751
 40
1.0
 40
1.0
 40
1.0
 40
1.0
 10
79.73270260134659
 20
3.267505372503432
 30
0.0
 10
79.73998874429364
 20
3.267719703884548
 30
0.0
 10
79.75456110484244
 20
3.268148368842844
 30
0.0
 10
79.77625728419905
 20
3.27157206792402
 30
0.0
 10
79.7976334076848
 20
3.276896630978752
 30
0.0
 10
79.81854532080685
 20
3.284114803375952
 30
0.0
 10
79.83887164981677
 20
3.292896544486122
 30
0.0
 10
79.85848696967652
 20
3.302921265028279
 30
0.0
 10
79.87739221258407
 20
3.313795209733981
 30
0.0
 10
79.88930072767828
 20
3.321334977432102
 30
0.0
 10
79.89525491019512
 20
3.325104813776438
 30
0.0
  0
LINE
  5
2A2
330
1F
100
AcDbEntity
  8
SLD-0
  6
Continuous
370
    15
100
AcDbLine
 10
94.2883005872
 20
3.3251048138
 30
0.0
 11
79.8952549102
 21
3.3251048138
 31
0.0
  0
SPLINE
  5
2A3
330
1F
100
AcDbEntity
  8
SLD-0
  6
Continuous
370
    15
100
AcDbSpline
210
0.0
220
0.0
230
1.0
 70
     8
 71
     3
 72
    15
 73
    11
 74
     0
 42
0.00000001
 43
0.00000001
 12
1.0
 22
0.0
 32
0.0
 13
1.0
 23
0.0
 33
0.0
 40
0.0
 40
0.0
 40
0.0
 40
0.0
 40
0.124998693439339
 40
0.2499969320690469
 40
0.3750003349967582
 40
0.4999998034770899
 40
0.6249986356531403
 40
0.7500001779653319
 40
0.8749980241755404
 40
1.0
 40
1.0
 40
1.0
 40
1.0
 10
94.28830058716991
 20
3.325104813776436
 30
0.0
 10
94.29381131772774
 20
3.321335016007555
 30
0.0
 10
94.30483275879253
 20
3.313795434186255
 30
0.0
 10
94.32032252422218
 20
3.302920975405203
 30
0.0
 10
94.33510086113611
 20
3.292896745680597
 30
0.0
 10
94.34917039889838
 20
3.28411475005284
 30
0.0
 10
94.36265344022056
 20
3.276896574822401
 30
0.0
 10
94.37567137418124
 20
3.271572180336826
 30
0.0
 10
94.38837116060446
 20
3.268148300622329
 30
0.0
 10
94.39672835396156
 20
3.267719684236424
 30
0.0
 10
94.40090701966413
 20
3.267505372503432
 30
0.0
  0
LINE
  5
2A4
330
1F
100
AcDbEntity
  8
SLD-0
  6
Continuous
370
    15
100
AcDbLine
 10
79.7327026013
 20
3.2675053725
 30
0.0
 11
94.4009070197
 21
3.2675053725
 31
0.0
  0
LINE
  5
2A5
330
1F
100
AcDbEntity
  8
SLD-0
  6
Continuous
370
    15
100
AcDbLine
 10
79.7327026013
 20
3.2951053737
 30
0.0
 11
79.7327026013
 21
3.2675053725
 31
0.0
  0
SPLINE
  5
2A6
330
1F
100
AcDbEntity
  8
SLD-0
  6
Continuous
370
    15
100
AcDbSpline
210
0.0
220
0.0
230
1.0
 70
     8
 71
     3
 72
    11
 73
     7
 74
     0
 42
0.00000001
 43
0.00000001
 12
1.0
 22
0.0
 32
0.0
 13
1.0
 23
0.0
 33
0.0
 40
0.0
 40
0.0
 40
0.0
 40
0.0
 40
0.2500003130479616
 40
0.5000001466842682
 40
0.7500012004415542
 40
1.0
 40
1.0
 40
1.0
 40
1.0
 10
79.73270260134659
 20
3.295105373665863
 30
0.0
 10
79.74592311916626
 20
3.29555624663417
 30
0.0
 10
79.77236412945335
 20
3.296457991706171
 30
0.0
 10
79.81132275548387
 20
3.303394575984328
 30
0.0
 10
79.84916523888273
 20
3.313310919104809
 30
0.0
 10
79.87299885964619
 20
3.321173527368486
 30
0.0
 10
79.8849156163022
 20
3.325104813776438
 30
0.0
  0
LINE
  5
2A7
330
1F
100
AcDbEntity
  8
SLD-0
  6
Continuous
370
    15
100
AcDbLine
 10
79.8849156163
 20
3.3251048138
 30
0.0
 11
79.8952549102
 21
3.3251048138
 31
0.0
  0
SPLINE
  5
2A8
330
1F
100
AcDbEntity
  8
SLD-0
  6
Continuous
370
    15
100
AcDbSpline
210
0.0
220
0.0
230
1.0
 70
     8
 71
     3
 72
    11
 73
     7
 74
     0
 42
0.00000001
 43
0.00000001
 12
1.0
 22
0.0
 32
0.0
 13
1.0
 23
0.0
 33
0.0
 40
0.0
 40
0.0
 40
0.0
 40
0.0
 40
0.1052582476945682
 40
0.403505271866301
 40
0.701748005899126
 40
1.0
 40
1.0
 40
1.0
 40
1.0
 10
94.29911507557335
 20
3.317676526255316
 30
0.0
 10
94.30298275820975
 20
3.316305723297653
 30
0.0
 10
94.3178094379985
 20
3.311050779079775
 30
0.0
 10
94.34189842118664
 20
3.303439125045131
 30
0.0
 10
94.37179129458768
 20
3.296446789169189
 30
0.0
 10
94.3912016775288
 20
3.295552516794572
 30
0.0
 10
94.40090701966413
 20
3.295105373665863
 30
0.0
  0
ARC
  5
2A9
330
1F
100
AcDbEntity
  8
SLD-0
  6
Continuous
370
    15
100
AcDbCircle
 10
79.7327028133
 20
3.3251049077
 30
0.0
 40
0.0300000000000016
100
AcDbArc
 50
179.9999999999
 51
270.0
  0
ARC
  5
2AA
330
1F
100
AcDbEntity
  8
SLD-0
  6
Continuous
370
    15
100
AcDbCircle
 10
79.7327028133
 20
3.3251049077
 30
0.0
 40
0.0576000000000012
100
AcDbArc
 50
180.0
 51
270.0
  0
LINE
  5
2AB
330
1F
100
AcDbEntity
  8
SLD-0
  6
Continuous
370
    15
100
AcDbLine
 10
79.6751025734
 20
3.3251048138
 30
0.0
 11
79.6751025734
 21
3.8321045035
 31
0.0
  0
ARC
  5
2AC
330
1F
100
AcDbEntity
  8
SLD-0
  6
Continuous
370
    15
100
AcDbCircle
 10
79.6731343094
 20
3.8321049077
 30
0.0
 40
0.0295685039370017
100
AcDbArc
 50
23.0557258676
 51
180.0
  0
ARC
  5
2AD
330
1F
100
AcDbEntity
  8
SLD-0
  6
Continuous
370
    15
100
AcDbCircle
 10
79.6731343094
 20
3.8321049077
 30
0.0
 40
0.0019685039370216
100
AcDbArc
 50
0.0
 51
180.0
  0
LINE
  5
2AE
330
1F
100
AcDbEntity
  8
SLD-0
  6
Continuous
370
    15
100
AcDbLine
 10
79.6711660856
 20
3.8321045035
 30
0.0
 11
79.6435660844
 21
3.8321045035
 31
0.0
  0
LINE
  5
2AF
330
1F
100
AcDbEntity
  8
SLD-0
  6
Continuous
370
    15
100
AcDbLine
 10
79.6435660844
 20
3.8321045035
 30
0.0
 11
79.6435660844
 21
3.3756737229
 31
0.0
  0
LINE
  5
2B0
330
1F
100
AcDbEntity
  8
SLD-0
  6
Continuous
370
    15
100
AcDbLine
 10
79.6711660856
 20
3.8321045035
 30
0.0
 11
79.6711660856
 21
3.3756737229
 31
0.0
  0
LINE
  5
2B1
330
1F
100
AcDbEntity
  8
SLD-0
  6
Continuous
370
    15
100
AcDbLine
 10
79.6711660856
 20
3.3756737229
 30
0.0
 11
79.6435660844
 21
3.3756737229
 31
0.0
  0
LINE
  5
2B2
330
1F
100
AcDbEntity
  8
SLD-0
  6
Continuous
370
    15
100
AcDbLine
 10
80.973839677
 20
3.7951050376
 30
0.0
 11
79.8952549102
 21
3.3251048138
 31
0.0
  0
LINE
  5
2B3
330
1F
100
AcDbEntity
  8
SLD-0
  6
Continuous
370
    15
100
AcDbLine
 10
80.973839677
 20
3.7951050376
 30
0.0
 11
93.2616757002
 21
3.7951050376
 31
0.0
  0
LINE
  5
2B4
330
1F
100
AcDbEntity
  8
SLD-0
  6
Continuous
370
    15
100
AcDbLine
 10
94.2883005872
 20
3.3251048138
 30
0.0
 11
93.2616757002
 21
3.7951050376
 31
0.0
  0
LINE
  5
2B5
330
1F
100
AcDbEntity
  8
SLD-0
  6
Continuous
370
    15
100
AcDbLine
 10
80.9635003831
 20
3.7951050376
 30
0.0
 11
79.8849156163
 21
3.3251048138
 31
0.0
  0
LINE
  5
2B6
330
1F
100
AcDbEntity
  8
SLD-0
  6
Continuous
370
    15
100
AcDbLine
 10
80.9635003831
 20
3.7951050376
 30
0.0
 11
80.973839677
 21
3.7951050376
 31
0.0
  0
LINE
  5
2B7
330
1F
100
AcDbEntity
  8
SLD-0
  6
Continuous
370
    15
100
AcDbLine
 10
94.4009070197
 20
3.2951053737
 30
0.0
 11
94.4009070197
 21
3.2675053725
 31
0.0
  0
LINE
  5
2B8
330
1F
100
AcDbEntity
  8
SLD-0
  6
Continuous
370
    15
100
AcDbLine
 10
94.6327027953
 20
3.2951053737
 30
0.0
 11
94.6327027953
 21
3.2675053725
 31
0.0
  0
LINE
  5
2B9
330
1F
100
AcDbEntity
  8
SLD-0
  6
Continuous
370
    15
100
AcDbLine
 10
94.4009070197
 20
3.2675053725
 30
0.0
 11
94.6327027953
 21
3.2675053725
 31
0.0
  0
LINE
  5
2BA
330
1F
100
AcDbEntity
  8
SLD-0
  6
Continuous
370
    15
100
AcDbLine
 10
94.4009070197
 20
3.2951053737
 30
0.0
 11
94.6327027953
 21
3.2951053737
 31
0.0
  0
SPLINE
  5
2BB
330
1F
100
AcDbEntity
  8
SLD-0
  6
Continuous
370
    15
100
AcDbSpline
210
0.0
220
0.0
230
1.0
 70
     8
 71
     3
 72
    11
 73
     7
 74
     0
 42
0.00000001
 43
0.00000001
 12
1.0
 22
0.0
 32
0.0
 13
1.0
 23
0.0
 33
0.0
 40
0.0
 40
0.0
 40
0.0
 40
0.0
 40
0.2500076606605585
 40
0.5000020549299303
 40
0.7499990070018432
 40
1.0
 40
1.0
 40
1.0
 40
1.0
 10
94.63270279527289
 20
3.295105373665863
 30
0.0
 10
94.63663379118384
 20
3.295556213491396
 30
0.0
 10
94.64449557441162
 20
3.296457869219126
 30
0.0
 10
94.65441245277567
 20
3.303394583662996
 30
0.0
 10
94.66134965893481
 20
3.313311081054331
 30
0.0
 10
94.66225176524358
 20
3.321173548354549
 30
0.0
 10
94.66270282204336
 20
3.325104813776438
 30
0.0
  0
LINE
  5
2BC
330
1F
100
AcDbEntity
  8
SLD-0
  6
Continuous
370
    15
100
AcDbLine
 10
94.662702822
 20
3.3251048138
 30
0.0
 11
94.6903028232
 21
3.3251048138
 31
0.0
  0
SPLINE
  5
2BD
330
1F
100
AcDbEntity
  8
SLD-0
  6
Continuous
370
    15
100
AcDbSpline
210
0.0
220
0.0
230
1.0
 70
     8
 71
     3
 72
    15
 73
    11
 74
     0
 42
0.00000001
 43
0.00000001
 12
1.0
 22
0.0
 32
0.0
 13
1.0
 23
0.0
 33
0.0
 40
0.0
 40
0.0
 40
0.0
 40
0.0
 40
0.1250041002218502
 40
0.2500030207396479
 40
0.3750030515993761
 40
0.5000034561085758
 40
0.6249978207180731
 40
0.7500057142468626
 40
0.8749998837741318
 40
1.0
 40
1.0
 40
1.0
 40
1.0
 10
94.63270279527289
 20
3.267505372503432
 30
0.0
 10
94.63647279742065
 20
3.267719686662058
 30
0.0
 10
94.64401264550138
 20
3.268148306098933
 30
0.0
 10
94.65488717519521
 20
3.271572094968215
 30
0.0
 10
94.66491093388524
 20
3.276896733891848
 30
0.0
 10
94.67369255664235
 20
3.284114394931139
 30
0.0
 10
94.68091167531225
 20
3.292897294160913
 30
0.0
 10
94.68623418676313
 20
3.302920435516109
 30
0.0
 10
94.68965946661545
 20
3.313795791377613
 30
0.0
 10
94.6900883676082
 20
3.321335079863627
 30
0.0
 10
94.69030282320578
 20
3.325104813776438
 30
0.0
  0
LINE
  5
2BE
330
1F
100
AcDbEntity
  8
SLD-0
  6
Continuous
370
    15
100
AcDbLine
 10
94.662702822
 20
3.7951050376
 30
0.0
 11
94.6903028232
 21
3.7951050376
 31
0.0
  0
LINE
  5
2BF
330
1F
100
AcDbEntity
  8
SLD-0
  6
Continuous
370
    15
100
AcDbLine
 10
94.6903028232
 20
3.7951050376
 30
0.0
 11
94.6903028232
 21
3.3251048138
 31
0.0
  0
LINE
  5
2C0
330
1F
100
AcDbEntity
  8
SLD-0
  6
Continuous
370
    15
100
AcDbLine
 10
79.7027025746
 20
25.6327051411
 30
0.0
 11
79.6751025734
 21
25.6327051411
 31
0.0
  0
LINE
  5
2C1
330
1F
100
AcDbEntity
  8
SLD-0
  6
Continuous
370
    15
100
AcDbLine
 10
79.6751025734
 20
25.6327051411
 30
0.0
 11
79.6751025734
 21
26.0077051824
 31
0.0
  0
LINE
  5
2C2
330
1F
100
AcDbEntity
  8
SLD-0
  6
Continuous
370
    15
100
AcDbLine
 10
79.7027025746
 20
26.0077051824
 30
0.0
 11
79.6751025734
 21
26.0077051824
 31
0.0
  0
LINE
  5
2C3
330
1F
100
AcDbEntity
  8
SLD-0
  6
Continuous
370
    15
100
AcDbLine
 10
79.7027025746
 20
25.6327051411
 30
0.0
 11
79.7027025746
 21
26.0077051824
 31
0.0
  0
LINE
  5
2C4
330
1F
100
AcDbEntity
  8
SLD-0
  6
Continuous
370
    15
100
AcDbLine
 10
79.6751025734
 20
24.4127048347
 30
0.0
 11
79.6751025734
 21
25.6327051411
 31
0.0
  0
LINE
  5
2C5
330
1F
100
AcDbEntity
  8
SLD-0
  6
Continuous
370
    15
100
AcDbLine
 10
79.7027025746
 20
25.6327051411
 30
0.0
 11
79.7027025746
 21
24.4127048347
 31
0.0
  0
LINE
  5
2C6
330
1F
100
AcDbEntity
  8
SLD-0
  6
Continuous
370
    15
100
AcDbLine
 10
79.7027025746
 20
24.4127048347
 30
0.0
 11
79.6751025734
 21
24.4127048347
 31
0.0
  0
SPLINE
  5
2C7
330
1F
100
AcDbEntity
  8
SLD-0
  6
Continuous
370
    15
100
AcDbSpline
210
0.0
220
0.0
230
1.0
 70
     8
 71
     3
 72
    14
 73
    10
 74
     0
 42
0.00000001
 43
0.00000001
 12
1.0
 22
0.0
 32
0.0
 13
1.0
 23
0.0
 33
0.0
 40
0.0
 40
0.0
 40
0.0
 40
0.0
 40
0.1503067002763376
 40
0.31467493912524
 40
0.493151636955032
 40
0.6282591874637444
 40
0.7577048920069573
 40
0.8815784667776814
 40
1.0
 40
1.0
 40
1.0
 40
1.0
 10
94.28830058716991
 20
24.32510477998483
 30
0.0
 10
94.29486745890804
 20
24.32970258639945
 30
0.0
 10
94.30861554838538
 20
24.33932833462602
 30
0.0
 10
94.32883958342485
 20
24.35296781400513
 30
0.0
 10
94.3476961922663
 20
24.36409034095024
 30
0.0
 10
94.36427115153374
 20
24.37248179538695
 30
0.0
 10
94.37778658265955
 20
24.37823393978557
 30
0.0
 10
94.38996575573029
 20
24.38196925359611
 30
0.0
 10
94.39731505549506
 20
24.38246332898224
 30
0.0
 10
94.40090701966413
 20
24.38270480791773
 30
0.0
  0
LINE
  5
2C8
330
1F
100
AcDbEntity
  8
SLD-0
  6
Continuous
370
    15
100
AcDbLine
 10
80.106254766
 20
24.32510478
 30
0.0
 11
94.2883005872
 21
24.32510478
 31
0.0
  0
SPLINE
  5
2C9
330
1F
100
AcDbEntity
  8
SLD-0
  6
Continuous
370
    15
100
AcDbSpline
210
0.0
220
0.0
230
1.0
 70
     8
 71
     3
 72
    14
 73
    10
 74
     0
 42
0.00000001
 43
0.00000001
 12
1.0
 22
0.0
 32
0.0
 13
1.0
 23
0.0
 33
0.0
 40
0.0
 40
0.0
 40
0.0
 40
0.0
 40
0.1503703823043359
 40
0.3148963298400089
 40
0.49362544560851
 40
0.6288442387128025
 40
0.7582510788819029
 40
0.88193569465375
 40
1.0
 40
1.0
 40
1.0
 40
1.0
 10
79.94370304385147
 20
24.38270480791773
 30
0.0
 10
79.95245998143102
 20
24.38237746250385
 30
0.0
 10
79.97079821707409
 20
24.3816919560375
 30
0.0
 10
79.99932584486575
 20
24.37618892563997
 30
0.0
 10
80.02643133901223
 20
24.3682095271161
 30
0.0
 10
80.05077209056567
 20
24.35856374532719
 30
0.0
 10
80.07116744697211
 20
24.34828749486296
 30
0.0
 10
80.08975126315143
 20
24.33711821726366
 30
0.0
 10
80.10083952707438
 20
24.32904670880463
 30
0.0
 10
80.10625476604011
 20
24.32510477998483
 30
0.0
  0
LINE
  5
2CA
330
1F
100
AcDbEntity
  8
SLD-0
  6
Continuous
370
    15
100
AcDbLine
 10
79.9437030439
 20
24.3827048079
 30
0.0
 11
94.4009070197
 21
24.3827048079
 31
0.0
  0
LINE
  5
2CB
330
1F
100
AcDbEntity
  8
SLD-0
  6
Continuous
370
    15
100
AcDbLine
 10
79.9437030439
 20
24.3827048079
 30
0.0
 11
79.9437030439
 21
24.3551048068
 31
0.0
  0
LINE
  5
2CC
330
1F
100
AcDbEntity
  8
SLD-0
  6
Continuous
370
    15
100
AcDbLine
 10
80.0959160588
 20
24.32510478
 30
0.0
 11
80.106254766
 21
24.32510478
 31
0.0
  0
SPLINE
  5
2CD
330
1F
100
AcDbEntity
  8
SLD-0
  6
Continuous
370
    15
100
AcDbSpline
210
0.0
220
0.0
230
1.0
 70
     8
 71
     3
 72
    11
 73
     7
 74
     0
 42
0.00000001
 43
0.00000001
 12
1.0
 22
0.0
 32
0.0
 13
1.0
 23
0.0
 33
0.0
 40
0.0
 40
0.0
 40
0.0
 40
0.0
 40
0.2309761339275015
 40
0.4965305072399584
 40
0.762487412331673
 40
1.0
 40
1.0
 40
1.0
 40
1.0
 10
79.94370304385147
 20
24.3551048067553
 30
0.0
 10
79.95592151397264
 20
24.3546912485683
 30
0.0
 10
79.98218761802332
 20
24.35380222054247
 30
0.0
 10
80.02178769357484
 20
24.3473987006519
 30
0.0
 10
80.06085422928295
 20
24.338076449311
 30
0.0
 10
80.084677425541
 20
24.32926268721284
 30
0.0
 10
80.09591605880708
 20
24.32510477998483
 30
0.0
  0
SPLINE
  5
2CE
330
1F
100
AcDbEntity
  8
SLD-0
  6
Continuous
370
    15
100
AcDbSpline
210
0.0
220
0.0
230
1.0
 70
     8
 71
     3
 72
    11
 73
     7
 74
     0
 42
0.00000001
 43
0.00000001
 12
1.0
 22
0.0
 32
0.0
 13
1.0
 23
0.0
 33
0.0
 40
0.0
 40
0.0
 40
0.0
 40
0.0
 40
0.0850011706568618
 40
0.400723233246184
 40
0.7171225757710105
 40
1.0
 40
1.0
 40
1.0
 40
1.0
 10
94.29884873198351
 20
24.33244917514175
 30
0.0
 10
94.30198050824356
 20
24.33356523645172
 30
0.0
 10
94.31674472265416
 20
24.3388267133605
 30
0.0
 10
94.34186083643091
 20
24.34602123222528
 30
0.0
 10
94.37302050074541
 20
24.35341423927725
 30
0.0
 10
94.39196474321963
 20
24.35456269815505
 30
0.0
 10
94.40090701966413
 20
24.3551048067553
 30
0.0
  0
LINE
  5
2CF
330
1F
100
AcDbEntity
  8
SLD-0
  6
Continuous
370
    15
100
AcDbLine
 10
79.9437030439
 20
24.3551048068
 30
0.0
 11
79.7327026013
 21
24.3551048068
 31
0.0
  0
LINE
  5
2D0
330
1F
100
AcDbEntity
  8
SLD-0
  6
Continuous
370
    15
100
AcDbLine
 10
79.7327026013
 20
24.3551048068
 30
0.0
 11
79.7327026013
 21
24.3827048079
 31
0.0
  0
LINE
  5
2D1
330
1F
100
AcDbEntity
  8
SLD-0
  6
Continuous
370
    15
100
AcDbLine
 10
79.9437030439
 20
24.3827048079
 30
0.0
 11
79.7327026013
 21
24.3827048079
 31
0.0
  0
ARC
  5
2D2
330
1F
100
AcDbEntity
  8
SLD-0
  6
Continuous
370
    15
100
AcDbCircle
 10
79.7327028133
 20
24.4127049077
 30
0.0
 40
0.0300000000000153
100
AcDbArc
 50
180.0
 51
270.0
  0
ARC
  5
2D3
330
1F
100
AcDbEntity
  8
SLD-0
  6
Continuous
370
    15
100
AcDbCircle
 10
79.7327028133
 20
24.4127049077
 30
0.0
 40
0.0575999999999972
100
AcDbArc
 50
180.0
 51
270.0
  0
LINE
  5
2D4
330
1F
100
AcDbEntity
  8
SLD-0
  6
Continuous
370
    15
100
AcDbLine
 10
81.1848395328
 20
23.8551051428
 30
0.0
 11
93.2616757002
 21
23.8551051428
 31
0.0
  0
LINE
  5
2D5
330
1F
100
AcDbEntity
  8
SLD-0
  6
Continuous
370
    15
100
AcDbLine
 10
81.1848395328
 20
23.8551051428
 30
0.0
 11
80.106254766
 21
24.32510478
 31
0.0
  0
LINE
  5
2D6
330
1F
100
AcDbEntity
  8
SLD-0
  6
Continuous
370
    15
100
AcDbLine
 10
94.2883005872
 20
24.32510478
 30
0.0
 11
93.2616757002
 21
23.8551051428
 31
0.0
  0
LINE
  5
2D7
330
1F
100
AcDbEntity
  8
SLD-0
  6
Continuous
370
    15
100
AcDbLine
 10
81.1745002389
 20
23.8551051428
 30
0.0
 11
80.0959160588
 21
24.32510478
 31
0.0
  0
LINE
  5
2D8
330
1F
100
AcDbEntity
  8
SLD-0
  6
Continuous
370
    15
100
AcDbLine
 10
81.1848395328
 20
23.8551051428
 30
0.0
 11
81.1745002389
 21
23.8551051428
 31
0.0
  0
LINE
  5
2D9
330
1F
100
AcDbEntity
  8
SLD-0
  6
Continuous
370
    15
100
AcDbLine
 10
94.4009070197
 20
24.3551048068
 30
0.0
 11
94.4009070197
 21
24.3827048079
 31
0.0
  0
LINE
  5
2DA
330
1F
100
AcDbEntity
  8
SLD-0
  6
Continuous
370
    15
100
AcDbLine
 10
94.6327027953
 20
24.3551048068
 30
0.0
 11
94.6327027953
 21
24.3827048079
 31
0.0
  0
LINE
  5
2DB
330
1F
100
AcDbEntity
  8
SLD-0
  6
Continuous
370
    15
100
AcDbLine
 10
94.4009070197
 20
24.3551048068
 30
0.0
 11
94.6327027953
 21
24.3551048068
 31
0.0
  0
LINE
  5
2DC
330
1F
100
AcDbEntity
  8
SLD-0
  6
Continuous
370
    15
100
AcDbLine
 10
94.4009070197
 20
24.3827048079
 30
0.0
 11
94.6327027953
 21
24.3827048079
 31
0.0
  0
SPLINE
  5
2DD
330
1F
100
AcDbEntity
  8
SLD-0
  6
Continuous
370
    15
100
AcDbSpline
210
0.0
220
0.0
230
1.0
 70
     8
 71
     3
 72
    15
 73
    11
 74
     0
 42
0.00000001
 43
0.00000001
 12
1.0
 22
0.0
 32
0.0
 13
1.0
 23
0.0
 33
0.0
 40
0.0
 40
0.0
 40
0.0
 40
0.0
 40
0.1250039767871466
 40
0.2500053519274364
 40
0.3750031659087547
 40
0.5000034469869001
 40
0.6249976881713073
 40
0.7500015418737347
 40
0.8749955879761064
 40
1.0
 40
1.0
 40
1.0
 40
1.0
 10
94.63270279527289
 20
24.38270480791773
 30
0.0
 10
94.63647282714386
 20
24.38249063190712
 30
0.0
 10
94.64401281242198
 20
24.38206228434346
 30
0.0
 10
94.65488690584884
 20
24.3786363902271
 30
0.0
 10
94.66491106389888
 20
24.37331310571532
 30
0.0
 10
94.67369254850784
 20
24.3660951452953
 30
0.0
 10
94.68091155147287
 20
24.35731231934326
 30
0.0
 10
94.68623428742046
 20
24.34728971557116
 30
0.0
 10
94.68965949234645
 20
24.33641428588493
 30
0.0
 10
94.6900883736583
 20
24.32887471949158
 30
0.0
 10
94.69030282320578
 20
24.32510477998483
 30
0.0
  0
LINE
  5
2DE
330
1F
100
AcDbEntity
  8
SLD-0
  6
Continuous
370
    15
100
AcDbLine
 10
94.662702822
 20
24.32510478
 30
0.0
 11
94.6903028232
 21
24.32510478
 31
0.0
  0
SPLINE
  5
2DF
330
1F
100
AcDbEntity
  8
SLD-0
  6
Continuous
370
    15
100
AcDbSpline
210
0.0
220
0.0
230
1.0
 70
     8
 71
     3
 72
    11
 73
     7
 74
     0
 42
0.00000001
 43
0.00000001
 12
1.0
 22
0.0
 32
0.0
 13
1.0
 23
0.0
 33
0.0
 40
0.0
 40
0.0
 40
0.0
 40
0.0
 40
0.2500071930495682
 40
0.5000036775305199
 40
0.7500039902943616
 40
1.0
 40
1.0
 40
1.0
 40
1.0
 10
94.63270279527289
 20
24.3551048067553
 30
0.0
 10
94.6366337992169
 20
24.35465400923051
 30
0.0
 10
94.64449563872807
 20
24.35375243348998
 30
0.0
 10
94.65441247144689
 20
24.34681499693439
 30
0.0
 10
94.66134957650029
 20
24.33689784315066
 30
0.0
 10
94.66225174278374
 20
24.32903577848599
 30
0.0
 10
94.66270282204336
 20
24.32510477998483
 30
0.0
  0
LINE
  5
2E0
330
1F
100
AcDbEntity
  8
SLD-0
  6
Continuous
370
    15
100
AcDbLine
 10
94.6903028232
 20
23.8551051428
 30
0.0
 11
94.6903028232
 21
24.32510478
 31
0.0
  0
LINE
  5
2E1
330
1F
100
AcDbEntity
  8
SLD-0
  6
Continuous
370
    15
100
AcDbLine
 10
94.6903028232
 20
23.8551051428
 30
0.0
 11
94.662702822
 21
23.8551051428
 31
0.0
  0
LINE
  5
2E2
330
1F
100
AcDbEntity
  8
SLD-0
  6
Continuous
370
    15
100
AcDbLine
 10
79.7339410404
 20
3.7001048551
 30
0.0
 11
79.7003412685
 21
3.7001048551
 31
0.0
  0
LINE
  5
2E3
330
1F
100
AcDbEntity
  8
SLD-0
  6
Continuous
370
    15
100
AcDbLine
 10
79.7339410404
 20
3.3251048138
 30
0.0
 11
79.7339410404
 21
3.7001048551
 31
0.0
  0
LINE
  5
2E4
330
1F
100
AcDbEntity
  8
SLD-0
  6
Continuous
370
    15
100
AcDbLine
 10
79.7003412685
 20
3.3251048138
 30
0.0
 11
79.7339410404
 21
3.3251048138
 31
0.0
  0
LINE
  5
2E5
330
1F
100
AcDbEntity
  8
SLD-0
  6
Continuous
370
    15
100
AcDbLine
 10
79.7003412685
 20
3.7001048551
 30
0.0
 11
79.7003412685
 21
3.3251048138
 31
0.0
  0
LINE
  5
2E6
330
1F
100
AcDbEntity
  8
SLD-0
  6
Continuous
370
    15
100
AcDbLine
 10
79.7339410404
 20
24.32510478
 30
0.0
 11
79.7339410404
 21
9.3251048879
 31
0.0
  0
LINE
  5
2E7
330
1F
100
AcDbEntity
  8
SLD-0
  6
Continuous
370
    15
100
AcDbLine
 10
79.7003412685
 20
24.32510478
 30
0.0
 11
79.7339410404
 21
24.32510478
 31
0.0
  0
LINE
  5
2E8
330
1F
100
AcDbEntity
  8
SLD-0
  6
Continuous
370
    15
100
AcDbLine
 10
79.7003412685
 20
24.32510478
 30
0.0
 11
79.7003412685
 21
9.3251048879
 31
0.0
  0
LINE
  5
2E9
330
1F
100
AcDbEntity
  8
SLD-0
  6
Continuous
370
    15
100
AcDbLine
 10
79.7339410404
 20
9.3251048879
 30
0.0
 11
79.7003412685
 21
9.3251048879
 31
0.0
  0
LINE
  5
2EA
330
1F
100
AcDbEntity
  8
SLD-0
  6
Continuous
370
    15
100
AcDbLine
 10
79.7339410404
 20
7.8251047227
 30
0.0
 11
79.7339410404
 21
3.7001048551
 31
0.0
  0
LINE
  5
2EB
330
1F
100
AcDbEntity
  8
SLD-0
  6
Continuous
370
    15
100
AcDbLine
 10
79.7339410404
 20
7.8251047227
 30
0.0
 11
79.7003412685
 21
7.8251047227
 31
0.0
  0
LINE
  5
2EC
330
1F
100
AcDbEntity
  8
SLD-0
  6
Continuous
370
    15
100
AcDbLine
 10
79.7003412685
 20
7.8251047227
 30
0.0
 11
79.7003412685
 21
3.7001048551
 31
0.0
  0
LINE
  5
2ED
330
1F
100
AcDbEntity
  8
SLD-0
  6
Continuous
370
    15
100
AcDbLine
 10
79.7339410404
 20
9.3251048879
 30
0.0
 11
79.7339410404
 21
7.8251047227
 31
0.0
  0
LINE
  5
2EE
330
1F
100
AcDbEntity
  8
SLD-0
  6
Continuous
370
    15
100
AcDbLine
 10
79.7003412685
 20
9.3060589746
 30
0.0
 11
79.7003412685
 21
7.8251047227
 31
0.0
  0
LINE
  5
2EF
330
1F
100
AcDbEntity
  8
SLD-0
  6
Continuous
370
    15
100
AcDbLine
 10
79.7527030103
 20
24.32510478
 30
0.0
 11
79.7527030103
 21
11.4652548314
 31
0.0
  0
LINE
  5
2F0
330
1F
100
AcDbEntity
  8
SLD-0
  6
Continuous
370
    15
100
AcDbLine
 10
79.7527030103
 20
11.4652548314
 30
0.0
 11
79.7339410404
 21
11.4652548314
 31
0.0
  0
LINE
  5
2F1
330
1F
100
AcDbEntity
  8
SLD-0
  6
Continuous
370
    15
100
AcDbLine
 10
79.7339410404
 20
24.32510478
 30
0.0
 11
79.7527030103
 21
24.32510478
 31
0.0
  0
LINE
  5
2F2
330
1F
100
AcDbEntity
  8
SLD-0
  6
Continuous
370
    15
100
AcDbLine
 10
79.7527030103
 20
10.7152550421
 30
0.0
 11
79.7527030103
 21
3.3251048138
 31
0.0
  0
LINE
  5
2F3
330
1F
100
AcDbEntity
  8
SLD-0
  6
Continuous
370
    15
100
AcDbLine
 10
79.7339410404
 20
10.7152550421
 30
0.0
 11
79.7527030103
 21
10.7152550421
 31
0.0
  0
LINE
  5
2F4
330
1F
100
AcDbEntity
  8
SLD-0
  6
Continuous
370
    15
100
AcDbLine
 10
79.7527030103
 20
3.3251048138
 30
0.0
 11
79.7339410404
 21
3.3251048138
 31
0.0
  0
LINE
  5
2F5
330
1F
100
AcDbEntity
  8
SLD-0
  6
Continuous
370
    15
100
AcDbLine
 10
79.7527030103
 20
10.7152550421
 30
0.0
 11
79.7527030103
 21
11.4652548314
 31
0.0
  0
LINE
  5
2F6
330
1F
100
AcDbEntity
  8
SLD-0
  6
Continuous
370
    15
100
AcDbLine
 10
79.7527030103
 20
24.32510478
 30
0.0
 11
80.094889404
 21
24.32510478
 31
0.0
  0
LINE
  5
2F7
330
1F
100
AcDbEntity
  8
SLD-0
  6
Continuous
370
    15
100
AcDbLine
 10
94.2883005872
 20
24.32510478
 30
0.0
 11
94.6229278682
 21
24.32510478
 31
0.0
  0
LINE
  5
2F8
330
1F
100
AcDbEntity
  8
SLD-0
  6
Continuous
370
    15
100
AcDbLine
 10
94.6229278682
 20
24.32510478
 30
0.0
 11
94.6229278682
 21
3.3251048138
 31
0.0
  0
LINE
  5
2F9
330
1F
100
AcDbEntity
  8
SLD-0
  6
Continuous
370
    15
100
AcDbLine
 10
79.7527030103
 20
3.3251048138
 30
0.0
 11
79.8838895482
 21
3.3251048138
 31
0.0
  0
LINE
  5
2FA
330
1F
100
AcDbEntity
  8
SLD-0
  6
Continuous
370
    15
100
AcDbLine
 10
94.2883005872
 20
3.3251048138
 30
0.0
 11
94.6229278682
 21
3.3251048138
 31
0.0
  0
LWPOLYLINE
  5
2FB
330
1F
100
AcDbEntity
  8
SLD-0
  6
Continuous
370
    15
100
AcDbPolyline
 90
      141
 70
   128
 43
0.0
 10
88.1212828424
 20
5.3251046429
 10
88.1222456246
 20
5.3713715751
 10
88.1251319913
 20
5.4175452284
 10
88.1299362958
 20
5.4635329105
 10
88.1366486382
 20
5.5092419291
 10
88.1452556721
 20
5.554579592
 10
88.1557400177
 20
5.5994555536
 10
88.1680805551
 20
5.6437788816
 10
88.1822523514
 20
5.6874604036
 10
88.1982270269
 20
5.7304121208
 10
88.2159722419
 20
5.772547794
 10
88.2354523569
 20
5.813781771
 10
88.2566282122
 20
5.8540325061
 10
88.2794569818
 20
5.8932172801
 10
88.3038928329
 20
5.9312586539
 10
88.3298864859
 20
5.9680786019
 10
88.3573855816
 20
6.0036043782
 10
88.3863348272
 20
6.0377632369
 10
88.41667585
 20
6.0704871256
 10
88.4483475641
 20
6.1017097515
 10
88.4812862436
 20
6.1313683422
 10
88.5154254492
 20
6.159403645
 10
88.5506964685
 20
6.1857587539
 10
88.5870281688
 20
6.2103802828
 10
88.6243476576
 20
6.2332189523
 10
88.6625795493
 20
6.254229003
 10
88.7016469913
 20
6.2733681952
 10
88.7414712246
 20
6.2905972228
 10
88.7819720234
 20
6.3058820596
 10
88.823067842
 20
6.3191916125
 10
88.8646759613
 20
6.3304994819
 10
88.9067124891
 20
6.3397822013
 10
88.9490929462
 20
6.3470215843
 10
88.9917318269
 20
6.3522035511
 10
89.0345433324
 20
6.3553163685
 10
89.0774412235
 20
6.3563547565
 10
89.1203389679
 20
6.3553163685
 10
89.1631504733
 20
6.3522035511
 10
89.2057893541
 20
6.3470215843
 10
89.2481698112
 20
6.3397822013
 10
89.2902063389
 20
6.3304994819
 10
89.3318144583
 20
6.3191916125
 10
89.3729102768
 20
6.3058820596
 10
89.4134110756
 20
6.2905972228
 10
89.4532353089
 20
6.2733681952
 10
89.4923027509
 20
6.254229003
 10
89.5305346426
 20
6.2332189523
 10
89.5678541315
 20
6.2103802828
 10
89.6041859785
 20
6.1857587539
 10
89.6394569977
 20
6.159403645
 10
89.6735962033
 20
6.1313683422
 10
89.7065346628
 20
6.1017097515
 10
89.7382063769
 20
6.0704871256
 10
89.7685475464
 20
6.0377632369
 10
89.7974968653
 20
6.0036043782
 10
89.824995961
 20
5.9680786019
 10
89.850989394
 20
5.9312586539
 10
89.8754252451
 20
5.8932172801
 10
89.8982542347
 20
5.8540325061
 10
89.9194300167
 20
5.813781771
 10
89.9389100584
 20
5.772547794
 10
89.9566553467
 20
5.7304121208
 10
89.9726298022
 20
5.6874604036
 10
89.9868017451
 20
5.6437788816
 10
89.9991424292
 20
5.5994555536
 10
90.0096266281
 20
5.554579592
 10
90.0182335153
 20
5.5092419291
 10
90.0249460778
 20
5.4635329105
 10
90.0297502356
 20
5.4175452284
 10
90.0326366023
 20
5.3713715751
 10
90.0335996045
 20
5.3251046429
 10
90.0326366023
 20
5.2788382974
 10
90.0297502356
 20
5.2326646441
 10
90.0249460778
 20
5.1866763754
 10
90.0182335153
 20
5.1409685301
 10
90.0096266281
 20
5.0956302805
 10
89.9991424292
 20
5.0507543189
 10
89.9868017451
 20
5.006430991
 10
89.9726298022
 20
4.9627494689
 10
89.9566553467
 20
4.9197977517
 10
89.9389100584
 20
4.8776626652
 10
89.9194300167
 20
4.8364275148
 10
89.8982542347
 20
4.7961779531
 10
89.8754252451
 20
4.7569925925
 10
89.850989394
 20
4.7189512186
 10
89.824995961
 20
4.6821312706
 10
89.7974968653
 20
4.6466054944
 10
89.7685475464
 20
4.6124466356
 10
89.7382063769
 20
4.579722747
 10
89.7065346628
 20
4.5484995343
 10
89.6735962033
 20
4.5188415303
 10
89.6394569977
 20
4.4908062275
 10
89.6041859785
 20
4.4644511186
 10
89.5678541315
 20
4.4398290031
 10
89.5305346426
 20
4.4169903336
 10
89.4923027509
 20
4.3959808696
 10
89.4532353089
 20
4.3768416774
 10
89.4134110756
 20
4.3596126497
 10
89.3729102768
 20
4.344327813
 10
89.3318144583
 20
4.3310176734
 10
89.2902063389
 20
4.3197103907
 10
89.2481698112
 20
4.3104270846
 10
89.2057893541
 20
4.3031877015
 10
89.1631504733
 20
4.2980063214
 10
89.1203389679
 20
4.294893504
 10
89.0774412235
 20
4.293855116
 10
89.0345433324
 20
4.294893504
 10
88.9917318269
 20
4.2980063214
 10
88.9490929462
 20
4.3031877015
 10
88.9067124891
 20
4.3104270846
 10
88.8646759613
 20
4.3197103907
 10
88.823067842
 20
4.3310176734
 10
88.7819720234
 20
4.344327813
 10
88.7414712246
 20
4.3596126497
 10
88.7016469913
 20
4.3768416774
 10
88.6625795493
 20
4.3959808696
 10
88.6243476576
 20
4.4169903336
 10
88.5870281688
 20
4.4398290031
 10
88.5506964685
 20
4.4644511186
 10
88.5154254492
 20
4.4908062275
 10
88.4812862436
 20
4.5188415303
 10
88.4483475641
 20
4.5484995343
 10
88.41667585
 20
4.579722747
 10
88.3863348272
 20
4.6124466356
 10
88.3573855816
 20
4.6466054944
 10
88.3298864859
 20
4.6821312706
 10
88.3038928329
 20
4.7189512186
 10
88.2794569818
 20
4.7569925925
 10
88.2566282122
 20
4.7961779531
 10
88.2354523569
 20
4.8364275148
 10
88.2159722419
 20
4.8776626652
 10
88.1982270269
 20
4.9197977517
 10
88.1822523514
 20
4.9627494689
 10
88.1680805551
 20
5.006430991
 10
88.1557400177
 20
5.0507543189
 10
88.1452556721
 20
5.0956302805
 10
88.1366486382
 20
5.1409685301
 10
88.1299362958
 20
5.1866763754
 10
88.1251319913
 20
5.2326646441
 10
88.1222456246
 20
5.2788382974
 10
88.1212828424
 20
5.3251046429
  0
LWPOLYLINE
  5
2FC
330
1F
100
AcDbEntity
  8
SLD-0
  6
Continuous
370
    15
100
AcDbPolyline
 90
       85
 70
   128
 43
0.0
 10
86.4272419855
 20
23.3251048654
 10
86.4282142276
 20
23.353128435
 10
86.4311254539
 20
23.3809959531
 10
86.4359593848
 20
23.4085501948
 10
86.4426890337
 20
23.4356380418
 10
86.4512767811
 20
23.4621075494
 10
86.461674521
 20
23.4878114658
 10
86.4738241007
 20
23.5126048861
 10
86.4876576875
 20
23.5363499451
 10
86.5030978425
 20
23.5589134711
 10
86.5200582532
 20
23.5801699189
 10
86.5384439542
 20
23.5999996098
 10
86.5581522798
 20
23.6182916652
 10
86.5790729382
 20
23.6349445928
 10
86.6010889638
 20
23.6498645271
 10
86.6240771583
 20
23.6629681624
 10
86.647909043
 20
23.6741827528
 10
86.6724513361
 20
23.6834449392
 10
86.6975667226
 20
23.6907030953
 10
86.7231148075
 20
23.6959167418
 10
86.7489527024
 20
23.6990565455
 10
86.7749359055
 20
23.7001049067
 10
86.8009191087
 20
23.6990565455
 10
86.8267570036
 20
23.6959167418
 10
86.8523050884
 20
23.6907030953
 10
86.8774205116
 20
23.6834449392
 10
86.9019627681
 20
23.6741827528
 10
86.9257946528
 20
23.6629681624
 10
86.9487828839
 20
23.6498645271
 10
86.9707988912
 20
23.6349445928
 10
86.9917195496
 20
23.6182916652
 10
87.0114278569
 20
23.5999996098
 10
87.0298136128
 20
23.5801699189
 10
87.0467739869
 20
23.5589134711
 10
87.0622141419
 20
23.5363499451
 10
87.0760477104
 20
23.5126048861
 10
87.0881973359
 20
23.4878114658
 10
87.0985950849
 20
23.4621075494
 10
87.1071827957
 20
23.4356380418
 10
87.1139124446
 20
23.4085501948
 10
87.118746403
 20
23.3809959531
 10
87.1216576385
 20
23.353128435
 10
87.1226298623
 20
23.3251048654
 10
87.1216576385
 20
23.2970812958
 10
87.118746403
 20
23.2692137777
 10
87.1139124446
 20
23.241659536
 10
87.1071827957
 20
23.214571689
 10
87.0985950849
 20
23.1881021814
 10
87.0881973359
 20
23.162398265
 10
87.0760477104
 20
23.1376048448
 10
87.0622141419
 20
23.1138597857
 10
87.0467739869
 20
23.0912962597
 10
87.0298136128
 20
23.0700403986
 10
87.0114278569
 20
23.0502107077
 10
86.9917195496
 20
23.0319180657
 10
86.9707988912
 20
23.015265138
 10
86.9487828839
 20
23.0003452037
 10
86.9257946528
 20
22.9872415684
 10
86.9019627681
 20
22.976026978
 10
86.8774205116
 20
22.9667653783
 10
86.8523050884
 20
22.9595072222
 10
86.8267570036
 20
22.9542935757
 10
86.8009191087
 20
22.951153772
 10
86.7749359055
 20
22.9501048241
 10
86.7489527024
 20
22.951153772
 10
86.7231148075
 20
22.9542935757
 10
86.6975667226
 20
22.9595072222
 10
86.6724513361
 20
22.9667653783
 10
86.647909043
 20
22.976026978
 10
86.6240771583
 20
22.9872415684
 10
86.6010889638
 20
23.0003452037
 10
86.5790729382
 20
23.015265138
 10
86.5581522798
 20
23.0319180657
 10
86.5384439542
 20
23.0502107077
 10
86.5200582532
 20
23.0700403986
 10
86.5030978425
 20
23.0912962597
 10
86.4876576875
 20
23.1138597857
 10
86.4738241007
 20
23.1376048448
 10
86.461674521
 20
23.162398265
 10
86.4512767811
 20
23.1881021814
 10
86.4426890337
 20
23.214571689
 10
86.4359593848
 20
23.241659536
 10
86.4311254539
 20
23.2692137777
 10
86.4282142276
 20
23.2970812958
 10
86.4272419855
 20
23.3251048654
  0
LINE
  5
2FD
330
1F
100
AcDbEntity
  8
SLD-0
  6
Continuous
370
    15
100
AcDbLine
 10
81.6341599955
 20
6.3563547565
 30
0.0
 11
81.7213153621
 21
6.3563547565
 31
0.0
  0
LINE
  5
2FE
330
1F
100
AcDbEntity
  8
SLD-0
  6
Continuous
370
    15
100
AcDbLine
 10
81.6341599955
 20
4.293855116
 30
0.0
 11
81.6341599955
 21
6.3563547565
 31
0.0
  0
LINE
  5
2FF
330
1F
100
AcDbEntity
  8
SLD-0
  6
Continuous
370
    15
100
AcDbLine
 10
87.6029058741
 20
4.293855116
 30
0.0
 11
81.6341599955
 21
4.293855116
 31
0.0
  0
LINE
  5
300
330
1F
100
AcDbEntity
  8
SLD-0
  6
Continuous
370
    15
100
AcDbLine
 10
87.6029058741
 20
6.3563547565
 30
0.0
 11
87.6029058741
 21
4.293855116
 31
0.0
  0
LINE
  5
301
330
1F
100
AcDbEntity
  8
SLD-0
  6
Continuous
370
    15
100
AcDbLine
 10
87.5157505992
 20
6.3563547565
 30
0.0
 11
87.6029058741
 21
6.3563547565
 31
0.0
  0
LINE
  5
302
330
1F
100
AcDbEntity
  8
SLD-0
  6
Continuous
370
    15
100
AcDbLine
 10
87.3998526198
 20
6.3563547565
 30
0.0
 11
87.5157505992
 21
6.3563547565
 31
0.0
  0
LINE
  5
303
330
1F
100
AcDbEntity
  8
SLD-0
  6
Continuous
370
    15
100
AcDbLine
 10
87.3998526198
 20
6.3721048146
 30
0.0
 11
87.3998526198
 21
6.3563547565
 31
0.0
  0
LINE
  5
304
330
1F
100
AcDbEntity
  8
SLD-0
  6
Continuous
370
    15
100
AcDbLine
 10
86.2455086849
 20
6.3721048146
 30
0.0
 11
87.3998526198
 21
6.3721048146
 31
0.0
  0
LINE
  5
305
330
1F
100
AcDbEntity
  8
SLD-0
  6
Continuous
370
    15
100
AcDbLine
 10
86.2455086849
 20
6.3563547565
 30
0.0
 11
86.2455086849
 21
6.3721048146
 31
0.0
  0
LINE
  5
306
330
1F
100
AcDbEntity
  8
SLD-0
  6
Continuous
370
    15
100
AcDbLine
 10
86.1296107237
 20
6.3563547565
 30
0.0
 11
86.2455086849
 21
6.3563547565
 31
0.0
  0
LINE
  5
307
330
1F
100
AcDbEntity
  8
SLD-0
  6
Continuous
370
    15
100
AcDbLine
 10
86.1296107237
 20
6.3721048146
 30
0.0
 11
86.1296107237
 21
6.3563547565
 31
0.0
  0
LINE
  5
308
330
1F
100
AcDbEntity
  8
SLD-0
  6
Continuous
370
    15
100
AcDbLine
 10
83.1074548159
 20
6.3721048146
 30
0.0
 11
86.1296107237
 21
6.3721048146
 31
0.0
  0
LINE
  5
309
330
1F
100
AcDbEntity
  8
SLD-0
  6
Continuous
370
    15
100
AcDbLine
 10
83.1074548159
 20
6.3563547565
 30
0.0
 11
83.1074548159
 21
6.3721048146
 31
0.0
  0
LINE
  5
30A
330
1F
100
AcDbEntity
  8
SLD-0
  6
Continuous
370
    15
100
AcDbLine
 10
82.9915569281
 20
6.3563547565
 30
0.0
 11
83.1074548159
 21
6.3563547565
 31
0.0
  0
LINE
  5
30B
330
1F
100
AcDbEntity
  8
SLD-0
  6
Continuous
370
    15
100
AcDbLine
 10
82.9915569281
 20
6.3721048146
 30
0.0
 11
82.9915569281
 21
6.3563547565
 31
0.0
  0
LINE
  5
30C
330
1F
100
AcDbEntity
  8
SLD-0
  6
Continuous
370
    15
100
AcDbLine
 10
81.8372129565
 20
6.3721048146
 30
0.0
 11
82.9915569281
 21
6.3721048146
 31
0.0
  0
LINE
  5
30D
330
1F
100
AcDbEntity
  8
SLD-0
  6
Continuous
370
    15
100
AcDbLine
 10
81.8372129565
 20
6.3563547565
 30
0.0
 11
81.8372129565
 21
6.3721048146
 31
0.0
  0
LINE
  5
30E
330
1F
100
AcDbEntity
  8
SLD-0
  6
Continuous
370
    15
100
AcDbLine
 10
81.7213153621
 20
6.3563547565
 30
0.0
 11
81.8372129565
 21
6.3563547565
 31
0.0
  0
LINE
  5
30F
330
1F
100
AcDbEntity
  8
SLD-0
  6
Continuous
370
    15
100
AcDbLine
 10
79.7401162224
 20
10.7152550421
 30
0.0
 11
79.7401162224
 21
11.4652548314
 31
0.0
  0
LWPOLYLINE
  5
310
330
1F
100
AcDbEntity
  8
SLD-0
  6
Continuous
370
    15
100
AcDbPolyline
 90
        9
 70
   128
 43
0.0
 10
81.6974899306
 20
6.3263547297
 10
81.6996828653
 20
6.3269314164
 10
81.7017907343
 20
6.3286385967
 10
81.7037337518
 20
6.3314105647
 10
81.7054368255
 20
6.3351417216
 10
81.7068342493
 20
6.3396877491
 10
81.7078726373
 20
6.3448744091
 10
81.7085120966
 20
6.3505022375
 10
81.7087285741
 20
6.3563547565
  0
LWPOLYLINE
  5
311
330
1F
100
AcDbEntity
  8
SLD-0
  6
Continuous
370
    15
100
AcDbPolyline
 90
        9
 70
   128
 43
0.0
 10
81.6974899306
 20
6.2927549579
 10
81.7021380369
 20
6.2939769704
 10
81.7066077986
 20
6.2975960753
 10
81.7107267377
 20
6.3034732341
 10
81.7143370427
 20
6.3113831694
 10
81.7172996751
 20
6.321020818
 10
81.7195014097
 20
6.3320159977
 10
81.7208571807
 20
6.3439468999
 10
81.7213153621
 20
6.3563547565
  0
LINE
  5
312
330
1F
100
AcDbEntity
  8
SLD-0
  6
Continuous
370
    15
100
AcDbLine
 10
81.6974899306
 20
6.2927549579
 30
0.0
 11
81.6974899306
 21
6.3263547297
 31
0.0
  0
LWPOLYLINE
  5
313
330
1F
100
AcDbEntity
  8
SLD-0
  6
Continuous
370
    15
100
AcDbPolyline
 90
        9
 70
   128
 43
0.0
 10
81.8372129565
 20
6.3563547565
 10
81.8367553618
 20
6.3439468999
 10
81.8353995908
 20
6.3320159977
 10
81.8331978562
 20
6.321020818
 10
81.8302346371
 20
6.3113831694
 10
81.8266243322
 20
6.3034732341
 10
81.8225053931
 20
6.2975960753
 10
81.8180362181
 20
6.2939769704
 10
81.8133881118
 20
6.2927549579
  0
LINE
  5
314
330
1F
100
AcDbEntity
  8
SLD-0
  6
Continuous
370
    15
100
AcDbLine
 10
81.6974899306
 20
6.2927549579
 30
0.0
 11
81.8133881118
 21
6.2927549579
 31
0.0
  0
LINE
  5
315
330
1F
100
AcDbEntity
  8
SLD-0
  6
Continuous
370
    15
100
AcDbLine
 10
81.6341599955
 20
6.3263547297
 30
0.0
 11
81.6974899306
 21
6.3263547297
 31
0.0
  0
LINE
  5
316
330
1F
100
AcDbEntity
  8
SLD-0
  6
Continuous
370
    15
100
AcDbLine
 10
81.6974899306
 20
6.2927549579
 30
0.0
 11
81.6341599955
 21
6.2927549579
 31
0.0
  0
LINE
  5
317
330
1F
100
AcDbEntity
  8
SLD-0
  6
Continuous
370
    15
100
AcDbLine
 10
82.9659577305
 20
6.2927549579
 30
0.0
 11
82.9659577305
 21
6.3263547297
 31
0.0
  0
LINE
  5
318
330
1F
100
AcDbEntity
  8
SLD-0
  6
Continuous
370
    15
100
AcDbLine
 10
81.8343958157
 20
6.3263547297
 30
0.0
 11
82.9659577305
 21
6.3263547297
 31
0.0
  0
LINE
  5
319
330
1F
100
AcDbEntity
  8
SLD-0
  6
Continuous
370
    15
100
AcDbLine
 10
82.9659577305
 20
6.2927549579
 30
0.0
 11
81.8133881118
 21
6.2927549579
 31
0.0
  0
LINE
  5
31A
330
1F
100
AcDbEntity
  8
SLD-0
  6
Continuous
370
    15
100
AcDbLine
 10
82.9915569281
 20
6.3563547565
 30
0.0
 11
82.9789701402
 21
6.3563547565
 31
0.0
  0
LINE
  5
31B
330
1F
100
AcDbEntity
  8
SLD-0
  6
Continuous
370
    15
100
AcDbLine
 10
82.9789701402
 20
6.3563547565
 30
0.0
 11
82.9789701402
 21
6.3721048146
 31
0.0
  0
LWPOLYLINE
  5
31C
330
1F
100
AcDbEntity
  8
SLD-0
  6
Continuous
370
    15
100
AcDbPolyline
 90
        9
 70
   128
 43
0.0
 10
83.1074548159
 20
6.3563547565
 10
83.1069972212
 20
6.3439468999
 10
83.1056414502
 20
6.3320159977
 10
83.1034397156
 20
6.321020818
 10
83.1004767899
 20
6.3113831694
 10
83.0968664849
 20
6.3034732341
 10
83.0927475458
 20
6.2975960753
 10
83.0882780775
 20
6.2939769704
 10
83.0836299711
 20
6.2927549579
  0
LWPOLYLINE
  5
31D
330
1F
100
AcDbEntity
  8
SLD-0
  6
Continuous
370
    15
100
AcDbPolyline
 90
        9
 70
   128
 43
0.0
 10
82.9677320833
 20
6.2927549579
 10
82.9723798963
 20
6.2939769704
 10
82.9768493647
 20
6.2975960753
 10
82.9809683038
 20
6.3034732341
 10
82.9845789021
 20
6.3113831694
 10
82.9875418278
 20
6.321020818
 10
82.9897432691
 20
6.3320159977
 10
82.9910990401
 20
6.3439468999
 10
82.9915569281
 20
6.3563547565
  0
LINE
  5
31E
330
1F
100
AcDbEntity
  8
SLD-0
  6
Continuous
370
    15
100
AcDbLine
 10
82.9677320833
 20
6.2927549579
 30
0.0
 11
83.0836299711
 21
6.2927549579
 31
0.0
  0
LWPOLYLINE
  5
31F
330
1F
100
AcDbEntity
  8
SLD-0
  6
Continuous
370
    15
100
AcDbPolyline
 90
        9
 70
   128
 43
0.0
 10
82.9677320833
 20
6.3263547297
 10
82.9699244314
 20
6.3269314164
 10
82.9720325937
 20
6.3286385967
 10
82.9739756112
 20
6.3314105647
 10
82.9756786849
 20
6.3351417216
 10
82.9770761087
 20
6.3396877491
 10
82.9781147901
 20
6.3448744091
 10
82.9787542493
 20
6.3505022375
 10
82.9789701402
 20
6.3563547565
  0
LINE
  5
320
330
1F
100
AcDbEntity
  8
SLD-0
  6
Continuous
370
    15
100
AcDbLine
 10
82.9677320833
 20
6.2927549579
 30
0.0
 11
82.9677320833
 21
6.3263547297
 31
0.0
  0
LINE
  5
321
330
1F
100
AcDbEntity
  8
SLD-0
  6
Continuous
370
    15
100
AcDbLine
 10
82.9659577305
 20
6.3263547297
 30
0.0
 11
82.9677320833
 21
6.3263547297
 31
0.0
  0
LINE
  5
322
330
1F
100
AcDbEntity
  8
SLD-0
  6
Continuous
370
    15
100
AcDbLine
 10
82.9677320833
 20
6.2927549579
 30
0.0
 11
82.9659577305
 21
6.2927549579
 31
0.0
  0
LINE
  5
323
330
1F
100
AcDbEntity
  8
SLD-0
  6
Continuous
370
    15
100
AcDbLine
 10
86.1040113061
 20
6.2927549579
 30
0.0
 11
86.1040113061
 21
6.3263547297
 31
0.0
  0
LINE
  5
324
330
1F
100
AcDbEntity
  8
SLD-0
  6
Continuous
370
    15
100
AcDbLine
 10
83.1046379685
 20
6.3263547297
 30
0.0
 11
86.1040113061
 21
6.3263547297
 31
0.0
  0
LINE
  5
325
330
1F
100
AcDbEntity
  8
SLD-0
  6
Continuous
370
    15
100
AcDbLine
 10
86.1040113061
 20
6.2927549579
 30
0.0
 11
83.0836299711
 21
6.2927549579
 31
0.0
  0
LINE
  5
326
330
1F
100
AcDbEntity
  8
SLD-0
  6
Continuous
370
    15
100
AcDbLine
 10
86.1296107237
 20
6.3563547565
 30
0.0
 11
86.1170239358
 21
6.3563547565
 31
0.0
  0
LINE
  5
327
330
1F
100
AcDbEntity
  8
SLD-0
  6
Continuous
370
    15
100
AcDbLine
 10
86.1170239358
 20
6.3563547565
 30
0.0
 11
86.1170239358
 21
6.3721048146
 31
0.0
  0
LWPOLYLINE
  5
328
330
1F
100
AcDbEntity
  8
SLD-0
  6
Continuous
370
    15
100
AcDbPolyline
 90
        9
 70
   128
 43
0.0
 10
86.1057857323
 20
6.3263547297
 10
86.107978227
 20
6.3269314164
 10
86.1100863893
 20
6.3286385967
 10
86.1120293335
 20
6.3314105647
 10
86.1137323338
 20
6.3351417216
 10
86.1151299777
 20
6.3396877491
 10
86.1161685123
 20
6.3448744091
 10
86.1168080449
 20
6.3505022375
 10
86.1170239358
 20
6.3563547565
  0
LWPOLYLINE
  5
329
330
1F
100
AcDbEntity
  8
SLD-0
  6
Continuous
370
    15
100
AcDbPolyline
 90
        9
 70
   128
 43
0.0
 10
86.1057857323
 20
6.2927549579
 10
86.1104337653
 20
6.2939769704
 10
86.1149031603
 20
6.2975960753
 10
86.1190221727
 20
6.3034732341
 10
86.122632551
 20
6.3113831694
 10
86.1255954768
 20
6.321020818
 10
86.127797138
 20
6.3320159977
 10
86.129152909
 20
6.3439468999
 10
86.1296107237
 20
6.3563547565
  0
LINE
  5
32A
330
1F
100
AcDbEntity
  8
SLD-0
  6
Continuous
370
    15
100
AcDbLine
 10
86.1057857323
 20
6.2927549579
 30
0.0
 11
86.1057857323
 21
6.3263547297
 31
0.0
  0
LWPOLYLINE
  5
32B
330
1F
100
AcDbEntity
  8
SLD-0
  6
Continuous
370
    15
100
AcDbPolyline
 90
        9
 70
   128
 43
0.0
 10
86.2455086849
 20
6.3563547565
 10
86.2450509435
 20
6.3439468999
 10
86.2436951725
 20
6.3320159977
 10
86.2414935112
 20
6.321020818
 10
86.2385305121
 20
6.3113831694
 10
86.2349202072
 20
6.3034732341
 10
86.2308011948
 20
6.2975960753
 10
86.2263317264
 20
6.2939769704
 10
86.2216837667
 20
6.2927549579
  0
LINE
  5
32C
330
1F
100
AcDbEntity
  8
SLD-0
  6
Continuous
370
    15
100
AcDbLine
 10
86.1057857323
 20
6.2927549579
 30
0.0
 11
86.2216837667
 21
6.2927549579
 31
0.0
  0
LINE
  5
32D
330
1F
100
AcDbEntity
  8
SLD-0
  6
Continuous
370
    15
100
AcDbLine
 10
86.1040113061
 20
6.3263547297
 30
0.0
 11
86.1057857323
 21
6.3263547297
 31
0.0
  0
LINE
  5
32E
330
1F
100
AcDbEntity
  8
SLD-0
  6
Continuous
370
    15
100
AcDbLine
 10
86.1057857323
 20
6.2927549579
 30
0.0
 11
86.1040113061
 21
6.2927549579
 31
0.0
  0
LINE
  5
32F
330
1F
100
AcDbEntity
  8
SLD-0
  6
Continuous
370
    15
100
AcDbLine
 10
87.3742532205
 20
6.2927549579
 30
0.0
 11
87.3742532205
 21
6.3263547297
 31
0.0
  0
LINE
  5
330
330
1F
100
AcDbEntity
  8
SLD-0
  6
Continuous
370
    15
100
AcDbLine
 10
86.2426916174
 20
6.3263547297
 30
0.0
 11
87.3742532205
 21
6.3263547297
 31
0.0
  0
LINE
  5
331
330
1F
100
AcDbEntity
  8
SLD-0
  6
Continuous
370
    15
100
AcDbLine
 10
87.3742532205
 20
6.2927549579
 30
0.0
 11
86.2216837667
 21
6.2927549579
 31
0.0
  0
ARC
  5
332
330
1F
100
AcDbEntity
  8
SLD-0
  6
Continuous
370
    15
100
AcDbCircle
 10
86.7479831043
 20
23.3383313271
 30
0.0
 40
0.3623014875025588
100
AcDbArc
 50
357.9078505391
 51
86.7310670581
  0
ARC
  5
333
330
1F
100
AcDbEntity
  8
SLD-0
  6
Continuous
370
    15
100
AcDbCircle
 10
86.7474780436
 20
23.3123382873
 30
0.0
 40
0.3627897375970621
100
AcDbArc
 50
273.3444264142
 51
2.0166559886
  0
LINE
  5
334
330
1F
100
AcDbEntity
  8
SLD-0
  6
Continuous
370
    15
100
AcDbLine
 10
87.3998526198
 20
6.3563547565
 30
0.0
 11
87.3872658318
 21
6.3563547565
 31
0.0
  0
LINE
  5
335
330
1F
100
AcDbEntity
  8
SLD-0
  6
Continuous
370
    15
100
AcDbLine
 10
87.3872658318
 20
6.3563547565
 30
0.0
 11
87.3872658318
 21
6.3721048146
 31
0.0
  0
LWPOLYLINE
  5
336
330
1F
100
AcDbEntity
  8
SLD-0
  6
Continuous
370
    15
100
AcDbPolyline
 90
        9
 70
   128
 43
0.0
 10
87.5157505992
 20
6.3563547565
 10
87.5152928029
 20
6.3439468999
 10
87.5139370319
 20
6.3320159977
 10
87.5117353706
 20
6.321020818
 10
87.5087724265
 20
6.3113831694
 10
87.5051620666
 20
6.3034732341
 10
87.5010430358
 20
6.2975960753
 10
87.4965736408
 20
6.2939769704
 10
87.4919256078
 20
6.2927549579
  0
LWPOLYLINE
  5
337
330
1F
100
AcDbEntity
  8
SLD-0
  6
Continuous
370
    15
100
AcDbPolyline
 90
        9
 70
   128
 43
0.0
 10
87.3760276375
 20
6.2927549579
 10
87.3806756613
 20
6.2939769704
 10
87.3851450563
 20
6.2975960753
 10
87.3892640871
 20
6.3034732341
 10
87.3928744471
 20
6.3113831694
 10
87.3958373728
 20
6.321020818
 10
87.3980390524
 20
6.3320159977
 10
87.3993948234
 20
6.3439468999
 10
87.3998526198
 20
6.3563547565
  0
LINE
  5
338
330
1F
100
AcDbEntity
  8
SLD-0
  6
Continuous
370
    15
100
AcDbLine
 10
87.3760276375
 20
6.2927549579
 30
0.0
 11
87.4919256078
 21
6.2927549579
 31
0.0
  0
LWPOLYLINE
  5
339
330
1F
100
AcDbEntity
  8
SLD-0
  6
Continuous
370
    15
100
AcDbPolyline
 90
        9
 70
   128
 43
0.0
 10
87.3760276375
 20
6.3263547297
 10
87.3782200955
 20
6.3269314164
 10
87.3803283037
 20
6.3286385967
 10
87.3822712387
 20
6.3314105647
 10
87.383974239
 20
6.3351417216
 10
87.3853718554
 20
6.3396877491
 10
87.3864103717
 20
6.3448744091
 10
87.3870498952
 20
6.3505022375
 10
87.3872658318
 20
6.3563547565
  0
LINE
  5
33A
330
1F
100
AcDbEntity
  8
SLD-0
  6
Continuous
370
    15
100
AcDbLine
 10
87.3760276375
 20
6.2927549579
 30
0.0
 11
87.3760276375
 21
6.3263547297
 31
0.0
  0
LINE
  5
33B
330
1F
100
AcDbEntity
  8
SLD-0
  6
Continuous
370
    15
100
AcDbLine
 10
87.3742532205
 20
6.3263547297
 30
0.0
 11
87.3760276375
 21
6.3263547297
 31
0.0
  0
LINE
  5
33C
330
1F
100
AcDbEntity
  8
SLD-0
  6
Continuous
370
    15
100
AcDbLine
 10
87.3760276375
 20
6.2927549579
 30
0.0
 11
87.3742532205
 21
6.2927549579
 31
0.0
  0
LINE
  5
33D
330
1F
100
AcDbEntity
  8
SLD-0
  6
Continuous
370
    15
100
AcDbLine
 10
87.5903190862
 20
4.293855116
 30
0.0
 11
87.5903190862
 21
6.3563547565
 31
0.0
  0
LWPOLYLINE
  5
33E
330
1F
100
AcDbEntity
  8
SLD-0
  6
Continuous
370
    15
100
AcDbPolyline
 90
       36
 70
   128
 43
0.0
 10
90.0210128166
 20
5.3251046429
 10
90.0200498144
 20
5.3713715751
 10
90.0171634477
 20
5.4175452284
 10
90.0123592899
 20
5.4635329105
 10
90.0056467274
 20
5.5092419291
 10
89.9970398402
 20
5.554579592
 10
89.9865556413
 20
5.5994555536
 10
89.9742149572
 20
5.6437788816
 10
89.9600433076
 20
5.6874604036
 10
89.9440685588
 20
5.7304121208
 10
89.9263232704
 20
5.772547794
 10
89.9068432288
 20
5.813781771
 10
89.8856674468
 20
5.8540325061
 10
89.8628384572
 20
5.8932172801
 10
89.8384026061
 20
5.9312586539
 10
89.812409173
 20
5.9680786019
 10
89.7849100774
 20
6.0036043782
 10
89.7559607585
 20
6.0377632369
 10
89.725619589
 20
6.0704871256
 10
89.6939480215
 20
6.1017097515
 10
89.6610094154
 20
6.1313683422
 10
89.6268702097
 20
6.159403645
 10
89.5915991905
 20
6.1857587539
 10
89.5552673436
 20
6.2103802828
 10
89.5179478547
 20
6.2332189523
 10
89.479715963
 20
6.254229003
 10
89.440648521
 20
6.2733681952
 10
89.4008242877
 20
6.2905972228
 10
89.3603234889
 20
6.3058820596
 10
89.3192276703
 20
6.3191916125
 10
89.2776196976
 20
6.3304994819
 10
89.2355830233
 20
6.3397822013
 10
89.1932025662
 20
6.3470215843
 10
89.1505636854
 20
6.3522035511
 10
89.1077523266
 20
6.3553163685
 10
89.0711478295
 20
6.3563324634
  0
LWPOLYLINE
  5
33F
330
1F
100
AcDbEntity
  8
SLD-0
  6
Continuous
370
    15
100
AcDbPolyline
 90
       36
 70
   128
 43
0.0
 10
89.0711478295
 20
4.2938774091
 10
89.1077523266
 20
4.294893504
 10
89.1505636854
 20
4.2980063214
 10
89.1932025662
 20
4.3031877015
 10
89.2355830233
 20
4.3104270846
 10
89.2776196976
 20
4.3197103907
 10
89.3192276703
 20
4.3310176734
 10
89.3603234889
 20
4.344327813
 10
89.4008242877
 20
4.3596126497
 10
89.440648521
 20
4.3768416774
 10
89.479715963
 20
4.3959808696
 10
89.5179478547
 20
4.4169903336
 10
89.5552673436
 20
4.4398290031
 10
89.5915991905
 20
4.4644511186
 10
89.6268702097
 20
4.4908062275
 10
89.6610094154
 20
4.5188415303
 10
89.6939480215
 20
4.5484995343
 10
89.725619589
 20
4.579722747
 10
89.7559607585
 20
4.6124466356
 10
89.7849100774
 20
4.6466054944
 10
89.812409173
 20
4.6821312706
 10
89.8384026061
 20
4.7189512186
 10
89.8628384572
 20
4.7569925925
 10
89.8856674468
 20
4.7961779531
 10
89.9068432288
 20
4.8364275148
 10
89.9263232704
 20
4.8776626652
 10
89.9440685588
 20
4.9197977517
 10
89.9600433076
 20
4.9627494689
 10
89.9742149572
 20
5.006430991
 10
89.9865556413
 20
5.0507543189
 10
89.9970398402
 20
5.0956302805
 10
90.0056467274
 20
5.1409685301
 10
90.0123592899
 20
5.1866763754
 10
90.0171634477
 20
5.2326646441
 10
90.0200498144
 20
5.2788382974
 10
90.0210128166
 20
5.3251046429
  0
LINE
  5
340
330
1F
100
AcDbEntity
  8
SLD-0
  6
Continuous
370
    15
100
AcDbLine
 10
94.6229278682
 20
24.32510478
 30
0.0
 11
94.662702822
 21
24.32510478
 31
0.0
  0
LINE
  5
341
330
1F
100
AcDbEntity
  8
SLD-0
  6
Continuous
370
    15
100
AcDbLine
 10
94.662702822
 20
24.32510478
 30
0.0
 11
94.662702822
 21
3.3251048138
 31
0.0
  0
LINE
  5
342
330
1F
100
AcDbEntity
  8
SLD-0
  6
Continuous
370
    15
100
AcDbLine
 10
94.6229278682
 20
3.3251048138
 30
0.0
 11
94.662702822
 21
3.3251048138
 31
0.0
  0
LINE
  5
343
330
1F
100
AcDbEntity
  8
SLD-0
  6
Continuous
370
    15
100
AcDbLine
 10
79.6823660095
 20
6.5176046804
 30
0.0
 11
79.6823660095
 21
6.4863550681
 31
0.0
  0
LINE
  5
344
330
1F
100
AcDbEntity
  8
SLD-0
  6
Continuous
370
    15
100
AcDbLine
 10
79.7003412685
 20
3.3251048138
 30
0.0
 11
79.6751025734
 21
3.3251048138
 31
0.0
  0
LINE
  5
345
330
1F
100
AcDbEntity
  8
SLD-0
  6
Continuous
370
    15
100
AcDbLine
 10
79.6751025734
 20
3.8321045035
 30
0.0
 11
79.7003412685
 21
3.8321045035
 31
0.0
  0
DIMENSION
  5
346
330
1F
100
AcDbEntity
  8
DIM
100
AcDbDimension
  2
_D_9
 10
79.6751028133
 20
29.0077049077
 30
0.0
 11
72.2401189736
 21
29.0077049077
 31
0.0
 70
   160
  1
<>
 71
     2
 42
-1.0
  3
SLDDIMSTYLE1
100
AcDbAlignedDimension
 13
78.0167463112
 23
23.9056378581
 33
0.0
 14
79.6751028133
 24
26.0077049077
 34
0.0
 50
0.0
100
AcDbRotatedDimension
  0
DIMENSION
  5
355
330
1F
100
AcDbEntity
  8
DIM
100
AcDbDimension
  2
_D_10
 10
94.6903028133
 20
29.0077049077
 30
0.0
 11
87.1965028133
 21
29.0077049077
 31
0.0
 70
   160
  1
<>
 71
     2
 42
-1.0
  3
SLDDIMSTYLE0
100
AcDbAlignedDimension
 13
79.7027028133
 23
26.0077049077
 33
0.0
 14
94.6903028133
 24
24.3251049077
 34
0.0
100
AcDbRotatedDimension
  0
DIMENSION
  5
360
330
1F
100
AcDbEntity
  8
DIM
100
AcDbDimension
  2
_D_11
 10
98.5797399086
 20
24.3827049077
 30
0.0
 11
98.5797399086
 21
27.3847765382
 31
0.0
 70
   160
  1
<>
 71
     2
 42
-1.0
  3
SLDDIMSTYLE1
100
AcDbAlignedDimension
 13
88.0687028133
 23
25.3207049077
 33
0.0
 14
94.4009068497
 24
24.3827049077
 34
0.0
 50
90.0
100
AcDbRotatedDimension
  0
DIMENSION
  5
36F
330
1F
100
AcDbEntity
  8
DIM
100
AcDbDimension
  2
_D_12
 10
98.5797399086
 20
24.3827049077
 30
0.0
 11
98.5797399086
 21
13.8251049077
 31
0.0
 70
   160
  1
<>
 71
     2
 42
-1.0
  3
SLDDIMSTYLE0
100
AcDbAlignedDimension
 13
94.6327028133
 23
3.2675049077
 33
0.0
 14
94.6327028133
 24
24.3827049077
 34
0.0
 50
90.0
100
AcDbRotatedDimension
  0
LINE
  5
37E
330
1F
100
AcDbEntity
  8
SLD-0
  6
Continuous
370
    15
100
AcDbLine
 10
1.7985231954
 20
3.2626044158
 30
0.0
 11
1.8261231966
 21
3.2626044158
 31
0.0
  0
LINE
  5
37F
330
1F
100
AcDbEntity
  8
SLD-0
  6
Continuous
370
    15
100
AcDbLine
 10
1.7985231954
 20
8.5751048053
 30
0.0
 11
1.8261231966
 21
8.5751048053
 31
0.0
  0
LINE
  5
380
330
1F
100
AcDbEntity
  8
SLD-0
  6
Continuous
370
    15
100
AcDbLine
 10
1.8261231966
 20
3.2761433527
 30
0.0
 11
1.8261231966
 21
3.2626044158
 31
0.0
  0
LINE
  5
381
330
1F
100
AcDbEntity
  8
SLD-0
  6
Continuous
370
    15
100
AcDbLine
 10
1.7985231954
 20
8.5751048053
 30
0.0
 11
1.7985231954
 21
3.7951050376
 31
0.0
  0
LINE
  5
382
330
1F
100
AcDbEntity
  8
SLD-0
  6
Continuous
370
    15
100
AcDbLine
 10
1.7985231954
 20
3.3251048138
 30
0.0
 11
1.7985231954
 21
3.2626044158
 31
0.0
  0
LINE
  5
383
330
1F
100
AcDbEntity
  8
SLD-0
  6
Continuous
370
    15
100
AcDbLine
 10
18.4720795411
 20
23.905637679
 30
0.0
 11
18.4483209889
 21
23.9293968179
 31
0.0
  0
LINE
  5
384
330
1F
100
AcDbEntity
  8
SLD-0
  6
Continuous
370
    15
100
AcDbLine
 10
18.039291154
 20
23.472849292
 30
0.0
 11
18.0155320151
 21
23.4966078442
 31
0.0
  0
LINE
  5
385
330
1F
100
AcDbEntity
  8
SLD-0
  6
Continuous
370
    15
100
AcDbLine
 10
18.4720795411
 20
23.905637679
 30
0.0
 11
18.039291154
 21
23.472849292
 31
0.0
  0
LINE
  5
386
330
1F
100
AcDbEntity
  8
SLD-0
  6
Continuous
370
    15
100
AcDbLine
 10
18.4483209889
 20
23.9293968179
 30
0.0
 11
18.0155320151
 21
23.4966078442
 31
0.0
  0
SPLINE
  5
387
330
1F
100
AcDbEntity
  8
SLD-0
  6
Continuous
370
    15
100
AcDbSpline
210
0.0
220
0.0
230
1.0
 70
     8
 71
     3
 72
    11
 73
     7
 74
     0
 42
0.00000001
 43
0.00000001
 12
1.0
 22
0.0
 32
0.0
 13
1.0
 23
0.0
 33
0.0
 40
0.0
 40
0.0
 40
0.0
 40
0.0
 40
0.24999292916923
 40
0.5000005805814475
 40
0.7499914701183923
 40
1.0
 40
1.0
 40
1.0
 40
1.0
 10
17.99343488374461
 20
23.48745477658915
 30
0.0
 10
17.99548103422567
 20
23.4875703794841
 30
0.0
 10
17.9995734556869
 20
23.48780159208194
 30
0.0
 10
18.00546070805849
 20
23.48967206351166
 30
0.0
 10
18.0109467405902
 20
23.4925119835738
 30
0.0
 10
18.01400355434341
 20
23.49524252520307
 30
0.0
 10
18.01553201514332
 20
23.49660784418547
 30
0.0
  0
LINE
  5
388
330
1F
100
AcDbEntity
  8
SLD-0
  6
Continuous
370
    15
100
AcDbLine
 10
17.9934348837
 20
23.4874547766
 30
0.0
 11
17.9934348837
 21
23.4538550047
 31
0.0
  0
SPLINE
  5
389
330
1F
100
AcDbEntity
  8
SLD-0
  6
Continuous
370
    15
100
AcDbSpline
210
0.0
220
0.0
230
1.0
 70
     8
 71
     3
 72
    11
 73
     7
 74
     0
 42
0.00000001
 43
0.00000001
 12
1.0
 22
0.0
 32
0.0
 13
1.0
 23
0.0
 33
0.0
 40
0.0
 40
0.0
 40
0.0
 40
0.0
 40
0.2500014014190836
 40
0.4999898038292169
 40
0.7499963863706187
 40
1.0
 40
1.0
 40
1.0
 40
1.0
 10
17.99343488374461
 20
23.45385500473658
 30
0.0
 10
17.99768114553584
 20
23.45409460056529
 30
0.0
 10
18.00617344833076
 20
23.45457377976476
 30
0.0
 10
18.01839085072572
 20
23.4584561132484
 30
0.0
 10
18.02977551671506
 20
23.46434947228117
 30
0.0
 10
18.03611928746687
 20
23.47001602996225
 30
0.0
 10
18.03929115400906
 20
23.47284929197962
 30
0.0
  0
LINE
  5
38A
330
1F
100
AcDbEntity
  8
SLD-0
  6
Continuous
370
    15
100
AcDbLine
 10
17.9934348837
 20
23.4538550047
 30
0.0
 11
16.7884847501
 21
23.4538550047
 31
0.0
  0
LINE
  5
38B
330
1F
100
AcDbEntity
  8
SLD-0
  6
Continuous
370
    15
100
AcDbLine
 10
17.9934348837
 20
23.4874547766
 30
0.0
 11
16.7884847501
 21
23.4874547766
 31
0.0
  0
LINE
  5
38C
330
1F
100
AcDbEntity
  8
SLD-0
  6
Continuous
370
    15
100
AcDbLine
 10
16.4201233521
 20
24.444704785
 30
0.0
 11
16.4201233521
 21
25.3207053321
 31
0.0
  0
LINE
  5
38D
330
1F
100
AcDbEntity
  8
SLD-0
  6
Continuous
370
    15
100
AcDbLine
 10
16.4201233521
 20
24.444704785
 30
0.0
 11
8.4201232288
 21
24.444704785
 31
0.0
  0
LINE
  5
38E
330
1F
100
AcDbEntity
  8
SLD-0
  6
Continuous
370
    15
100
AcDbLine
 10
16.4201233521
 20
25.3207053321
 30
0.0
 11
8.4201232288
 21
25.3207053321
 31
0.0
  0
LINE
  5
38F
330
1F
100
AcDbEntity
  8
SLD-0
  6
Continuous
370
    15
100
AcDbLine
 10
8.4201232288
 20
25.3207053321
 30
0.0
 11
8.4201232288
 21
24.444704785
 31
0.0
  0
LINE
  5
390
330
1F
100
AcDbEntity
  8
SLD-0
  6
Continuous
370
    15
100
AcDbLine
 10
16.4201233521
 20
24.444704785
 30
0.0
 11
16.4201233521
 21
24.3827048079
 31
0.0
  0
LINE
  5
391
330
1F
100
AcDbEntity
  8
SLD-0
  6
Continuous
370
    15
100
AcDbLine
 10
8.4201232288
 20
24.3827048079
 30
0.0
 11
8.4201232288
 21
24.444704785
 31
0.0
  0
LINE
  5
392
330
1F
100
AcDbEntity
  8
SLD-0
  6
Continuous
370
    15
100
AcDbLine
 10
16.8580849061
 20
6.540807079
 30
0.0
 11
16.8220851086
 21
6.540807079
 31
0.0
  0
LINE
  5
393
330
1F
100
AcDbEntity
  8
SLD-0
  6
Continuous
370
    15
100
AcDbLine
 10
16.8580849061
 20
7.1831820583
 30
0.0
 11
16.8580849061
 21
6.540807079
 31
0.0
  0
LINE
  5
394
330
1F
100
AcDbEntity
  8
SLD-0
  6
Continuous
370
    15
100
AcDbLine
 10
16.8580849061
 20
7.1831820583
 30
0.0
 11
16.8220851086
 21
7.1831820583
 31
0.0
  0
LINE
  5
395
330
1F
100
AcDbEntity
  8
SLD-0
  6
Continuous
370
    15
100
AcDbLine
 10
16.8220851086
 20
6.540807079
 30
0.0
 11
16.8220851086
 21
7.1831820583
 31
0.0
  0
LINE
  5
396
330
1F
100
AcDbEntity
  8
SLD-0
  6
Continuous
370
    15
100
AcDbLine
 10
16.8580849061
 20
6.537979965
 30
0.0
 11
16.8220851086
 21
6.537979965
 31
0.0
  0
LINE
  5
397
330
1F
100
AcDbEntity
  8
SLD-0
  6
Continuous
370
    15
100
AcDbLine
 10
16.8580849061
 20
6.540807079
 30
0.0
 11
16.8580849061
 21
6.537979965
 31
0.0
  0
LINE
  5
398
330
1F
100
AcDbEntity
  8
SLD-0
  6
Continuous
370
    15
100
AcDbLine
 10
16.799605475
 20
6.5176046804
 30
0.0
 11
16.799605475
 21
6.4863550681
 31
0.0
  0
LINE
  5
399
330
1F
100
AcDbEntity
  8
SLD-0
  6
Continuous
370
    15
100
AcDbLine
 10
16.799605475
 20
6.4863550681
 30
0.0
 11
16.7884847501
 21
6.4863550681
 31
0.0
  0
ARC
  5
39A
330
1F
100
AcDbEntity
  8
SLD-0
  6
Continuous
370
    15
100
AcDbCircle
 10
16.8064600075
 20
6.5379799077
 30
0.0
 40
0.0516250000000014
100
AcDbArc
 50
270.0
 51
360.0
  0
LINE
  5
39B
330
1F
100
AcDbEntity
  8
SLD-0
  6
Continuous
370
    15
100
AcDbLine
 10
16.8064600091
 20
6.4863550681
 30
0.0
 11
16.799605475
 21
6.4863550681
 31
0.0
  0
SPLINE
  5
39C
330
1F
100
AcDbEntity
  8
SLD-0
  6
Continuous
370
    15
100
AcDbSpline
210
0.0
220
0.0
230
1.0
 70
     8
 71
     3
 72
    11
 73
     7
 74
     0
 42
0.00000001
 43
0.00000001
 12
1.0
 22
0.0
 32
0.0
 13
1.0
 23
0.0
 33
0.0
 40
0.0
 40
0.0
 40
0.0
 40
0.0
 40
0.0651568941655935
 40
0.3767664350266898
 40
0.6883863952210765
 40
1.0
 40
1.0
 40
1.0
 40
1.0
 10
16.82208510861049
 20
7.231699417795543
 30
0.0
 10
16.82347560248612
 20
7.231465943656545
 30
0.0
 10
16.83151606278052
 20
7.230115891292207
 30
0.0
 10
16.84371359084944
 20
7.220227283468168
 30
0.0
 10
16.85578351110934
 20
7.203555463544443
 30
0.0
 10
16.85731777963241
 20
7.189973147194468
 30
0.0
 10
16.8580849060711
 20
7.18318205827222
 30
0.0
  0
LINE
  5
39D
330
1F
100
AcDbEntity
  8
SLD-0
  6
Continuous
370
    15
100
AcDbLine
 10
16.7884847501
 20
22.5982051026
 30
0.0
 11
16.8220851086
 21
22.5982051026
 31
0.0
  0
LINE
  5
39E
330
1F
100
AcDbEntity
  8
SLD-0
  6
Continuous
370
    15
100
AcDbLine
 10
16.8220851086
 20
22.5982051026
 30
0.0
 11
16.8220851086
 21
21.9772050765
 31
0.0
  0
LINE
  5
39F
330
1F
100
AcDbEntity
  8
SLD-0
  6
Continuous
370
    15
100
AcDbLine
 10
16.7884847501
 20
21.9772050765
 30
0.0
 11
16.8220851086
 21
21.9772050765
 31
0.0
  0
LINE
  5
3A0
330
1F
100
AcDbEntity
  8
SLD-0
  6
Continuous
370
    15
100
AcDbLine
 10
16.8220851086
 20
22.6180048739
 30
0.0
 11
16.7884847501
 21
22.6180048739
 31
0.0
  0
LINE
  5
3A1
330
1F
100
AcDbEntity
  8
SLD-0
  6
Continuous
370
    15
100
AcDbLine
 10
16.8220851086
 20
22.6180048739
 30
0.0
 11
16.8220851086
 21
22.5982051026
 31
0.0
  0
ARC
  5
3A2
330
1F
100
AcDbEntity
  8
SLD-0
  6
Continuous
370
    15
100
AcDbCircle
 10
16.7674850075
 20
21.9772049077
 30
0.0
 40
0.0546000000000009
100
AcDbArc
 50
292.619864948
 51
0.0
  0
SPLINE
  5
3A3
330
1F
100
AcDbEntity
  8
SLD-0
  6
Continuous
370
    15
100
AcDbSpline
210
0.0
220
0.0
230
1.0
 70
     8
 71
     3
 72
    13
 73
     9
 74
     0
 42
0.00000001
 43
0.00000001
 12
1.0
 22
0.0
 32
0.0
 13
1.0
 23
0.0
 33
0.0
 40
0.0
 40
0.0
 40
0.0
 40
0.0
 40
0.1669800861452997
 40
0.3339521017688131
 40
0.5009333796332782
 40
0.6679054565565218
 40
0.8348817101836659
 40
1.0
 40
1.0
 40
1.0
 40
1.0
 10
16.82208510861049
 20
22.61800487388195
 30
0.0
 10
16.82188212932116
 20
22.62157853168397
 30
0.0
 10
16.82147618055295
 20
22.62872567456513
 30
0.0
 10
16.81822729101178
 20
22.63903257768822
 30
0.0
 10
16.81318600359826
 20
22.64854107138122
 30
0.0
 10
16.80632939855553
 20
22.65683801785348
 30
0.0
 10
16.79808334566221
 20
22.66375915040776
 30
0.0
 10
16.79167232607794
 20
22.66685382479906
 30
0.0
 10
16.78848475009804
 20
22.66839250513307
 30
0.0
  0
LINE
  5
3A4
330
1F
100
AcDbEntity
  8
SLD-0
  6
Continuous
370
    15
100
AcDbLine
 10
16.8220851086
 20
6.5176046804
 30
0.0
 11
16.7884847501
 21
6.5176046804
 31
0.0
  0
LINE
  5
3A5
330
1F
100
AcDbEntity
  8
SLD-0
  6
Continuous
370
    15
100
AcDbLine
 10
16.8220851086
 20
7.8060588094
 30
0.0
 11
16.7884847501
 21
7.8060588094
 31
0.0
  0
LINE
  5
3A6
330
1F
100
AcDbEntity
  8
SLD-0
  6
Continuous
370
    15
100
AcDbLine
 10
16.8220851086
 20
7.8060588094
 30
0.0
 11
16.8220851086
 21
6.5176046804
 31
0.0
  0
LINE
  5
3A7
330
1F
100
AcDbEntity
  8
SLD-0
  6
Continuous
370
    15
100
AcDbLine
 10
16.7884847501
 20
9.3251048879
 30
0.0
 11
16.7884847501
 21
9.3060589746
 31
0.0
  0
LINE
  5
3A8
330
1F
100
AcDbEntity
  8
SLD-0
  6
Continuous
370
    15
100
AcDbLine
 10
16.8220851086
 20
9.3060589746
 30
0.0
 11
16.7884847501
 21
9.3060589746
 31
0.0
  0
LINE
  5
3A9
330
1F
100
AcDbEntity
  8
SLD-0
  6
Continuous
370
    15
100
AcDbLine
 10
16.8220851086
 20
21.8926052004
 30
0.0
 11
16.8220851086
 21
9.3060589746
 31
0.0
  0
LINE
  5
3AA
330
1F
100
AcDbEntity
  8
SLD-0
  6
Continuous
370
    15
100
AcDbLine
 10
16.8220851086
 20
21.8926052004
 30
0.0
 11
16.7884847501
 21
21.8926052004
 31
0.0
  0
LINE
  5
3AB
330
1F
100
AcDbEntity
  8
SLD-0
  6
Continuous
370
    15
100
AcDbLine
 10
16.8220851086
 20
9.3060589746
 30
0.0
 11
16.8220851086
 21
7.8060588094
 31
0.0
  0
SPLINE
  5
3AC
330
1F
100
AcDbEntity
  8
SLD-0
  6
Continuous
370
    15
100
AcDbSpline
210
0.0
220
0.0
230
1.0
 70
     8
 71
     3
 72
    15
 73
    11
 74
     0
 42
0.00000001
 43
0.00000001
 12
1.0
 22
0.0
 32
0.0
 13
1.0
 23
0.0
 33
0.0
 40
0.0
 40
0.0
 40
0.0
 40
0.0
 40
0.1249992497667072
 40
0.2499971428621909
 40
0.3749987320610438
 40
0.5000000089786523
 40
0.6249995243448674
 40
0.7500029741599381
 40
0.8750012596750683
 40
1.0
 40
1.0
 40
1.0
 40
1.0
 10
2.087918998954708
 20
3.26750537250343
 30
0.0
 10
2.092097691973383
 20
3.267719692645949
 30
0.0
 10
2.100455032657559
 20
3.268148330604877
 30
0.0
 10
2.113154598976861
 20
3.271572165658742
 30
0.0
 10
2.126172762748309
 20
3.276896662917571
 30
0.0
 10
2.13965543466415
 20
3.284114646900795
 30
0.0
 10
2.153725182954624
 20
3.292896758269671
 30
0.0
 10
2.16850348760439
 20
3.302920972048227
 30
0.0
 10
2.183993261524369
 20
3.313795435025491
 30
0.0
 10
2.195014701457113
 20
3.321335016287298
 30
0.0
 10
2.200525431448926
 20
3.325104813776438
 30
0.0
  0
LINE
  5
3AD
330
1F
100
AcDbEntity
  8
SLD-0
  6
Continuous
370
    15
100
AcDbLine
 10
16.5935711084
 20
3.3251048138
 30
0.0
 11
2.2005254314
 21
3.3251048138
 31
0.0
  0
SPLINE
  5
3AE
330
1F
100
AcDbEntity
  8
SLD-0
  6
Continuous
370
    15
100
AcDbSpline
210
0.0
220
0.0
230
1.0
 70
     8
 71
     3
 72
    13
 73
     9
 74
     0
 42
0.00000001
 43
0.00000001
 12
1.0
 22
0.0
 32
0.0
 13
1.0
 23
0.0
 33
0.0
 40
0.0
 40
0.0
 40
0.0
 40
0.0
 40
0.1593576765672182
 40
0.3213654199648208
 40
0.5293760177454573
 40
0.7433579395170857
 40
0.8710025345956043
 40
1.0
 40
1.0
 40
1.0
 40
1.0
 10
16.59357110842372
 20
3.325104813776438
 30
0.0
 10
16.60118944071847
 20
3.320299116589958
 30
0.0
 10
16.61655279572008
 20
3.310607805020751
 30
0.0
 10
16.64372787103581
 20
3.295653118350831
 30
0.0
 10
16.67529559950638
 20
3.2816144905176
 30
0.0
 10
16.70645395907605
 20
3.272588960875959
 30
0.0
 10
16.7336523542495
 20
3.268188374462971
 30
0.0
 10
16.74860678585796
 20
3.267733838507909
 30
0.0
 10
16.75612341727225
 20
3.267505372503432
 30
0.0
  0
LINE
  5
3AF
330
1F
100
AcDbEntity
  8
SLD-0
  6
Continuous
370
    15
100
AcDbLine
 10
16.7561234173
 20
3.2675053725
 30
0.0
 11
2.087918999
 21
3.2675053725
 31
0.0
  0
SPLINE
  5
3B0
330
1F
100
AcDbEntity
  8
SLD-0
  6
Continuous
370
    15
100
AcDbSpline
210
0.0
220
0.0
230
1.0
 70
     8
 71
     3
 72
    11
 73
     7
 74
     0
 42
0.00000001
 43
0.00000001
 12
1.0
 22
0.0
 32
0.0
 13
1.0
 23
0.0
 33
0.0
 40
0.0
 40
0.0
 40
0.0
 40
0.0
 40
0.1751352936154292
 40
0.3514209578773184
 40
0.6722239204102587
 40
1.0
 40
1.0
 40
1.0
 40
1.0
 10
16.60391040231665
 20
3.325104813776438
 30
0.0
 10
16.61221948916074
 20
3.322351967454924
 30
0.0
 10
16.6288922408235
 20
3.316828192827751
 30
0.0
 10
16.66212191341978
 20
3.307125899380882
 30
0.0
 10
16.70448250914798
 20
3.297424911760674
 30
0.0
 10
16.73878684164008
 20
3.295884075068936
 30
0.0
 10
16.75612341727225
 20
3.295105373665863
 30
0.0
  0
LINE
  5
3B1
330
1F
100
AcDbEntity
  8
SLD-0
  6
Continuous
370
    15
100
AcDbLine
 10
16.7561234173
 20
3.2675053725
 30
0.0
 11
16.7561234173
 21
3.2951053737
 31
0.0
  0
LINE
  5
3B2
330
1F
100
AcDbEntity
  8
SLD-0
  6
Continuous
370
    15
100
AcDbLine
 10
16.5935711084
 20
3.3251048138
 30
0.0
 11
16.6039104023
 21
3.3251048138
 31
0.0
  0
SPLINE
  5
3B3
330
1F
100
AcDbEntity
  8
SLD-0
  6
Continuous
370
    15
100
AcDbSpline
210
0.0
220
0.0
230
1.0
 70
     8
 71
     3
 72
    11
 73
     7
 74
     0
 42
0.00000001
 43
0.00000001
 12
1.0
 22
0.0
 32
0.0
 13
1.0
 23
0.0
 33
0.0
 40
0.0
 40
0.0
 40
0.0
 40
0.0
 40
0.2982497982615601
 40
0.5964932643746623
 40
0.8947433901611576
 40
1.0
 40
1.0
 40
1.0
 40
1.0
 10
2.08791899895471
 20
3.295105373665863
 30
0.0
 10
2.09762435356248
 20
3.29555251858987
 30
0.0
 10
2.117034856723413
 20
3.296446798944539
 30
0.0
 10
2.146927821660948
 20
3.303439199909509
 30
0.0
 10
2.171016227418331
 20
3.311050656839451
 30
0.0
 10
2.185843246195155
 20
3.316305718868803
 30
0.0
 10
2.189710943045486
 20
3.317676526255316
 30
0.0
  0
ARC
  5
3B4
330
1F
100
AcDbEntity
  8
SLD-0
  6
Continuous
370
    15
100
AcDbCircle
 10
16.7561232053
 20
3.3251049077
 30
0.0
 40
0.0300000000000016
100
AcDbArc
 50
270.0
 51
0.0000000001
  0
ARC
  5
3B5
330
1F
100
AcDbEntity
  8
SLD-0
  6
Continuous
370
    15
100
AcDbCircle
 10
16.7561232053
 20
3.3251049077
 30
0.0
 40
0.0576000000000012
100
AcDbArc
 50
270.0
 51
0.0
  0
ARC
  5
3B6
330
1F
100
AcDbEntity
  8
SLD-0
  6
Continuous
370
    15
100
AcDbCircle
 10
16.8156917092
 20
3.8321049077
 30
0.0
 40
0.0295685039370084
100
AcDbArc
 50
0.0
 51
156.9442741318
  0
LINE
  5
3B7
330
1F
100
AcDbEntity
  8
SLD-0
  6
Continuous
370
    15
100
AcDbLine
 10
16.8176599331
 20
3.8321045035
 30
0.0
 11
16.8452599342
 21
3.8321045035
 31
0.0
  0
ARC
  5
3B8
330
1F
100
AcDbEntity
  8
SLD-0
  6
Continuous
370
    15
100
AcDbCircle
 10
16.8156917092
 20
3.8321049077
 30
0.0
 40
0.0019685039370074
100
AcDbArc
 50
0.0
 51
180.0
  0
LINE
  5
3B9
330
1F
100
AcDbEntity
  8
SLD-0
  6
Continuous
370
    15
100
AcDbLine
 10
16.8176599331
 20
3.3756737229
 30
0.0
 11
16.8176599331
 21
3.8321045035
 31
0.0
  0
LINE
  5
3BA
330
1F
100
AcDbEntity
  8
SLD-0
  6
Continuous
370
    15
100
AcDbLine
 10
16.8452599342
 20
3.3756737229
 30
0.0
 11
16.8452599342
 21
3.8321045035
 31
0.0
  0
LINE
  5
3BB
330
1F
100
AcDbEntity
  8
SLD-0
  6
Continuous
370
    15
100
AcDbLine
 10
16.8176599331
 20
3.3756737229
 30
0.0
 11
16.8452599342
 21
3.3756737229
 31
0.0
  0
LINE
  5
3BC
330
1F
100
AcDbEntity
  8
SLD-0
  6
Continuous
370
    15
100
AcDbLine
 10
16.8137234452
 20
3.8321045035
 30
0.0
 11
16.8137234452
 21
3.3251048138
 31
0.0
  0
LINE
  5
3BD
330
1F
100
AcDbEntity
  8
SLD-0
  6
Continuous
370
    15
100
AcDbLine
 10
3.2271503185
 20
3.7951050376
 30
0.0
 11
2.2005254314
 21
3.3251048138
 31
0.0
  0
LINE
  5
3BE
330
1F
100
AcDbEntity
  8
SLD-0
  6
Continuous
370
    15
100
AcDbLine
 10
15.5149863417
 20
3.7951050376
 30
0.0
 11
3.2271503185
 21
3.7951050376
 31
0.0
  0
LINE
  5
3BF
330
1F
100
AcDbEntity
  8
SLD-0
  6
Continuous
370
    15
100
AcDbLine
 10
16.5935711084
 20
3.3251048138
 30
0.0
 11
15.5149863417
 21
3.7951050376
 31
0.0
  0
LINE
  5
3C0
330
1F
100
AcDbEntity
  8
SLD-0
  6
Continuous
370
    15
100
AcDbLine
 10
15.5149863417
 20
3.7951050376
 30
0.0
 11
15.5253256356
 21
3.7951050376
 31
0.0
  0
LINE
  5
3C1
330
1F
100
AcDbEntity
  8
SLD-0
  6
Continuous
370
    15
100
AcDbLine
 10
16.6039104023
 20
3.3251048138
 30
0.0
 11
15.5253256356
 21
3.7951050376
 31
0.0
  0
LINE
  5
3C2
330
1F
100
AcDbEntity
  8
SLD-0
  6
Continuous
370
    15
100
AcDbLine
 10
2.087918999
 20
3.2951053737
 30
0.0
 11
2.087918999
 21
3.2675053725
 31
0.0
  0
LINE
  5
3C3
330
1F
100
AcDbEntity
  8
SLD-0
  6
Continuous
370
    15
100
AcDbLine
 10
1.8561232233
 20
3.2951053737
 30
0.0
 11
1.8561232233
 21
3.2675053725
 31
0.0
  0
LINE
  5
3C4
330
1F
100
AcDbEntity
  8
SLD-0
  6
Continuous
370
    15
100
AcDbLine
 10
1.8561232233
 20
3.2675053725
 30
0.0
 11
2.087918999
 21
3.2675053725
 31
0.0
  0
LINE
  5
3C5
330
1F
100
AcDbEntity
  8
SLD-0
  6
Continuous
370
    15
100
AcDbLine
 10
1.8561232233
 20
3.2951053737
 30
0.0
 11
2.087918999
 21
3.2951053737
 31
0.0
  0
LINE
  5
3C6
330
1F
100
AcDbEntity
  8
SLD-0
  6
Continuous
370
    15
100
AcDbLine
 10
1.8261231966
 20
3.3251048138
 30
0.0
 11
1.7985231954
 21
3.3251048138
 31
0.0
  0
SPLINE
  5
3C7
330
1F
100
AcDbEntity
  8
SLD-0
  6
Continuous
370
    15
100
AcDbSpline
210
0.0
220
0.0
230
1.0
 70
     8
 71
     3
 72
    11
 73
     7
 74
     0
 42
0.00000001
 43
0.00000001
 12
1.0
 22
0.0
 32
0.0
 13
1.0
 23
0.0
 33
0.0
 40
0.0
 40
0.0
 40
0.0
 40
0.0
 40
0.2500040134408874
 40
0.5000039859067095
 40
0.7500014005390878
 40
1.0
 40
1.0
 40
1.0
 40
1.0
 10
1.826123196575492
 20
3.325104813776438
 30
0.0
 10
1.82657424989299
 20
3.321173548475895
 30
0.0
 10
1.827476349237321
 20
3.313311081418368
 30
0.0
 10
1.834413607629073
 20
3.303394582206864
 30
0.0
 10
1.844330127762515
 20
3.296457986421647
 30
0.0
 10
1.852192185274631
 20
3.295556245296734
 30
0.0
 10
1.856123223345955
 20
3.295105373665861
 30
0.0
  0
SPLINE
  5
3C8
330
1F
100
AcDbEntity
  8
SLD-0
  6
Continuous
370
    15
100
AcDbSpline
210
0.0
220
0.0
230
1.0
 70
     8
 71
     3
 72
    15
 73
    11
 74
     0
 42
0.00000001
 43
0.00000001
 12
1.0
 22
0.0
 32
0.0
 13
1.0
 23
0.0
 33
0.0
 40
0.0
 40
0.0
 40
0.0
 40
0.0
 40
0.1249978512316322
 40
0.2499957956766092
 40
0.3750014244460368
 40
0.4999995639697071
 40
0.6249977034933774
 40
0.750001509164617
 40
0.8749981646520665
 40
1.0
 40
1.0
 40
1.0
 40
1.0
 10
1.79852319541306
 20
3.325104813776436
 30
0.0
 10
1.798737676357129
 20
3.321335018145401
 30
0.0
 10
1.799166638405212
 20
3.313795424072125
 30
0.0
 10
1.802591660436821
 20
3.302920829314043
 30
0.0
 10
1.80791459035927
 20
3.29289692776002
 30
0.0
 10
1.815133150187543
 20
3.284114709511939
 30
0.0
 10
1.823915440561279
 20
3.276896486237558
 30
0.0
 10
1.833938489113193
 20
3.271572265971595
 30
0.0
 10
1.844813417921587
 20
3.268148277131278
 30
0.0
 10
1.852353236130576
 20
3.26771967700618
 30
0.0
 10
1.856123223345956
 20
3.267505372503432
 30
0.0
  0
LINE
  5
3C9
330
1F
100
AcDbEntity
  8
SLD-0
  6
Continuous
370
    15
100
AcDbLine
 10
1.7985231954
 20
3.7951050376
 30
0.0
 11
1.8261231966
 21
3.7951050376
 31
0.0
  0
LINE
  5
3CA
330
1F
100
AcDbEntity
  8
SLD-0
  6
Continuous
370
    15
100
AcDbLine
 10
1.7985231954
 20
3.3251048138
 30
0.0
 11
1.7985231954
 21
3.7951050376
 31
0.0
  0
LINE
  5
3CB
330
1F
100
AcDbEntity
  8
SLD-0
  6
Continuous
370
    15
100
AcDbLine
 10
16.786123444
 20
26.0077051824
 30
0.0
 11
16.8137234452
 21
26.0077051824
 31
0.0
  0
LINE
  5
3CC
330
1F
100
AcDbEntity
  8
SLD-0
  6
Continuous
370
    15
100
AcDbLine
 10
16.8137234452
 20
26.0077051824
 30
0.0
 11
16.8137234452
 21
25.6327051411
 31
0.0
  0
LINE
  5
3CD
330
1F
100
AcDbEntity
  8
SLD-0
  6
Continuous
370
    15
100
AcDbLine
 10
16.786123444
 20
25.6327051411
 30
0.0
 11
16.8137234452
 21
25.6327051411
 31
0.0
  0
LINE
  5
3CE
330
1F
100
AcDbEntity
  8
SLD-0
  6
Continuous
370
    15
100
AcDbLine
 10
16.786123444
 20
26.0077051824
 30
0.0
 11
16.786123444
 21
25.6327051411
 31
0.0
  0
LINE
  5
3CF
330
1F
100
AcDbEntity
  8
SLD-0
  6
Continuous
370
    15
100
AcDbLine
 10
16.8137234452
 20
24.4127048347
 30
0.0
 11
16.8137234452
 21
25.6327051411
 31
0.0
  0
LINE
  5
3D0
330
1F
100
AcDbEntity
  8
SLD-0
  6
Continuous
370
    15
100
AcDbLine
 10
16.786123444
 20
25.6327051411
 30
0.0
 11
16.786123444
 21
24.4127048347
 31
0.0
  0
LINE
  5
3D1
330
1F
100
AcDbEntity
  8
SLD-0
  6
Continuous
370
    15
100
AcDbLine
 10
16.8137234452
 20
24.4127048347
 30
0.0
 11
16.786123444
 21
24.4127048347
 31
0.0
  0
SPLINE
  5
3D2
330
1F
100
AcDbEntity
  8
SLD-0
  6
Continuous
370
    15
100
AcDbSpline
210
0.0
220
0.0
230
1.0
 70
     8
 71
     3
 72
    14
 73
    10
 74
     0
 42
0.00000001
 43
0.00000001
 12
1.0
 22
0.0
 32
0.0
 13
1.0
 23
0.0
 33
0.0
 40
0.0
 40
0.0
 40
0.0
 40
0.0
 40
0.1503080877669374
 40
0.3146768916328123
 40
0.4931536625692699
 40
0.6282627862583807
 40
0.7577050797071646
 40
0.8815817388321678
 40
1.0
 40
1.0
 40
1.0
 40
1.0
 10
2.08791899895471
 20
24.38270480791773
 30
0.0
 10
2.092885864044767
 20
24.38237802271441
 30
0.0
 10
2.103284224445182
 20
24.38169388286845
 30
0.0
 10
2.120458596033509
 20
24.37619746777257
 30
0.0
 10
2.138137748947178
 20
24.36821658918241
 30
0.0
 10
2.155183898827844
 20
24.35856596321018
 30
0.0
 10
2.170396510738403
 20
24.34828719597432
 30
0.0
 10
2.185361490561061
 20
24.33711183576954
 30
0.0
 10
2.195547272610591
 20
24.3290465673684
 30
0.0
 10
2.200525431448926
 20
24.32510477998483
 30
0.0
  0
LINE
  5
3D3
330
1F
100
AcDbEntity
  8
SLD-0
  6
Continuous
370
    15
100
AcDbLine
 10
2.087918999
 20
24.3827048079
 30
0.0
 11
16.5451229748
 21
24.3827048079
 31
0.0
  0
SPLINE
  5
3D4
330
1F
100
AcDbEntity
  8
SLD-0
  6
Continuous
370
    15
100
AcDbSpline
210
0.0
220
0.0
230
1.0
 70
     8
 71
     3
 72
    14
 73
    10
 74
     0
 42
0.00000001
 43
0.00000001
 12
1.0
 22
0.0
 32
0.0
 13
1.0
 23
0.0
 33
0.0
 40
0.0
 40
0.0
 40
0.0
 40
0.0
 40
0.1503702117492235
 40
0.3148963723848912
 40
0.4936234959113165
 40
0.6288442136773987
 40
0.7582504017322523
 40
0.881935138771154
 40
1.0
 40
1.0
 40
1.0
 40
1.0
 10
16.38257125257873
 20
24.32510477998483
 30
0.0
 10
16.38972714414681
 20
24.32970586119323
 30
0.0
 10
16.40471258753854
 20
24.3393411723677
 30
0.0
 10
16.43019144326792
 20
24.3529831709016
 30
0.0
 10
16.45612250506974
 20
24.3640972970742
 30
0.0
 10
16.48093501284531
 20
24.37248382564652
 30
0.0
 10
16.50302600703886
 20
24.37823293498493
 30
0.0
 10
16.52439506349866
 20
24.38196811990595
 30
0.0
 10
16.53832158615467
 20
24.38246308064528
 30
0.0
 10
16.54512297476737
 20
24.38270480791773
 30
0.0
  0
LINE
  5
3D5
330
1F
100
AcDbEntity
  8
SLD-0
  6
Continuous
370
    15
100
AcDbLine
 10
2.2005254314
 20
24.32510478
 30
0.0
 11
16.3825712526
 21
24.32510478
 31
0.0
  0
LINE
  5
3D6
330
1F
100
AcDbEntity
  8
SLD-0
  6
Continuous
370
    15
100
AcDbLine
 10
16.3929099598
 20
24.32510478
 30
0.0
 11
16.3825712526
 21
24.32510478
 31
0.0
  0
LINE
  5
3D7
330
1F
100
AcDbEntity
  8
SLD-0
  6
Continuous
370
    15
100
AcDbLine
 10
16.5451229748
 20
24.3551048068
 30
0.0
 11
16.5451229748
 21
24.3827048079
 31
0.0
  0
SPLINE
  5
3D8
330
1F
100
AcDbEntity
  8
SLD-0
  6
Continuous
370
    15
100
AcDbSpline
210
0.0
220
0.0
230
1.0
 70
     8
 71
     3
 72
    11
 73
     7
 74
     0
 42
0.00000001
 43
0.00000001
 12
1.0
 22
0.0
 32
0.0
 13
1.0
 23
0.0
 33
0.0
 40
0.0
 40
0.0
 40
0.0
 40
0.0
 40
0.2309801499946729
 40
0.4965344265563766
 40
0.7624917763372177
 40
1.0
 40
1.0
 40
1.0
 40
1.0
 10
16.39290995981177
 20
24.32510477998483
 30
0.0
 10
16.40390682784769
 20
24.32877971344525
 30
0.0
 10
16.42754662358016
 20
24.33667966059847
 30
0.0
 10
16.466019060201
 20
24.34609462154554
 30
0.0
 10
16.50584250291042
 20
24.35339669645858
 30
0.0
 10
16.53253219877527
 20
24.35455729718886
 30
0.0
 10
16.54512297476737
 20
24.3551048067553
 30
0.0
  0
SPLINE
  5
3D9
330
1F
100
AcDbEntity
  8
SLD-0
  6
Continuous
370
    15
100
AcDbSpline
210
0.0
220
0.0
230
1.0
 70
     8
 71
     3
 72
    11
 73
     7
 74
     0
 42
0.00000001
 43
0.00000001
 12
1.0
 22
0.0
 32
0.0
 13
1.0
 23
0.0
 33
0.0
 40
0.0
 40
0.0
 40
0.0
 40
0.0
 40
0.2741979326530387
 40
0.5894237386238287
 40
0.9053288566119263
 40
1.0
 40
1.0
 40
1.0
 40
1.0
 10
2.08791899895471
 20
24.3551048067553
 30
0.0
 10
2.096853758861231
 20
24.35469866480537
 30
0.0
 10
2.116060174959461
 20
24.35382561042372
 30
0.0
 10
2.146919283228129
 20
24.34730020682703
 30
0.0
 10
2.172106997644564
 20
24.3402597860227
 30
0.0
 10
2.187026422870682
 20
24.33435891774657
 30
0.0
 10
2.190466560983188
 20
24.33299828879834
 30
0.0
  0
LINE
  5
3DA
330
1F
100
AcDbEntity
  8
SLD-0
  6
Continuous
370
    15
100
AcDbLine
 10
16.7561234173
 20
24.3827048079
 30
0.0
 11
16.7561234173
 21
24.3551048068
 31
0.0
  0
LINE
  5
3DB
330
1F
100
AcDbEntity
  8
SLD-0
  6
Continuous
370
    15
100
AcDbLine
 10
16.7561234173
 20
24.3551048068
 30
0.0
 11
16.5451229748
 21
24.3551048068
 31
0.0
  0
LINE
  5
3DC
330
1F
100
AcDbEntity
  8
SLD-0
  6
Continuous
370
    15
100
AcDbLine
 10
16.7561234173
 20
24.3827048079
 30
0.0
 11
16.5451229748
 21
24.3827048079
 31
0.0
  0
ARC
  5
3DD
330
1F
100
AcDbEntity
  8
SLD-0
  6
Continuous
370
    15
100
AcDbCircle
 10
16.7561232053
 20
24.4127049077
 30
0.0
 40
0.0300000000000011
100
AcDbArc
 50
270.0
 51
0.0
  0
ARC
  5
3DE
330
1F
100
AcDbEntity
  8
SLD-0
  6
Continuous
370
    15
100
AcDbCircle
 10
16.7561232053
 20
24.4127049077
 30
0.0
 40
0.0576000000000008
100
AcDbArc
 50
270.0
 51
0.0
  0
LINE
  5
3DF
330
1F
100
AcDbEntity
  8
SLD-0
  6
Continuous
370
    15
100
AcDbLine
 10
16.3825712526
 20
24.32510478
 30
0.0
 11
15.3039864858
 21
23.8551051428
 31
0.0
  0
LINE
  5
3E0
330
1F
100
AcDbEntity
  8
SLD-0
  6
Continuous
370
    15
100
AcDbLine
 10
3.2271503185
 20
23.8551051428
 30
0.0
 11
15.3039864858
 21
23.8551051428
 31
0.0
  0
LINE
  5
3E1
330
1F
100
AcDbEntity
  8
SLD-0
  6
Continuous
370
    15
100
AcDbLine
 10
3.2271503185
 20
23.8551051428
 30
0.0
 11
2.2005254314
 21
24.32510478
 31
0.0
  0
LINE
  5
3E2
330
1F
100
AcDbEntity
  8
SLD-0
  6
Continuous
370
    15
100
AcDbLine
 10
15.3143257797
 20
23.8551051428
 30
0.0
 11
15.3039864858
 21
23.8551051428
 31
0.0
  0
LINE
  5
3E3
330
1F
100
AcDbEntity
  8
SLD-0
  6
Continuous
370
    15
100
AcDbLine
 10
16.3929099598
 20
24.32510478
 30
0.0
 11
15.3143257797
 21
23.8551051428
 31
0.0
  0
LINE
  5
3E4
330
1F
100
AcDbEntity
  8
SLD-0
  6
Continuous
370
    15
100
AcDbLine
 10
2.087918999
 20
24.3551048068
 30
0.0
 11
2.087918999
 21
24.3827048079
 31
0.0
  0
LINE
  5
3E5
330
1F
100
AcDbEntity
  8
SLD-0
  6
Continuous
370
    15
100
AcDbLine
 10
1.8561232233
 20
24.3551048068
 30
0.0
 11
1.8561232233
 21
24.3827048079
 31
0.0
  0
LINE
  5
3E6
330
1F
100
AcDbEntity
  8
SLD-0
  6
Continuous
370
    15
100
AcDbLine
 10
1.8561232233
 20
24.3551048068
 30
0.0
 11
2.087918999
 21
24.3551048068
 31
0.0
  0
LINE
  5
3E7
330
1F
100
AcDbEntity
  8
SLD-0
  6
Continuous
370
    15
100
AcDbLine
 10
1.8561232233
 20
24.3827048079
 30
0.0
 11
2.087918999
 21
24.3827048079
 31
0.0
  0
SPLINE
  5
3E8
330
1F
100
AcDbEntity
  8
SLD-0
  6
Continuous
370
    15
100
AcDbSpline
210
0.0
220
0.0
230
1.0
 70
     8
 71
     3
 72
    15
 73
    11
 74
     0
 42
0.00000001
 43
0.00000001
 12
1.0
 22
0.0
 32
0.0
 13
1.0
 23
0.0
 33
0.0
 40
0.0
 40
0.0
 40
0.0
 40
0.0
 40
0.1250021471489848
 40
0.2499999681489645
 40
0.3750015569596218
 40
0.4999995730381022
 40
0.6249975891165825
 40
0.7499991779272399
 40
0.8749982881009063
 40
1.0
 40
1.0
 40
1.0
 40
1.0
 10
1.798523195413061
 20
24.32510477998483
 30
0.0
 10
1.798737670308116
 20
24.32887478121169
 30
0.0
 10
1.799166612675549
 20
24.33641465319096
 30
0.0
 10
1.802591559774216
 20
24.34728932177635
 30
0.0
 10
1.807914714202838
 20
24.35731268574259
 30
0.0
 10
1.815133158320005
 20
24.36609483071138
 30
0.0
 10
1.823915310551325
 20
24.37331335336324
 30
0.0
 10
1.833938758461389
 20
24.37863621920928
 30
0.0
 10
1.844813250996422
 20
24.38206231330512
 30
0.0
 10
1.852353206407007
 20
24.382490641561
 30
0.0
 10
1.856123223345956
 20
24.38270480791773
 30
0.0
  0
SPLINE
  5
3E9
330
1F
100
AcDbEntity
  8
SLD-0
  6
Continuous
370
    15
100
AcDbSpline
210
0.0
220
0.0
230
1.0
 70
     8
 71
     3
 72
    11
 73
     7
 74
     0
 42
0.00000001
 43
0.00000001
 12
1.0
 22
0.0
 32
0.0
 13
1.0
 23
0.0
 33
0.0
 40
0.0
 40
0.0
 40
0.0
 40
0.0
 40
0.2499990300825129
 40
0.5000023632752174
 40
0.7500018681387798
 40
1.0
 40
1.0
 40
1.0
 40
1.0
 10
1.826123196575492
 20
24.32510477998483
 30
0.0
 10
1.826574272352927
 20
24.32903577836472
 30
0.0
 10
1.827476431671947
 20
24.33689784278685
 30
0.0
 10
1.834413588958973
 20
24.34681499838968
 30
0.0
 10
1.844330063445776
 20
24.35375231628
 30
0.0
 10
1.852192177242396
 20
24.35465397742219
 30
0.0
 10
1.856123223345956
 20
24.3551048067553
 30
0.0
  0
LINE
  5
3EA
330
1F
100
AcDbEntity
  8
SLD-0
  6
Continuous
370
    15
100
AcDbLine
 10
1.8261231966
 20
24.32510478
 30
0.0
 11
1.7985231954
 21
24.32510478
 31
0.0
  0
LINE
  5
3EB
330
1F
100
AcDbEntity
  8
SLD-0
  6
Continuous
370
    15
100
AcDbLine
 10
1.8261231966
 20
23.8551051428
 30
0.0
 11
1.7985231954
 21
23.8551051428
 31
0.0
  0
LINE
  5
3EC
330
1F
100
AcDbEntity
  8
SLD-0
  6
Continuous
370
    15
100
AcDbLine
 10
1.7985231954
 20
24.32510478
 30
0.0
 11
1.7985231954
 21
23.8551051428
 31
0.0
  0
LINE
  5
3ED
330
1F
100
AcDbEntity
  8
SLD-0
  6
Continuous
370
    15
100
AcDbLine
 10
16.7548849782
 20
7.8251047227
 30
0.0
 11
16.7884847501
 21
7.8251047227
 31
0.0
  0
LINE
  5
3EE
330
1F
100
AcDbEntity
  8
SLD-0
  6
Continuous
370
    15
100
AcDbLine
 10
16.7548849782
 20
3.7001048551
 30
0.0
 11
16.7884847501
 21
3.7001048551
 31
0.0
  0
LINE
  5
3EF
330
1F
100
AcDbEntity
  8
SLD-0
  6
Continuous
370
    15
100
AcDbLine
 10
16.7548849782
 20
7.8251047227
 30
0.0
 11
16.7548849782
 21
3.7001048551
 31
0.0
  0
LINE
  5
3F0
330
1F
100
AcDbEntity
  8
SLD-0
  6
Continuous
370
    15
100
AcDbLine
 10
16.7884847501
 20
7.8251047227
 30
0.0
 11
16.7884847501
 21
3.7001048551
 31
0.0
  0
LINE
  5
3F1
330
1F
100
AcDbEntity
  8
SLD-0
  6
Continuous
370
    15
100
AcDbLine
 10
16.7548849782
 20
24.32510478
 30
0.0
 11
16.7548849782
 21
9.3251048879
 31
0.0
  0
LINE
  5
3F2
330
1F
100
AcDbEntity
  8
SLD-0
  6
Continuous
370
    15
100
AcDbLine
 10
16.7548849782
 20
9.3251048879
 30
0.0
 11
16.7884847501
 21
9.3251048879
 31
0.0
  0
LINE
  5
3F3
330
1F
100
AcDbEntity
  8
SLD-0
  6
Continuous
370
    15
100
AcDbLine
 10
16.7884847501
 20
24.32510478
 30
0.0
 11
16.7548849782
 21
24.32510478
 31
0.0
  0
LINE
  5
3F4
330
1F
100
AcDbEntity
  8
SLD-0
  6
Continuous
370
    15
100
AcDbLine
 10
16.7884847501
 20
24.32510478
 30
0.0
 11
16.7884847501
 21
9.3251048879
 31
0.0
  0
LINE
  5
3F5
330
1F
100
AcDbEntity
  8
SLD-0
  6
Continuous
370
    15
100
AcDbLine
 10
16.7884847501
 20
3.3251048138
 30
0.0
 11
16.7548849782
 21
3.3251048138
 31
0.0
  0
LINE
  5
3F6
330
1F
100
AcDbEntity
  8
SLD-0
  6
Continuous
370
    15
100
AcDbLine
 10
16.7548849782
 20
3.3251048138
 30
0.0
 11
16.7548849782
 21
3.7001048551
 31
0.0
  0
LINE
  5
3F7
330
1F
100
AcDbEntity
  8
SLD-0
  6
Continuous
370
    15
100
AcDbLine
 10
16.7884847501
 20
3.7001048551
 30
0.0
 11
16.7884847501
 21
3.3251048138
 31
0.0
  0
LINE
  5
3F8
330
1F
100
AcDbEntity
  8
SLD-0
  6
Continuous
370
    15
100
AcDbLine
 10
16.7548849782
 20
9.3251048879
 30
0.0
 11
16.7548849782
 21
7.8251047227
 31
0.0
  0
LINE
  5
3F9
330
1F
100
AcDbEntity
  8
SLD-0
  6
Continuous
370
    15
100
AcDbLine
 10
16.7884847501
 20
9.3060589746
 30
0.0
 11
16.7884847501
 21
7.8251047227
 31
0.0
  0
LINE
  5
3FA
330
1F
100
AcDbEntity
  8
SLD-0
  6
Continuous
370
    15
100
AcDbLine
 10
16.7361230083
 20
24.32510478
 30
0.0
 11
16.7361230083
 21
11.4652548314
 31
0.0
  0
LINE
  5
3FB
330
1F
100
AcDbEntity
  8
SLD-0
  6
Continuous
370
    15
100
AcDbLine
 10
16.7361230083
 20
11.4652548314
 30
0.0
 11
16.7548849782
 21
11.4652548314
 31
0.0
  0
LINE
  5
3FC
330
1F
100
AcDbEntity
  8
SLD-0
  6
Continuous
370
    15
100
AcDbLine
 10
16.7548849782
 20
24.32510478
 30
0.0
 11
16.7361230083
 21
24.32510478
 31
0.0
  0
LINE
  5
3FD
330
1F
100
AcDbEntity
  8
SLD-0
  6
Continuous
370
    15
100
AcDbLine
 10
16.7361230083
 20
10.7152550421
 30
0.0
 11
16.7361230083
 21
3.3251048138
 31
0.0
  0
LINE
  5
3FE
330
1F
100
AcDbEntity
  8
SLD-0
  6
Continuous
370
    15
100
AcDbLine
 10
16.7548849782
 20
10.7152550421
 30
0.0
 11
16.7361230083
 21
10.7152550421
 31
0.0
  0
LINE
  5
3FF
330
1F
100
AcDbEntity
  8
SLD-0
  6
Continuous
370
    15
100
AcDbLine
 10
16.7361230083
 20
3.3251048138
 30
0.0
 11
16.7548849782
 21
3.3251048138
 31
0.0
  0
LINE
  5
400
330
1F
100
AcDbEntity
  8
SLD-0
  6
Continuous
370
    15
100
AcDbLine
 10
1.8658981504
 20
24.32510478
 30
0.0
 11
1.8658981504
 21
3.3251048138
 31
0.0
  0
LINE
  5
401
330
1F
100
AcDbEntity
  8
SLD-0
  6
Continuous
370
    15
100
AcDbLine
 10
16.7361230083
 20
10.7152550421
 30
0.0
 11
16.7361230083
 21
11.4652548314
 31
0.0
  0
LWPOLYLINE
  5
402
330
1F
100
AcDbEntity
  8
SLD-0
  6
Continuous
370
    15
100
AcDbPolyline
 90
      141
 70
   128
 43
0.0
 10
8.3675431762
 20
5.3251046429
 10
8.366580394
 20
5.3713715751
 10
8.3636940273
 20
5.4175452284
 10
8.3588897228
 20
5.4635329105
 10
8.3521773804
 20
5.5092419291
 10
8.3435703465
 20
5.554579592
 10
8.3330860009
 20
5.5994555536
 10
8.3207454635
 20
5.6437788816
 10
8.3065736672
 20
5.6874604036
 10
8.2905989917
 20
5.7304121208
 10
8.2728537767
 20
5.772547794
 10
8.2533736618
 20
5.813781771
 10
8.2321978064
 20
5.8540325061
 10
8.2093690368
 20
5.8932172801
 10
8.1849331857
 20
5.9312586539
 10
8.1589395327
 20
5.9680786019
 10
8.131440437
 20
6.0036043782
 10
8.1024911914
 20
6.0377632369
 10
8.0721501686
 20
6.0704871256
 10
8.0404784545
 20
6.1017097515
 10
8.007539775
 20
6.1313683422
 10
7.9734005694
 20
6.159403645
 10
7.9381295502
 20
6.1857587539
 10
7.9017978499
 20
6.2103802828
 10
7.864478361
 20
6.2332189523
 10
7.8262464693
 20
6.254229003
 10
7.7871790273
 20
6.2733681952
 10
7.747354794
 20
6.2905972228
 10
7.7068539952
 20
6.3058820596
 10
7.6657581766
 20
6.3191916125
 10
7.6241500573
 20
6.3304994819
 10
7.5821135296
 20
6.3397822013
 10
7.5397330725
 20
6.3470215843
 10
7.4970941917
 20
6.3522035511
 10
7.4542826863
 20
6.3553163685
 10
7.4113847952
 20
6.3563547565
 10
7.3684870507
 20
6.3553163685
 10
7.3256755453
 20
6.3522035511
 10
7.2830366645
 20
6.3470215843
 10
7.2406562074
 20
6.3397822013
 10
7.1986196797
 20
6.3304994819
 10
7.1570115604
 20
6.3191916125
 10
7.1159157418
 20
6.3058820596
 10
7.075414943
 20
6.2905972228
 10
7.0355907097
 20
6.2733681952
 10
6.9965232677
 20
6.254229003
 10
6.958291376
 20
6.2332189523
 10
6.9209718871
 20
6.2103802828
 10
6.8846400402
 20
6.1857587539
 10
6.8493690209
 20
6.159403645
 10
6.8152298153
 20
6.1313683422
 10
6.7822913558
 20
6.1017097515
 10
6.7506196417
 20
6.0704871256
 10
6.7202784722
 20
6.0377632369
 10
6.6913291533
 20
6.0036043782
 10
6.6638300576
 20
5.9680786019
 10
6.6378366246
 20
5.9312586539
 10
6.6134007735
 20
5.8932172801
 10
6.5905717839
 20
5.8540325061
 10
6.5693960019
 20
5.813781771
 10
6.5499159603
 20
5.772547794
 10
6.5321706719
 20
5.7304121208
 10
6.5161962165
 20
5.6874604036
 10
6.5020242735
 20
5.6437788816
 10
6.4896835894
 20
5.5994555536
 10
6.4791993905
 20
5.554579592
 10
6.4705925033
 20
5.5092419291
 10
6.4638799408
 20
5.4635329105
 10
6.459075783
 20
5.4175452284
 10
6.4561894163
 20
5.3713715751
 10
6.4552264141
 20
5.3251046429
 10
6.4561894163
 20
5.2788382974
 10
6.459075783
 20
5.2326646441
 10
6.4638799408
 20
5.1866763754
 10
6.4705925033
 20
5.1409685301
 10
6.4791993905
 20
5.0956302805
 10
6.4896835894
 20
5.0507543189
 10
6.5020242735
 20
5.006430991
 10
6.5161962165
 20
4.9627494689
 10
6.5321706719
 20
4.9197977517
 10
6.5499159603
 20
4.8776626652
 10
6.5693960019
 20
4.8364275148
 10
6.5905717839
 20
4.7961779531
 10
6.6134007735
 20
4.7569925925
 10
6.6378366246
 20
4.7189512186
 10
6.6638300576
 20
4.6821312706
 10
6.6913291533
 20
4.6466054944
 10
6.7202784722
 20
4.6124466356
 10
6.7506196417
 20
4.579722747
 10
6.7822913558
 20
4.5484995343
 10
6.8152298153
 20
4.5188415303
 10
6.8493690209
 20
4.4908062275
 10
6.8846400402
 20
4.4644511186
 10
6.9209718871
 20
4.4398290031
 10
6.958291376
 20
4.4169903336
 10
6.9965232677
 20
4.3959808696
 10
7.0355907097
 20
4.3768416774
 10
7.075414943
 20
4.3596126497
 10
7.1159157418
 20
4.344327813
 10
7.1570115604
 20
4.3310176734
 10
7.1986196797
 20
4.3197103907
 10
7.2406562074
 20
4.3104270846
 10
7.2830366645
 20
4.3031877015
 10
7.3256755453
 20
4.2980063214
 10
7.3684870507
 20
4.294893504
 10
7.4113847952
 20
4.293855116
 10
7.4542826863
 20
4.294893504
 10
7.4970941917
 20
4.2980063214
 10
7.5397330725
 20
4.3031877015
 10
7.5821135296
 20
4.3104270846
 10
7.6241500573
 20
4.3197103907
 10
7.6657581766
 20
4.3310176734
 10
7.7068539952
 20
4.344327813
 10
7.747354794
 20
4.3596126497
 10
7.7871790273
 20
4.3768416774
 10
7.8262464693
 20
4.3959808696
 10
7.864478361
 20
4.4169903336
 10
7.9017978499
 20
4.4398290031
 10
7.9381295502
 20
4.4644511186
 10
7.9734005694
 20
4.4908062275
 10
8.007539775
 20
4.5188415303
 10
8.0404784545
 20
4.5484995343
 10
8.0721501686
 20
4.579722747
 10
8.1024911914
 20
4.6124466356
 10
8.131440437
 20
4.6466054944
 10
8.1589395327
 20
4.6821312706
 10
8.1849331857
 20
4.7189512186
 10
8.2093690368
 20
4.7569925925
 10
8.2321978064
 20
4.7961779531
 10
8.2533736618
 20
4.8364275148
 10
8.2728537767
 20
4.8776626652
 10
8.2905989917
 20
4.9197977517
 10
8.3065736672
 20
4.9627494689
 10
8.3207454635
 20
5.006430991
 10
8.3330860009
 20
5.0507543189
 10
8.3435703465
 20
5.0956302805
 10
8.3521773804
 20
5.1409685301
 10
8.3588897228
 20
5.1866763754
 10
8.3636940273
 20
5.2326646441
 10
8.366580394
 20
5.2788382974
 10
8.3675431762
 20
5.3251046429
  0
LWPOLYLINE
  5
403
330
1F
100
AcDbEntity
  8
SLD-0
  6
Continuous
370
    15
100
AcDbPolyline
 90
       85
 70
   128
 43
0.0
 10
10.0615840332
 20
23.3251048654
 10
10.0606117911
 20
23.353128435
 10
10.0577005647
 20
23.3809959531
 10
10.0528666339
 20
23.4085501948
 10
10.0461369849
 20
23.4356380418
 10
10.0375492375
 20
23.4621075494
 10
10.0271514976
 20
23.4878114658
 10
10.0150019179
 20
23.5126048861
 10
10.0011683311
 20
23.5363499451
 10
9.9857281761
 20
23.5589134711
 10
9.9687677654
 20
23.5801699189
 10
9.9503820644
 20
23.5999996098
 10
9.9306737388
 20
23.6182916652
 10
9.9097530805
 20
23.6349445928
 10
9.8877370548
 20
23.6498645271
 10
9.8647488604
 20
23.6629681624
 10
9.8409169757
 20
23.6741827528
 10
9.8163746825
 20
23.6834449392
 10
9.791259296
 20
23.6907030953
 10
9.7657112111
 20
23.6959167418
 10
9.7398733163
 20
23.6990565455
 10
9.7138901131
 20
23.7001049067
 10
9.6879069099
 20
23.6990565455
 10
9.6620690151
 20
23.6959167418
 10
9.6365209302
 20
23.6907030953
 10
9.611405507
 20
23.6834449392
 10
9.5868632505
 20
23.6741827528
 10
9.5630313658
 20
23.6629681624
 10
9.5400431347
 20
23.6498645271
 10
9.5180271274
 20
23.6349445928
 10
9.4971064691
 20
23.6182916652
 10
9.4773981617
 20
23.5999996098
 10
9.4590124058
 20
23.5801699189
 10
9.4420520317
 20
23.5589134711
 10
9.4266118767
 20
23.5363499451
 10
9.4127783082
 20
23.5126048861
 10
9.4006286827
 20
23.4878114658
 10
9.3902309337
 20
23.4621075494
 10
9.3816432229
 20
23.4356380418
 10
9.374913574
 20
23.4085501948
 10
9.3700796156
 20
23.3809959531
 10
9.3671683801
 20
23.353128435
 10
9.3661961563
 20
23.3251048654
 10
9.3671683801
 20
23.2970812958
 10
9.3700796156
 20
23.2692137777
 10
9.374913574
 20
23.241659536
 10
9.3816432229
 20
23.214571689
 10
9.3902309337
 20
23.1881021814
 10
9.4006286827
 20
23.162398265
 10
9.4127783082
 20
23.1376048448
 10
9.4266118767
 20
23.1138597857
 10
9.4420520317
 20
23.0912962597
 10
9.4590124058
 20
23.0700403986
 10
9.4773981617
 20
23.0502107077
 10
9.4971064691
 20
23.0319180657
 10
9.5180271274
 20
23.015265138
 10
9.5400431347
 20
23.0003452037
 10
9.5630313658
 20
22.9872415684
 10
9.5868632505
 20
22.976026978
 10
9.611405507
 20
22.9667653783
 10
9.6365209302
 20
22.9595072222
 10
9.6620690151
 20
22.9542935757
 10
9.6879069099
 20
22.951153772
 10
9.7138901131
 20
22.9501048241
 10
9.7398733163
 20
22.951153772
 10
9.7657112111
 20
22.9542935757
 10
9.791259296
 20
22.9595072222
 10
9.8163746825
 20
22.9667653783
 10
9.8409169757
 20
22.976026978
 10
9.8647488604
 20
22.9872415684
 10
9.8877370548
 20
23.0003452037
 10
9.9097530805
 20
23.015265138
 10
9.9306737388
 20
23.0319180657
 10
9.9503820644
 20
23.0502107077
 10
9.9687677654
 20
23.0700403986
 10
9.9857281761
 20
23.0912962597
 10
10.0011683311
 20
23.1138597857
 10
10.0150019179
 20
23.1376048448
 10
10.0271514976
 20
23.162398265
 10
10.0375492375
 20
23.1881021814
 10
10.0461369849
 20
23.214571689
 10
10.0528666339
 20
23.241659536
 10
10.0577005647
 20
23.2692137777
 10
10.0606117911
 20
23.2970812958
 10
10.0615840332
 20
23.3251048654
  0
LINE
  5
404
330
1F
100
AcDbEntity
  8
SLD-0
  6
Continuous
370
    15
100
AcDbLine
 10
14.6516130621
 20
6.3563547565
 30
0.0
 11
14.6516130621
 21
6.3721048146
 31
0.0
  0
LINE
  5
405
330
1F
100
AcDbEntity
  8
SLD-0
  6
Continuous
370
    15
100
AcDbLine
 10
14.6516130621
 20
6.3721048146
 30
0.0
 11
13.4972690905
 21
6.3721048146
 31
0.0
  0
LINE
  5
406
330
1F
100
AcDbEntity
  8
SLD-0
  6
Continuous
370
    15
100
AcDbLine
 10
13.4972690905
 20
6.3721048146
 30
0.0
 11
13.4972690905
 21
6.3563547565
 31
0.0
  0
LINE
  5
407
330
1F
100
AcDbEntity
  8
SLD-0
  6
Continuous
370
    15
100
AcDbLine
 10
13.4972690905
 20
6.3563547565
 30
0.0
 11
13.3813712027
 21
6.3563547565
 31
0.0
  0
LINE
  5
408
330
1F
100
AcDbEntity
  8
SLD-0
  6
Continuous
370
    15
100
AcDbLine
 10
13.3813712027
 20
6.3563547565
 30
0.0
 11
13.3813712027
 21
6.3721048146
 31
0.0
  0
LINE
  5
409
330
1F
100
AcDbEntity
  8
SLD-0
  6
Continuous
370
    15
100
AcDbLine
 10
13.3813712027
 20
6.3721048146
 30
0.0
 11
10.3592152949
 21
6.3721048146
 31
0.0
  0
LINE
  5
40A
330
1F
100
AcDbEntity
  8
SLD-0
  6
Continuous
370
    15
100
AcDbLine
 10
10.3592152949
 20
6.3721048146
 30
0.0
 11
10.3592152949
 21
6.3563547565
 31
0.0
  0
LINE
  5
40B
330
1F
100
AcDbEntity
  8
SLD-0
  6
Continuous
370
    15
100
AcDbLine
 10
10.3592152949
 20
6.3563547565
 30
0.0
 11
10.2433173338
 21
6.3563547565
 31
0.0
  0
LINE
  5
40C
330
1F
100
AcDbEntity
  8
SLD-0
  6
Continuous
370
    15
100
AcDbLine
 10
10.2433173338
 20
6.3563547565
 30
0.0
 11
10.2433173338
 21
6.3721048146
 31
0.0
  0
LINE
  5
40D
330
1F
100
AcDbEntity
  8
SLD-0
  6
Continuous
370
    15
100
AcDbLine
 10
10.2433173338
 20
6.3721048146
 30
0.0
 11
9.0889733988
 21
6.3721048146
 31
0.0
  0
LINE
  5
40E
330
1F
100
AcDbEntity
  8
SLD-0
  6
Continuous
370
    15
100
AcDbLine
 10
9.0889733988
 20
6.3721048146
 30
0.0
 11
9.0889733988
 21
6.3563547565
 31
0.0
  0
LINE
  5
40F
330
1F
100
AcDbEntity
  8
SLD-0
  6
Continuous
370
    15
100
AcDbLine
 10
9.0889733988
 20
6.3563547565
 30
0.0
 11
8.9730754194
 21
6.3563547565
 31
0.0
  0
LINE
  5
410
330
1F
100
AcDbEntity
  8
SLD-0
  6
Continuous
370
    15
100
AcDbLine
 10
8.9730754194
 20
6.3563547565
 30
0.0
 11
8.8859201445
 21
6.3563547565
 31
0.0
  0
LINE
  5
411
330
1F
100
AcDbEntity
  8
SLD-0
  6
Continuous
370
    15
100
AcDbLine
 10
8.8859201445
 20
6.3563547565
 30
0.0
 11
8.8859201445
 21
4.293855116
 31
0.0
  0
LINE
  5
412
330
1F
100
AcDbEntity
  8
SLD-0
  6
Continuous
370
    15
100
AcDbLine
 10
8.8859201445
 20
4.293855116
 30
0.0
 11
14.8546660231
 21
4.293855116
 31
0.0
  0
LINE
  5
413
330
1F
100
AcDbEntity
  8
SLD-0
  6
Continuous
370
    15
100
AcDbLine
 10
14.8546660231
 20
4.293855116
 30
0.0
 11
14.8546660231
 21
6.3563547565
 31
0.0
  0
LINE
  5
414
330
1F
100
AcDbEntity
  8
SLD-0
  6
Continuous
370
    15
100
AcDbLine
 10
14.8546660231
 20
6.3563547565
 30
0.0
 11
14.7675106566
 21
6.3563547565
 31
0.0
  0
LINE
  5
415
330
1F
100
AcDbEntity
  8
SLD-0
  6
Continuous
370
    15
100
AcDbLine
 10
14.7675106566
 20
6.3563547565
 30
0.0
 11
14.6516130621
 21
6.3563547565
 31
0.0
  0
LINE
  5
416
330
1F
100
AcDbEntity
  8
SLD-0
  6
Continuous
370
    15
100
AcDbLine
 10
16.7361230083
 20
24.32510478
 30
0.0
 11
16.3939366146
 21
24.32510478
 31
0.0
  0
LINE
  5
417
330
1F
100
AcDbEntity
  8
SLD-0
  6
Continuous
370
    15
100
AcDbLine
 10
2.2005254314
 20
24.32510478
 30
0.0
 11
1.8658981504
 21
24.32510478
 31
0.0
  0
LINE
  5
418
330
1F
100
AcDbEntity
  8
SLD-0
  6
Continuous
370
    15
100
AcDbLine
 10
16.7361230083
 20
3.3251048138
 30
0.0
 11
16.6049364705
 21
3.3251048138
 31
0.0
  0
LINE
  5
419
330
1F
100
AcDbEntity
  8
SLD-0
  6
Continuous
370
    15
100
AcDbLine
 10
2.2005254314
 20
3.3251048138
 30
0.0
 11
1.8658981504
 21
3.3251048138
 31
0.0
  0
LINE
  5
41A
330
1F
100
AcDbEntity
  8
SLD-0
  6
Continuous
370
    15
100
AcDbLine
 10
16.7487097962
 20
10.7152550421
 30
0.0
 11
16.7487097962
 21
11.4652548314
 31
0.0
  0
LWPOLYLINE
  5
41B
330
1F
100
AcDbEntity
  8
SLD-0
  6
Continuous
370
    15
100
AcDbPolyline
 90
        9
 70
   128
 43
0.0
 10
14.791336088
 20
6.2927549579
 10
14.7866879817
 20
6.2939769704
 10
14.78221822
 20
6.2975960753
 10
14.7780992809
 20
6.3034732341
 10
14.7744889759
 20
6.3113831694
 10
14.7715263435
 20
6.321020818
 10
14.7693246089
 20
6.3320159977
 10
14.7679688379
 20
6.3439468999
 10
14.7675106566
 20
6.3563547565
  0
LINE
  5
41C
330
1F
100
AcDbEntity
  8
SLD-0
  6
Continuous
370
    15
100
AcDbLine
 10
14.791336088
 20
6.2927549579
 30
0.0
 11
14.6754379069
 21
6.2927549579
 31
0.0
  0
LWPOLYLINE
  5
41D
330
1F
100
AcDbEntity
  8
SLD-0
  6
Continuous
370
    15
100
AcDbPolyline
 90
        9
 70
   128
 43
0.0
 10
14.6516130621
 20
6.3563547565
 10
14.6520706568
 20
6.3439468999
 10
14.6534264278
 20
6.3320159977
 10
14.6556281624
 20
6.321020818
 10
14.6585913815
 20
6.3113831694
 10
14.6622016864
 20
6.3034732341
 10
14.6663206255
 20
6.2975960753
 10
14.6707898006
 20
6.2939769704
 10
14.6754379069
 20
6.2927549579
  0
LWPOLYLINE
  5
41E
330
1F
100
AcDbEntity
  8
SLD-0
  6
Continuous
370
    15
100
AcDbPolyline
 90
        9
 70
   128
 43
0.0
 10
14.791336088
 20
6.3263547297
 10
14.7891431533
 20
6.3269314164
 10
14.7870352843
 20
6.3286385967
 10
14.7850922668
 20
6.3314105647
 10
14.7833891931
 20
6.3351417216
 10
14.7819917693
 20
6.3396877491
 10
14.7809533813
 20
6.3448744091
 10
14.780313922
 20
6.3505022375
 10
14.7800974445
 20
6.3563547565
  0
LINE
  5
41F
330
1F
100
AcDbEntity
  8
SLD-0
  6
Continuous
370
    15
100
AcDbLine
 10
14.791336088
 20
6.2927549579
 30
0.0
 11
14.791336088
 21
6.3263547297
 31
0.0
  0
LINE
  5
420
330
1F
100
AcDbEntity
  8
SLD-0
  6
Continuous
370
    15
100
AcDbLine
 10
14.8546660231
 20
6.3263547297
 30
0.0
 11
14.791336088
 21
6.3263547297
 31
0.0
  0
LINE
  5
421
330
1F
100
AcDbEntity
  8
SLD-0
  6
Continuous
370
    15
100
AcDbLine
 10
14.791336088
 20
6.2927549579
 30
0.0
 11
14.8546660231
 21
6.2927549579
 31
0.0
  0
LINE
  5
422
330
1F
100
AcDbEntity
  8
SLD-0
  6
Continuous
370
    15
100
AcDbLine
 10
13.5228682881
 20
6.2927549579
 30
0.0
 11
13.5228682881
 21
6.3263547297
 31
0.0
  0
LINE
  5
423
330
1F
100
AcDbEntity
  8
SLD-0
  6
Continuous
370
    15
100
AcDbLine
 10
14.6544302029
 20
6.3263547297
 30
0.0
 11
13.5228682881
 21
6.3263547297
 31
0.0
  0
LINE
  5
424
330
1F
100
AcDbEntity
  8
SLD-0
  6
Continuous
370
    15
100
AcDbLine
 10
13.5228682881
 20
6.2927549579
 30
0.0
 11
14.6754379069
 21
6.2927549579
 31
0.0
  0
LWPOLYLINE
  5
425
330
1F
100
AcDbEntity
  8
SLD-0
  6
Continuous
370
    15
100
AcDbPolyline
 90
        9
 70
   128
 43
0.0
 10
13.5210939353
 20
6.2927549579
 10
13.5164461223
 20
6.2939769704
 10
13.5119766539
 20
6.2975960753
 10
13.5078577148
 20
6.3034732341
 10
13.5042471166
 20
6.3113831694
 10
13.5012841908
 20
6.321020818
 10
13.4990827496
 20
6.3320159977
 10
13.4977269785
 20
6.3439468999
 10
13.4972690905
 20
6.3563547565
  0
LINE
  5
426
330
1F
100
AcDbEntity
  8
SLD-0
  6
Continuous
370
    15
100
AcDbLine
 10
13.4972690905
 20
6.3563547565
 30
0.0
 11
13.5098558784
 21
6.3563547565
 31
0.0
  0
LWPOLYLINE
  5
427
330
1F
100
AcDbEntity
  8
SLD-0
  6
Continuous
370
    15
100
AcDbPolyline
 90
        9
 70
   128
 43
0.0
 10
13.5210939353
 20
6.3263547297
 10
13.5189015873
 20
6.3269314164
 10
13.516793425
 20
6.3286385967
 10
13.5148504074
 20
6.3314105647
 10
13.5131473337
 20
6.3351417216
 10
13.5117499099
 20
6.3396877491
 10
13.5107112286
 20
6.3448744091
 10
13.5100717693
 20
6.3505022375
 10
13.5098558784
 20
6.3563547565
  0
LINE
  5
428
330
1F
100
AcDbEntity
  8
SLD-0
  6
Continuous
370
    15
100
AcDbLine
 10
13.5210939353
 20
6.2927549579
 30
0.0
 11
13.5210939353
 21
6.3263547297
 31
0.0
  0
LINE
  5
429
330
1F
100
AcDbEntity
  8
SLD-0
  6
Continuous
370
    15
100
AcDbLine
 10
13.5098558784
 20
6.3563547565
 30
0.0
 11
13.5098558784
 21
6.3721048146
 31
0.0
  0
LWPOLYLINE
  5
42A
330
1F
100
AcDbEntity
  8
SLD-0
  6
Continuous
370
    15
100
AcDbPolyline
 90
        9
 70
   128
 43
0.0
 10
13.3813712027
 20
6.3563547565
 10
13.3818287974
 20
6.3439468999
 10
13.3831845684
 20
6.3320159977
 10
13.385386303
 20
6.321020818
 10
13.3883492288
 20
6.3113831694
 10
13.3919595337
 20
6.3034732341
 10
13.3960784728
 20
6.2975960753
 10
13.4005479412
 20
6.2939769704
 10
13.4051960475
 20
6.2927549579
  0
LINE
  5
42B
330
1F
100
AcDbEntity
  8
SLD-0
  6
Continuous
370
    15
100
AcDbLine
 10
13.5210939353
 20
6.2927549579
 30
0.0
 11
13.4051960475
 21
6.2927549579
 31
0.0
  0
LINE
  5
42C
330
1F
100
AcDbEntity
  8
SLD-0
  6
Continuous
370
    15
100
AcDbLine
 10
13.5228682881
 20
6.3263547297
 30
0.0
 11
13.5210939353
 21
6.3263547297
 31
0.0
  0
LINE
  5
42D
330
1F
100
AcDbEntity
  8
SLD-0
  6
Continuous
370
    15
100
AcDbLine
 10
13.5210939353
 20
6.2927549579
 30
0.0
 11
13.5228682881
 21
6.2927549579
 31
0.0
  0
LINE
  5
42E
330
1F
100
AcDbEntity
  8
SLD-0
  6
Continuous
370
    15
100
AcDbLine
 10
10.3848147125
 20
6.2927549579
 30
0.0
 11
10.3848147125
 21
6.3263547297
 31
0.0
  0
LINE
  5
42F
330
1F
100
AcDbEntity
  8
SLD-0
  6
Continuous
370
    15
100
AcDbLine
 10
13.3841880502
 20
6.3263547297
 30
0.0
 11
10.3848147125
 21
6.3263547297
 31
0.0
  0
LINE
  5
430
330
1F
100
AcDbEntity
  8
SLD-0
  6
Continuous
370
    15
100
AcDbLine
 10
10.3848147125
 20
6.2927549579
 30
0.0
 11
13.4051960475
 21
6.2927549579
 31
0.0
  0
LWPOLYLINE
  5
431
330
1F
100
AcDbEntity
  8
SLD-0
  6
Continuous
370
    15
100
AcDbPolyline
 90
        9
 70
   128
 43
0.0
 10
10.3830402863
 20
6.2927549579
 10
10.3783922534
 20
6.2939769704
 10
10.3739228583
 20
6.2975960753
 10
10.3698038459
 20
6.3034732341
 10
10.3661934676
 20
6.3113831694
 10
10.3632305418
 20
6.321020818
 10
10.3610288806
 20
6.3320159977
 10
10.3596731096
 20
6.3439468999
 10
10.3592152949
 20
6.3563547565
  0
LINE
  5
432
330
1F
100
AcDbEntity
  8
SLD-0
  6
Continuous
370
    15
100
AcDbLine
 10
10.3592152949
 20
6.3563547565
 30
0.0
 11
10.3718020828
 21
6.3563547565
 31
0.0
  0
LWPOLYLINE
  5
433
330
1F
100
AcDbEntity
  8
SLD-0
  6
Continuous
370
    15
100
AcDbPolyline
 90
        9
 70
   128
 43
0.0
 10
10.3830402863
 20
6.3263547297
 10
10.3808477917
 20
6.3269314164
 10
10.3787396294
 20
6.3286385967
 10
10.3767966851
 20
6.3314105647
 10
10.3750936848
 20
6.3351417216
 10
10.373696041
 20
6.3396877491
 10
10.3726575063
 20
6.3448744091
 10
10.3720179737
 20
6.3505022375
 10
10.3718020828
 20
6.3563547565
  0
LINE
  5
434
330
1F
100
AcDbEntity
  8
SLD-0
  6
Continuous
370
    15
100
AcDbLine
 10
10.3830402863
 20
6.2927549579
 30
0.0
 11
10.3830402863
 21
6.3263547297
 31
0.0
  0
LINE
  5
435
330
1F
100
AcDbEntity
  8
SLD-0
  6
Continuous
370
    15
100
AcDbLine
 10
10.3718020828
 20
6.3563547565
 30
0.0
 11
10.3718020828
 21
6.3721048146
 31
0.0
  0
LWPOLYLINE
  5
436
330
1F
100
AcDbEntity
  8
SLD-0
  6
Continuous
370
    15
100
AcDbPolyline
 90
        9
 70
   128
 43
0.0
 10
10.2433173338
 20
6.3563547565
 10
10.2437750751
 20
6.3439468999
 10
10.2451308461
 20
6.3320159977
 10
10.2473325074
 20
6.321020818
 10
10.2502955065
 20
6.3113831694
 10
10.2539058114
 20
6.3034732341
 10
10.2580248239
 20
6.2975960753
 10
10.2624942922
 20
6.2939769704
 10
10.2671422519
 20
6.2927549579
  0
LINE
  5
437
330
1F
100
AcDbEntity
  8
SLD-0
  6
Continuous
370
    15
100
AcDbLine
 10
10.3830402863
 20
6.2927549579
 30
0.0
 11
10.2671422519
 21
6.2927549579
 31
0.0
  0
LINE
  5
438
330
1F
100
AcDbEntity
  8
SLD-0
  6
Continuous
370
    15
100
AcDbLine
 10
10.3848147125
 20
6.3263547297
 30
0.0
 11
10.3830402863
 21
6.3263547297
 31
0.0
  0
LINE
  5
439
330
1F
100
AcDbEntity
  8
SLD-0
  6
Continuous
370
    15
100
AcDbLine
 10
10.3830402863
 20
6.2927549579
 30
0.0
 11
10.3848147125
 21
6.2927549579
 31
0.0
  0
LINE
  5
43A
330
1F
100
AcDbEntity
  8
SLD-0
  6
Continuous
370
    15
100
AcDbLine
 10
9.1145727981
 20
6.2927549579
 30
0.0
 11
9.1145727981
 21
6.3263547297
 31
0.0
  0
LINE
  5
43B
330
1F
100
AcDbEntity
  8
SLD-0
  6
Continuous
370
    15
100
AcDbLine
 10
10.2461344012
 20
6.3263547297
 30
0.0
 11
9.1145727981
 21
6.3263547297
 31
0.0
  0
LINE
  5
43C
330
1F
100
AcDbEntity
  8
SLD-0
  6
Continuous
370
    15
100
AcDbLine
 10
9.1145727981
 20
6.2927549579
 30
0.0
 11
10.2671422519
 21
6.2927549579
 31
0.0
  0
ARC
  5
43D
330
1F
100
AcDbEntity
  8
SLD-0
  6
Continuous
370
    15
100
AcDbCircle
 10
9.7408429143
 20
23.3383313271
 30
0.0
 40
0.3623014875025483
100
AcDbArc
 50
93.2689329419
 51
182.0921494609
  0
ARC
  5
43E
330
1F
100
AcDbEntity
  8
SLD-0
  6
Continuous
370
    15
100
AcDbCircle
 10
9.741347975
 20
23.3123382873
 30
0.0
 40
0.3627897375970605
100
AcDbArc
 50
177.9833440114
 51
266.6555735858
  0
LWPOLYLINE
  5
43F
330
1F
100
AcDbEntity
  8
SLD-0
  6
Continuous
370
    15
100
AcDbPolyline
 90
        9
 70
   128
 43
0.0
 10
9.1127983811
 20
6.2927549579
 10
9.1081503573
 20
6.2939769704
 10
9.1036809623
 20
6.2975960753
 10
9.0995619315
 20
6.3034732341
 10
9.0959515716
 20
6.3113831694
 10
9.0929886458
 20
6.321020818
 10
9.0907869662
 20
6.3320159977
 10
9.0894311952
 20
6.3439468999
 10
9.0889733988
 20
6.3563547565
  0
LINE
  5
440
330
1F
100
AcDbEntity
  8
SLD-0
  6
Continuous
370
    15
100
AcDbLine
 10
9.0889733988
 20
6.3563547565
 30
0.0
 11
9.1015601868
 21
6.3563547565
 31
0.0
  0
LWPOLYLINE
  5
441
330
1F
100
AcDbEntity
  8
SLD-0
  6
Continuous
370
    15
100
AcDbPolyline
 90
        9
 70
   128
 43
0.0
 10
9.1127983811
 20
6.3263547297
 10
9.1106059231
 20
6.3269314164
 10
9.108497715
 20
6.3286385967
 10
9.1065547799
 20
6.3314105647
 10
9.1048517796
 20
6.3351417216
 10
9.1034541632
 20
6.3396877491
 10
9.1024156469
 20
6.3448744091
 10
9.1017761234
 20
6.3505022375
 10
9.1015601868
 20
6.3563547565
  0
LINE
  5
442
330
1F
100
AcDbEntity
  8
SLD-0
  6
Continuous
370
    15
100
AcDbLine
 10
9.1127983811
 20
6.2927549579
 30
0.0
 11
9.1127983811
 21
6.3263547297
 31
0.0
  0
LINE
  5
443
330
1F
100
AcDbEntity
  8
SLD-0
  6
Continuous
370
    15
100
AcDbLine
 10
9.1015601868
 20
6.3563547565
 30
0.0
 11
9.1015601868
 21
6.3721048146
 31
0.0
  0
LWPOLYLINE
  5
444
330
1F
100
AcDbEntity
  8
SLD-0
  6
Continuous
370
    15
100
AcDbPolyline
 90
        9
 70
   128
 43
0.0
 10
8.9730754194
 20
6.3563547565
 10
8.9735332158
 20
6.3439468999
 10
8.9748889868
 20
6.3320159977
 10
8.977090648
 20
6.321020818
 10
8.9800535921
 20
6.3113831694
 10
8.9836639521
 20
6.3034732341
 10
8.9877829828
 20
6.2975960753
 10
8.9922523778
 20
6.2939769704
 10
8.9969004108
 20
6.2927549579
  0
LINE
  5
445
330
1F
100
AcDbEntity
  8
SLD-0
  6
Continuous
370
    15
100
AcDbLine
 10
9.1127983811
 20
6.2927549579
 30
0.0
 11
8.9969004108
 21
6.2927549579
 31
0.0
  0
LINE
  5
446
330
1F
100
AcDbEntity
  8
SLD-0
  6
Continuous
370
    15
100
AcDbLine
 10
9.1145727981
 20
6.3263547297
 30
0.0
 11
9.1127983811
 21
6.3263547297
 31
0.0
  0
LINE
  5
447
330
1F
100
AcDbEntity
  8
SLD-0
  6
Continuous
370
    15
100
AcDbLine
 10
9.1127983811
 20
6.2927549579
 30
0.0
 11
9.1145727981
 21
6.2927549579
 31
0.0
  0
LINE
  5
448
330
1F
100
AcDbEntity
  8
SLD-0
  6
Continuous
370
    15
100
AcDbLine
 10
8.8985069325
 20
4.293855116
 30
0.0
 11
8.8985069325
 21
6.3563547565
 31
0.0
  0
LWPOLYLINE
  5
449
330
1F
100
AcDbEntity
  8
SLD-0
  6
Continuous
370
    15
100
AcDbPolyline
 90
       36
 70
   128
 43
0.0
 10
6.467813202
 20
5.3251046429
 10
6.4687762043
 20
5.3713715751
 10
6.4716625709
 20
5.4175452284
 10
6.4764667287
 20
5.4635329105
 10
6.4831792912
 20
5.5092419291
 10
6.4917861784
 20
5.554579592
 10
6.5022703773
 20
5.5994555536
 10
6.5146110614
 20
5.6437788816
 10
6.5287827111
 20
5.6874604036
 10
6.5447574598
 20
5.7304121208
 10
6.5625027482
 20
5.772547794
 10
6.5819827898
 20
5.813781771
 10
6.6031585719
 20
5.8540325061
 10
6.6259875615
 20
5.8932172801
 10
6.6504234125
 20
5.9312586539
 10
6.6764168456
 20
5.9680786019
 10
6.7039159412
 20
6.0036043782
 10
6.7328652601
 20
6.0377632369
 10
6.7632064296
 20
6.0704871256
 10
6.7948779971
 20
6.1017097515
 10
6.8278166033
 20
6.1313683422
 10
6.8619558089
 20
6.159403645
 10
6.8972268281
 20
6.1857587539
 10
6.933558675
 20
6.2103802828
 10
6.9708781639
 20
6.2332189523
 10
7.0091100556
 20
6.254229003
 10
7.0481774976
 20
6.2733681952
 10
7.0880017309
 20
6.2905972228
 10
7.1285025297
 20
6.3058820596
 10
7.1695983483
 20
6.3191916125
 10
7.211206321
 20
6.3304994819
 10
7.2532429954
 20
6.3397822013
 10
7.2956234524
 20
6.3470215843
 10
7.3382623332
 20
6.3522035511
 10
7.381073692
 20
6.3553163685
 10
7.4176781891
 20
6.3563324634
  0
LWPOLYLINE
  5
44A
330
1F
100
AcDbEntity
  8
SLD-0
  6
Continuous
370
    15
100
AcDbPolyline
 90
       36
 70
   128
 43
0.0
 10
7.4176781891
 20
4.2938774091
 10
7.381073692
 20
4.294893504
 10
7.3382623332
 20
4.2980063214
 10
7.2956234524
 20
4.3031877015
 10
7.2532429954
 20
4.3104270846
 10
7.211206321
 20
4.3197103907
 10
7.1695983483
 20
4.3310176734
 10
7.1285025297
 20
4.344327813
 10
7.0880017309
 20
4.3596126497
 10
7.0481774976
 20
4.3768416774
 10
7.0091100556
 20
4.3959808696
 10
6.9708781639
 20
4.4169903336
 10
6.933558675
 20
4.4398290031
 10
6.8972268281
 20
4.4644511186
 10
6.8619558089
 20
4.4908062275
 10
6.8278166033
 20
4.5188415303
 10
6.7948779971
 20
4.5484995343
 10
6.7632064296
 20
4.579722747
 10
6.7328652601
 20
4.6124466356
 10
6.7039159412
 20
4.6466054944
 10
6.6764168456
 20
4.6821312706
 10
6.6504234125
 20
4.7189512186
 10
6.6259875615
 20
4.7569925925
 10
6.6031585719
 20
4.7961779531
 10
6.5819827898
 20
4.8364275148
 10
6.5625027482
 20
4.8776626652
 10
6.5447574598
 20
4.9197977517
 10
6.5287827111
 20
4.9627494689
 10
6.5146110614
 20
5.006430991
 10
6.5022703773
 20
5.0507543189
 10
6.4917861784
 20
5.0956302805
 10
6.4831792912
 20
5.1409685301
 10
6.4764667287
 20
5.1866763754
 10
6.4716625709
 20
5.2326646441
 10
6.4687762043
 20
5.2788382974
 10
6.467813202
 20
5.3251046429
  0
LINE
  5
44B
330
1F
100
AcDbEntity
  8
SLD-0
  6
Continuous
370
    15
100
AcDbLine
 10
1.8261231966
 20
24.32510478
 30
0.0
 11
1.8261231966
 21
3.3251048138
 31
0.0
  0
LINE
  5
44C
330
1F
100
AcDbEntity
  8
SLD-0
  6
Continuous
370
    15
100
AcDbLine
 10
1.8658981504
 20
24.32510478
 30
0.0
 11
1.8261231966
 21
24.32510478
 31
0.0
  0
LINE
  5
44D
330
1F
100
AcDbEntity
  8
SLD-0
  6
Continuous
370
    15
100
AcDbLine
 10
1.8658981504
 20
3.3251048138
 30
0.0
 11
1.8261231966
 21
3.3251048138
 31
0.0
  0
LINE
  5
44E
330
1F
100
AcDbEntity
  8
SLD-0
  6
Continuous
370
    15
100
AcDbLine
 10
16.8064600091
 20
6.4863550681
 30
0.0
 11
16.8064600091
 21
6.5176046804
 31
0.0
  0
LINE
  5
44F
330
1F
100
AcDbEntity
  8
SLD-0
  6
Continuous
370
    15
100
AcDbLine
 10
16.7884847501
 20
3.3251048138
 30
0.0
 11
16.8137234452
 21
3.3251048138
 31
0.0
  0
LINE
  5
450
330
1F
100
AcDbEntity
  8
SLD-0
  6
Continuous
370
    15
100
AcDbLine
 10
16.8137234452
 20
3.8321045035
 30
0.0
 11
16.7884847501
 21
3.8321045035
 31
0.0
  0
ENDSEC
  0
SECTION
  2
OBJECTS
  0
DICTIONARY
  5
C
330
0
100
AcDbDictionary
281
     1
  3
ACAD_GROUP
350
D
  3
ACAD_LAYOUT
350
1A
  3
ACAD_MATERIAL
350
3B
  3
ACAD_MLEADERSTYLE
350
452
  3
ACAD_MLINESTYLE
350
17
  3
ACAD_PLOTSETTINGS
350
19
  3
ACAD_PLOTSTYLENAME
350
E
  3
ACAD_TABLESTYLE
350
451
  0
DICTIONARY
  5
D
102
{ACAD_REACTORS
330
C
102
}
330
C
100
AcDbDictionary
281
     1
  0
DICTIONARY
  5
1A
102
{ACAD_REACTORS
330
C
102
}
330
C
100
AcDbDictionary
281
     1
  3
Layout1
350
1E
  3
Layout2
350
26
  3
Model
350
22
  0
DICTIONARY
  5
3B
102
{ACAD_REACTORS
330
C
102
}
330
C
100
AcDbDictionary
281
     1
  3
ByBlock
350
3D
  3
ByLayer
350
3C
  3
Global
350
3E
  0
DICTIONARY
  5
452
102
{ACAD_REACTORS
330
C
102
}
330
C
100
AcDbDictionary
281
     1
  0
DICTIONARY
  5
17
102
{ACAD_REACTORS
330
C
102
}
330
C
100
AcDbDictionary
281
     1
  3
Standard
350
18
  0
DICTIONARY
  5
19
102
{ACAD_REACTORS
330
C
102
}
330
C
100
AcDbDictionary
281
     1
  0
ACDBDICTIONARYWDFLT
  5
E
102
{ACAD_REACTORS
330
C
102
}
330
C
100
AcDbDictionary
281
     1
  3
Normal
350
F
100
AcDbDictionaryWithDefault
340
F
  0
DICTIONARY
  5
451
102
{ACAD_REACTORS
330
C
102
}
330
C
100
AcDbDictionary
281
     1
  0
LAYOUT
  5
1E
102
{ACAD_REACTORS
330
1A
102
}
330
1A
100
AcDbPlotSettings
  1

  2
none_device
  4

  6

 40
0.0
 41
0.0
 42
0.0
 43
0.0
 44
0.0
 45
0.0
 46
0.0
 47
0.0
 48
0.0
 49
0.0
140
0.0
141
0.0
142
1.0
143
1.0
 70
   688
 72
     0
 73
     0
 74
     5
  7

 75
    16
 76
     0
 77
     2
 78
   300
147
1.0
148
0.0
149
0.0
100
AcDbLayout
  1
Layout1
 70
     1
 71
     1
 10
0.0
 20
0.0
 11
12.0
 21
9.0
 12
0.0
 22
0.0
 32
0.0
 14
1.0000000000E+20
 24
1.0000000000E+20
 34
1.0000000000E+20
 15
-1.0000000000E+20
 25
-1.0000000000E+20
 35
-1.0000000000E+20
146
0.0
 13
0.0
 23
0.0
 33
0.0
 16
1.0
 26
0.0
 36
0.0
 17
0.0
 27
1.0
 37
0.0
 76
     0
330
1B
  0
LAYOUT
  5
26
102
{ACAD_REACTORS
330
1A
102
}
330
1A
100
AcDbPlotSettings
  1

  2
none_device
  4

  6

 40
0.0
 41
0.0
 42
0.0
 43
0.0
 44
0.0
 45
0.0
 46
0.0
 47
0.0
 48
0.0
 49
0.0
140
0.0
141
0.0
142
1.0
143
1.0
 70
   688
 72
     0
 73
     0
 74
     5
  7

 75
    16
 76
     0
 77
     2
 78
   300
147
1.0
148
0.0
149
0.0
100
AcDbLayout
  1
Layout2
 70
     1
 71
     2
 10
0.0
 20
0.0
 11
0.0
 21
0.0
 12
0.0
 22
0.0
 32
0.0
 14
0.0
 24
0.0
 34
0.0
 15
0.0
 25
0.0
 35
0.0
146
0.0
 13
0.0
 23
0.0
 33
0.0
 16
1.0
 26
0.0
 36
0.0
 17
0.0
 27
1.0
 37
0.0
 76
     0
330
23
  0
LAYOUT
  5
22
102
{ACAD_REACTORS
330
1A
102
}
330
1A
100
AcDbPlotSettings
  1

  2
none_device
  4

  6

 40
0.0
 41
0.0
 42
0.0
 43
0.0
 44
0.0
 45
0.0
 46
0.0
 47
0.0
 48
0.0
 49
0.0
140
0.0
141
0.0
142
1.0
143
1.0
 70
  1712
 72
     0
 73
     0
 74
     0
  7

 75
     0
 76
     0
 77
     2
 78
   300
147
1.0
148
0.0
149
0.0
100
AcDbLayout
  1
Model
 70
     1
 71
     0
 10
0.0
 20
0.0
 11
105.0
 21
65.0
 12
0.0
 22
0.0
 32
0.0
 14
0.0
 24
0.0
 34
0.0
 15
105.0
 25
65.0
 35
0.0
146
0.0
 13
0.0
 23
0.0
 33
0.0
 16
1.0
 26
0.0
 36
0.0
 17
0.0
 27
1.0
 37
0.0
 76
     0
330
1F
331
29
  0
MATERIAL
  5
3D
102
{ACAD_REACTORS
330
3B
102
}
330
3B
100
AcDbMaterial
  1
ByBlock
  0
MATERIAL
  5
3C
102
{ACAD_REACTORS
330
3B
102
}
330
3B
100
AcDbMaterial
  1
ByLayer
  0
MATERIAL
  5
3E
102
{ACAD_REACTORS
330
3B
102
}
330
3B
100
AcDbMaterial
  1
Global
  0
MLINESTYLE
  5
18
102
{ACAD_REACTORS
330
17
102
}
330
17
100
AcDbMlineStyle
  2
Standard
 70
     0
  3

 62
   256
 51
90.0
 52
90.0
 71
     2
 49
0.5
 62
   256
  6
BYLAYER
 49
-0.5
 62
   256
  6
BYLAYER
  0
ACDBPLACEHOLDER
  5
F
102
{ACAD_REACTORS
330
E
102
}
330
E
  0
ENDSEC
  0
EOF
